Субтитры мумия 2017 скачать


Скачать торрент Мумия / The Mummy (2017) WEB-DLRip-AVC от OlLanDGroup

Мумия / The Mummy«Отныне миром правят боги и монстры»

Год выпуска: 2017Страна: СШАПроизводство: Perfect World Pictures, Sean Daniel Company, Universal PicturesЖанр: Ужасы, фэнтези, боевик, приключения

Режиссёр: Алекс КуртцманВ ролях: Том Круз, Расселл Кроу, Аннабелль Уоллис, София Бутелла, Джейк Джонсон, Кортни Б. Вэнс, Марван Кензари, Саймон Атертон

Перевод: Дублированный | iTunesСубтитры: Русские (форсированные (хардсаб)), английские (форсированные, полные)

Описание: События происходят в наши дни, герой Тома Круза по имени Ник Мортон – боец спецподразделения на Ближнем Востоке, который, преследуя боевиков, попадает в странный бункер, где обнаруживает мумию ассирийской царицы. Вместе с ученой-антропологом по имени Дженни Хэлси (Аннабелль Уоллис) и группой солдат ее тело самолетом перевозят в Лондон. В процессе транспортировки случается инцидент, и самолет терпит крушение, после которого выжить удается только Нику и...мумии. Как гласит история, в свое время судьба несправедливо обошлась с ней и теперь, спустя тысячи лет, богиня просыпается ото сна. Пролежав все это время под тоннами песка, она наконец-то обретает свободу, и теперь ей ничто не помешает обрушить всю свою ярость на человечество.

Качество: WEB-DLRip-AVCПродолжительность: 01:50:06

Формат: MKVВидео кодек: MPEG-4 AVCАудио кодек: AC3Видео: 720x298 (2.40:1), 23.976 fps, x264 ~1513 kbps avg, 0.294 bit/pixelАудио: 48 kHz, AC3 Dolby Digital, 3/2 (L,C,R,l,r) + LFE ch, ~384.00 kbps avg | RUS (iTunes)

Дата премьеры (мир): 22 мая 2017Дата премьеры (РФ): 8 июня 2017, «UPI»

Релиз от: Rip by:

MediaInfo

Общее Уникальный идентификатор : 239843104339628791896165454390645749260 (0xB4701A0667F1DFCF872CABAF2F57F60C) Полное имя : D:The.Mummy.2017.WEB-DLRip(AVC).OlLanDGroup.mkv Формат : Matroska Версия формата : Version 2 Размер файла : 1,46 Гбайт Продолжительность : 1 ч. 50 м. Общий поток : 1896 Кбит/сек Название фильма : The.Mummy.2017 - TorpedoUK Дата кодирования : UTC 2017-08-03 14:02:33 Программа кодирования : mkvmerge v7.8.0 ('River Man') 32bit built on Apr 3 2015 12:11:22 Библиотека кодирования : libebml v1.3.1 + libmatroska v1.4.2

Видео Идентификатор : 1 Формат : AVC Формат/Информация : Advanced Video Codec Профиль формата : [email protected] Параметр CABAC формата : Да Параметр ReFrames формата : 10 кадров Идентификатор кодека : V_MPEG4/ISO/AVC Продолжительность : 1 ч. 50 м. Битрейт : 1513 Кбит/сек Ширина : 720 пикселей Высота : 298 пикселей Соотношение сторон : 2,40:1 Режим частоты кадров : Постоянный Частота кадров : 23,976 (24000/1001) кадра/сек Цветовое пространство : YUV Субдискретизация насыщенности : 4:2:0 Битовая глубина : 8 бит Тип развёртки : Прогрессивная Бит/(Пиксели*Кадры) : 0.294 Размер потока : 1,13 Гбайт (78%) Библиотека кодирования : x264 core 146 r2538 121396c Настройки программы : cabac=1 / ref=10 / deblock=1:-3:-3 / analyse=0x3:0x133 / me=umh / subme=11 / psy=1 / psy_rd=1.00:0.07 / mixed_ref=1 / me_range=48 / chroma_me=1 / trellis=2 / 8x8dct=1 / cqm=0 / deadzone=21,11 / fast_pskip=0 / chroma_qp_offset=-3 / threads=6 / lookahead_threads=1 / sliced_threads=0 / nr=0 / decimate=0 / interlaced=0 / bluray_compat=0 / constrained_intra=0 / bframes=10 / b_pyramid=2 / b_adapt=2 / b_bias=0 / direct=3 / weightb=1 / open_gop=0 / weightp=2 / keyint=240 / keyint_min=23 / scenecut=40 / intra_refresh=0 / rc_lookahead=40 / rc=2pass / mbtree=0 / bitrate=1513 / ratetol=1.0 / qcomp=0.60 / qpmin=0 / qpmax=69 / qpstep=4 / cplxblur=20.0 / qblur=0.5 / vbv_maxrate=50000 / vbv_bufsize=62500 / nal_hrd=none / filler=0 / ip_ratio=1.40 / pb_ratio=1.30 / aq=1:1.00 Default : Да Forced : Нет

Аудио Идентификатор : 2 Формат : AC-3 Формат/Информация : Audio Coding 3 Расширение режима : CM (complete main) Параметр Endianness формата : Big Идентификатор кодека : A_AC3 Продолжительность : 1 ч. 50 м. Вид битрейта : Постоянный Битрейт : 384 Кбит/сек Каналы : 6 каналов Расположение каналов : Front: L C R, Side: L R, LFE Частота : 48,0 КГц Частота кадров : 31,250 кадров/сек (1536 spf) Битовая глубина : 16 бит Метод сжатия : С потерями Размер потока : 302 Мбайт (20%) Заголовок : iTunes Язык : Russian Default : Да Forced : Нет

Текст #1 Идентификатор : 3 Формат : UTF-8 Идентификатор кодека : S_TEXT/UTF8 Идентификатор кодека/Информация : UTF-8 Plain Text Заголовок : Forced Язык : English Default : Нет Forced : Нет

Текст #2 Идентификатор : 4 Формат : UTF-8 Идентификатор кодека : S_TEXT/UTF8 Идентификатор кодека/Информация : UTF-8 Plain Text Заголовок : Full Язык : English Default : Нет Forced : Нет

Меню 00:00:00.000 : en:1 00:08:19.708 : en:2 00:13:19.924 : en:3 00:19:32.463 : en:4 00:24:41.146 : en:5 00:28:55.108 : en:6 00:35:42.390 : en:7 00:39:37.041 : en:8 00:47:01.068 : en:9 00:50:58.638 : en:10 00:56:50.740 : en:11 01:00:44.849 : en:12 01:08:59.009 : en:13 01:16:04.851 : en:14 01:19:39.440 : en:15 01:23:17.407 : en:16 01:26:27.847 : en:17 01:33:35.941 : en:18 01:37:03.982 : en:19 01:39:48.980 : en:20

krutor.org

Скачать торрент Мумия / The Mummy (2017) BDRip-HEVC 720р от SuperMin

Информация о фильмеНазвание: Мумия Оригинальное название: The Mummy Жанр: Ужасы, фэнтези, боевик, приключенияРежиссер: Алекс КуртцманВ ролях: Том Круз, Расселл Кроу, Аннабелль Уоллис, София Бутелла, Джейк Джонсон, Кортни Б. Вэнс, Марван Кензари, Саймон Атертон

О фильме: События происходят в наши дни, герой Тома Круза по имени Ник Мортон – боец спецподразделения на Ближнем Востоке, который, преследуя боевиков, попадает в странный бункер, где обнаруживает мумию ассирийской царицы. Вместе с ученой-антропологом по имени Дженни Хэлси (Аннабелль Уоллис) и группой солдат ее тело самолетом перевозят в Лондон. В процессе транспортировки случается инцидент, и самолет терпит крушение, после которого выжить удается только Нику и...мумии. Как гласит история, в свое время судьба несправедливо обошлась с ней и теперь, спустя тысячи лет, богиня просыпается ото сна. Пролежав все это время под тоннами песка, она наконец-то обретает свободу, и теперь ей ничто не помешает обрушить всю свою ярость на человечество.

Страна: СШАСтудия: Perfect World Pictures, Sean Daniel Company, Universal PicturesПродолжительность: 01:50:06Перевод: Дублированный - iTunes

ФайлКодек: H.265Качество: BDRip HEVC-10bit 720р от SuperMinВидео: 1280x534 (2.40:1), 1810 kbps, 23.976 fps Звук: Русский (AC3, 6 ch, 384 Кбит/с) Английский (AC3, 6 ch, 640 Кбит/с)Субтитры: английские

Лог&MI

x265 [info]: frame I: 2192, Avg QP:16.68 kb/s: 11017.92 x265 [info]: frame P: 32876, Avg QP:16.43 kb/s: 4128.36 x265 [info]: frame B: 123304, Avg QP:21.34 kb/s: 1027.68 x265 [info]: consecutive B-frames: 10.9% 2.9% 6.1% 28.3% 19.9% 23.9% 4.4% 2.7% 0.9% encoded 158372 frames in 47662.89s (3.32 fps), 1809.62 kb/s, Avg QP:20.26

General Unique ID : 205968235647969308128256937539002655368 (0x9AF40A0D1ED99A72B0500C45A1376288) Complete name : C:UsersЛОРДDesktopРЕМУКСМумия.2017.x265.BDRip.HEVC-10bit.720p.DUB.mkv Format : Matroska Format version : Version 4 / Version 2 File size : 2.18 GiB Duration : 1 h 50 min Overall bit rate : 2 837 kb/s Movie name : Мумия / The Mummy (2017) - #LORDKILL# Encoded date : UTC 2017-09-11 07:07:59 Writing application : mkvmerge v9.5.0 ('Quiet Fire') 64bit Writing library : libebml v1.3.4 + libmatroska v1.4.5

Video ID : 1 Format : HEVC Format/Info : High Efficiency Video Coding Format profile : Main [email protected]@High Codec ID : V_MPEGH/ISO/HEVC Duration : 1 h 50 min Bit rate : 1 810 kb/s Width : 1 280 pixels Height : 534 pixels Display aspect ratio : 2.40:1 Frame rate mode : Constant Frame rate : 23.976 (24000/1001) FPS Original frame rate : 23.976 (23976/1000) FPS Color space : YUV Chroma subsampling : 4:2:0 Bit depth : 10 bits Bits/(Pixel*Frame) : 0.110 Stream size : 1.39 GiB (64%) Writing library : x265 2.0+48-dad8b32c68d44c92:[Windows][GCC 6.1.0][64 bit] 10bit: KG7x [x265.ru] Encoding settings : wpp / ctu=64 / min-cu-size=8 / max-tu-size=32 / tu-intra-depth=1 / tu-inter-depth=1 / me=2 / subme=6 / merange=57 / rect / amp / max-merge=2 / temporal-mvp / no-early-skip / rskip / rdpenalty=0 / no-tskip / no-tskip-fast / strong-intra-smoothing / no-lossless / no-cu-lossless / no-constrained-intra / no-fast-intra / no-open-gop / no-temporal-layers / interlace=0 / keyint=240 / min-keyint=23 / scenecut=40 / rc-lookahead=20 / lookahead-slices=0 / bframes=8 / bframe-bias=0 / b-adapt=2 / ref=5 / limit-refs=3 / no-limit-modes / weightp / no-weightb / aq-mode=1 / qg-size=32 / aq-strength=2.00 / cbqpoffs=0 / crqpoffs=0 / rd=3 / psy-rd=2.00 / rdoq-level=0 / psy-rdoq=0.00 / log2-max-poc-lsb=8 / no-rd-refine / signhide / deblock=0:0 / sao / no-sao-non-deblock / b-pyramid / cutree / no-intra-refresh / rc=crf / crf=22.0 / qcomp=0.60 / qpmin=0 / qpmax=69 / qpstep=4 / vbv-maxrate=100000 / vbv-bufsize=100000 / crf-max=0.0 / ipratio=1.40 / pbratio=1.30 Default : Yes Forced : No

Audio #1 ID : 2 Format : AC-3 Format/Info : Audio Coding 3 Mode extension : CM (complete main) Format settings, Endianness : Big Codec ID : A_AC3 Duration : 1 h 50 min Bit rate mode : Constant Bit rate : 384 kb/s Channel(s) : 6 channels Channel positions : Front: L C R, Side: L R, LFE Sampling rate : 48.0 kHz Frame rate : 31.250 FPS (1536 spf) Bit depth : 16 bits Compression mode : Lossy Stream size : 302 MiB (14%) Title : Дубляж - iTunes Language : Russian Default : Yes Forced : No

Audio #2 ID : 3 Format : AC-3 Format/Info : Audio Coding 3 Mode extension : CM (complete main) Format settings, Endianness : Big Codec ID : A_AC3 Duration : 1 h 50 min Bit rate mode : Constant Bit rate : 640 kb/s Channel(s) : 6 channels Channel positions : Front: L C R, Side: L R, LFE Sampling rate : 48.0 kHz Frame rate : 31.250 FPS (1536 spf) Bit depth : 16 bits Compression mode : Lossy Stream size : 504 MiB (23%) Title : Original Language : English Default : No Forced : No

Text #1 ID : 4 Format : UTF-8 Codec ID : S_TEXT/UTF8 Codec ID/Info : UTF-8 Plain Text Duration : 1 h 19 min Bit rate : 2 b/s Count of elements : 31 Stream size : 1.32 KiB (0%) Title : Forced Language : Russian Default : Yes Forced : No

Text #2 ID : 5 Format : UTF-8 Codec ID : S_TEXT/UTF8 Codec ID/Info : UTF-8 Plain Text Duration : 1 h 39 min Bit rate : 64 b/s Count of elements : 1033 Stream size : 46.9 KiB (0%) Title : Full Language : Russian Default : No Forced : No

Text #3 ID : 6 Format : UTF-8 Codec ID : S_TEXT/UTF8 Codec ID/Info : UTF-8 Plain Text Duration : 1 h 36 min Bit rate : 41 b/s Count of elements : 1081 Stream size : 29.4 KiB (0%) Title : Full Language : English Default : No Forced : No

Text #4 ID : 7 Format : UTF-8 Codec ID : S_TEXT/UTF8 Codec ID/Info : UTF-8 Plain Text Duration : 1 h 37 min Bit rate : 49 b/s Count of elements : 1327 Stream size : 35.5 KiB (0%) Title : SDH Language : English Default : No Forced : No

Text #5 ID : 8 Format : UTF-8 Codec ID : S_TEXT/UTF8 Codec ID/Info : UTF-8 Plain Text Duration : 1 h 37 min Bit rate : 73 b/s Count of elements : 1357 Stream size : 52.5 KiB (0%) Title : SDH Colored Language : English Default : No Forced : No

Menu 00:00:00.000 : en:00:00:00.000 00:08:18.707 : en:00:08:18.707 00:13:18.923 : en:00:13:18.923 00:19:31.462 : en:00:19:31.462 00:24:40.145 : en:00:24:40.145 00:28:54.107 : en:00:28:54.107 00:35:41.389 : en:00:35:41.389 00:39:36.040 : en:00:39:36.040 00:47:00.067 : en:00:47:00.067 00:50:57.638 : en:00:50:57.638 00:56:49.740 : en:00:56:49.740 01:00:43.849 : en:01:00:43.849 01:08:58.009 : en:01:08:58.009 01:16:03.851 : en:01:16:03.851 01:19:38.440 : en:01:19:38.440 01:23:16.408 : en:01:23:16.408 01:26:26.848 : en:01:26:26.848 01:33:34.943 : en:01:33:34.943 01:37:02.984 : en:01:37:02.984 01:39:47.982 : en:01:39:47.982

mrutor.org

Скачать торрент Мумия / The Mummy (2017) WEBRip 1080р

Информация о фильмеНазвание: МумияОригинальное название: The MummyГод выхода: 2017Жанр: Фэнтези, боевик, триллер, приключенияРежиссер: Алекс КуртцманВ ролях: Том Круз, Рассел Кроу, Аннабелль Уоллис, София Бутелла, Джейк Джонсон, Кортни Б. Вэнс, Марван Кензари, Саймон Атертон, Стивен Томпсон, Джеймс Арама

О фильме:Посреди безжалостной пустыни в величественном саркофаге погребена дочь египетского фараона, но настанет день, и она явится в наш мир вернуть себе то, что принадлежит ей по праву. Отныне миром правят боги и монстры.

Страна: СШАСтудия: Perfect World Pictures, Sean Daniel Company, Secret Hideout, Universal PicturesПродолжительность: 01:51:32Перевод: Любительское, многоголосое ~ "Синема УС"

ФайлКодек: MPEG-4 AVCКачество: WEBRip 1080рВидео: 1920x800, 4937kb/s, 30.000fpsЗвук: 192kb/s, 2ch, 48000kHz, AC3 [RUS]Субтитры: Вшитые корейские субтитры.

ПРИСУТСТВУЕТ РЕКЛАМА

MI

Общее Уникальный идентификатор : 237919779136349823162807930872420481619 (0xB2FDAEC56E86E682AF69287E2C59BA53) Полное имя : G:MOVIESМумия [The Mummy] 2017 [WEBRip-1080p].mkv Формат : Matroska Версия формата : Version 2 Размер файла : 4,08 Гбайт Продолжительность : 1 ч. 51 м. Режим общего битрейта : Переменный Общий поток : 5233 Кбит/сек Дата кодирования : UTC 2017-07-13 08:32:23 Программа кодирования : mkvmerge v8.3.0 ('Over the Horizon') 64bit Библиотека кодирования : libebml v1.3.1 + libmatroska v1.4.2 DURATION : 01:51:32.633000000 NUMBER_OF_FRAMES : 200779 NUMBER_OF_BYTES : 4215557508 _STATISTICS_WRITING_APP : mkvmerge v8.3.0 ('Over the Horizon') 64bit _STATISTICS_WRITING_DATE_UTC : 2017-07-13 08:32:23 _STATISTICS_TAGS : BPS DURATION NUMBER_OF_FRAMES NUMBER_OF_BYTES

Видео Идентификатор : 1 Формат : AVC Формат/Информация : Advanced Video Codec Профиль формата : [email protected] Параметр CABAC формата : Да Параметр ReFrames формата : 5 кадров Идентификатор кодека : V_MPEG4/ISO/AVC Продолжительность : 1 ч. 51 м. Вид битрейта : Переменный Битрейт : 4937 Кбит/сек Максимальный битрейт : 5600 Кбит/сек Ширина : 1920 пикселей Высота : 800 пикселей Соотношение сторон : 2,40:1 Режим частоты кадров : Постоянный Частота кадров : 30,000 кадров/сек Стандарт вещания : Component Цветовое пространство : YUV Субдискретизация насыщенности : 4:2:0 Битовая глубина : 8 бит Тип развёртки : Прогрессивная Бит/(Пиксели*Кадры) : 0.107 Размер потока : 3,85 Гбайт (94%) Default : Да Forced : Нет Основные цвета : BT.709 Характеристики трансфера : BT.709 Коэффициенты матрицы : BT.709

Аудио Идентификатор : 2 Формат : AC-3 Формат/Информация : Audio Coding 3 Расширение режима : CM (complete main) Параметр Endianness формата : Big Идентификатор кодека : A_AC3 Продолжительность : 1 ч. 51 м. Вид битрейта : Постоянный Битрейт : 192 Кбит/сек Каналы : 2 канала Расположение каналов : Front: L R Частота : 48,0 КГц Битовая глубина : 16 бит Метод сжатия : С потерями Размер потока : 153 Мбайт (4%) Default : Да Forced : Нет

mrutor.org

Скачать торрент Мумия / The Mummy (2017) WEB-DLRip-AVC от ExKinoRay

Информация о фильмеНазвание: МумияОригинальное название: The MummyГод выпуска: 2017Жанр: Ужасы, фэнтези, боевик, приключенияРежиссер: Алекс КуртцманВ ролях: Том Круз, Расселл Кроу, Аннабелль Уоллис, София Бутелла, Джейк Джонсон, Кортни Б. Вэнс, Марван Кензари, Саймон Атертон

О фильме :Посреди безжалостной пустыни в величественном саркофаге погребена дочь египетского фараона, но настанет день, и она явится в наш мир вернуть себе то, что принадлежит ей по праву. Отныне миром правят боги и монстры.

Страна: СШАСтудия: Perfect World Pictures, Sean Daniel Company, Universal PicturesПродолжительность: 01:50:06Перевод: Дублированный | iTunesСубтитры: Русские форсированные (вшитые)

ФайлФормат: MKVКачество: WEB-DLRip-AVC Видео: MPEG-4 AVC , 736x304, ~ 874 Кбит/сАудио: AAC -LC, 2 ch, ~72 Кбит/с

MI

Общее Уникальный идентификатор : 223220090831630509918731476237230581076 (0xA7EEA02EABDA9A1AAED66ACAD47CA554) Полное имя : C:UsersАлександрDesktopфильмThe.Mummy.2017.ExKinoRay.mkv Формат : Matroska Версия формата : Version 2 Размер файла : 745 Мбайт Продолжительность : 1 ч. 50 м. Общий поток : 947 Кбит/сек Дата кодирования : UTC 2017-08-03 00:41:47 Программа кодирования : mkvmerge v7.8.0 ('River Man') 32bit built on Apr 3 2015 12:11:22 Библиотека кодирования : libebml v1.3.1 + libmatroska v1.4.2

Видео Идентификатор : 1 Формат : AVC Формат/Информация : Advanced Video Codec Профиль формата : [email protected] Параметр CABAC формата : Да Параметр ReFrames формата : 9 кадров Идентификатор кодека : V_MPEG4/ISO/AVC Продолжительность : 1 ч. 50 м. Номинальный битрейт : 874 Кбит/сек Ширина : 736 пикселей Высота : 304 пикселя Соотношение сторон : 2,40:1 Режим частоты кадров : Постоянный Частота кадров : 23,976 (24000/1001) кадра/сек Цветовое пространство : YUV Субдискретизация насыщенности : 4:2:0 Битовая глубина : 8 бит Тип развёртки : Прогрессивная Бит/(Пиксели*Кадры) : 0.163 Библиотека кодирования : x264 core 146 r2538 121396c Настройки программы : cabac=1 / ref=9 / deblock=1:-2:-2 / analyse=0x3:0x113 / me=umh / subme=11 / psy=1 / psy_rd=1.00:0.00 / mixed_ref=1 / me_range=32 / chroma_me=1 / trellis=2 / 8x8dct=1 / cqm=0 / deadzone=21,11 / fast_pskip=1 / chroma_qp_offset=-2 / threads=6 / lookahead_threads=1 / sliced_threads=0 / nr=0 / decimate=0 / interlaced=0 / bluray_compat=0 / constrained_intra=0 / bframes=9 / b_pyramid=2 / b_adapt=2 / b_bias=0 / direct=3 / weightb=1 / open_gop=0 / weightp=2 / keyint=240 / keyint_min=23 / scenecut=40 / intra_refresh=0 / rc_lookahead=40 / rc=2pass / mbtree=0 / bitrate=874 / ratetol=1.0 / qcomp=0.60 / qpmin=0 / qpmax=69 / qpstep=4 / cplxblur=20.0 / qblur=0.5 / vbv_maxrate=50000 / vbv_bufsize=62500 / nal_hrd=none / filler=0 / ip_ratio=1.40 / pb_ratio=1.30 / aq=1:1.00 Default : Да Forced : Нет

Аудио Идентификатор : 2 Формат : AAC Формат/Информация : Advanced Audio Codec Профиль формата : LC Идентификатор кодека : A_AAC Продолжительность : 1 ч. 50 м. Каналы : 2 канала Расположение каналов : Front: L R Частота : 48,0 КГц Частота кадров : 46,875 кадров/сек (1024 spf) Метод сжатия : С потерями Default : Да Forced : Нет

Релиз от:

mrutor.org

Скачать торрент Мумия / The Mummy (2017) WEBRip 1080р

Информация о фильмеНазвание: МумияОригинальное название: The MummyГод выхода: 2017Жанр: Фэнтези, боевик, триллер, приключенияРежиссер: Алекс КуртцманВ ролях: Том Круз, Рассел Кроу, Аннабелль Уоллис, София Бутелла, Джейк Джонсон, Кортни Б. Вэнс, Марван Кензари, Саймон Атертон, Стивен Томпсон, Джеймс Арама

О фильме:Посреди безжалостной пустыни в величественном саркофаге погребена дочь египетского фараона, но настанет день, и она явится в наш мир вернуть себе то, что принадлежит ей по праву. Отныне миром правят боги и монстры.

Страна: СШАСтудия: Perfect World Pictures, Sean Daniel Company, Secret Hideout, Universal PicturesПродолжительность: 01:51:32Перевод: Любительское, многоголосое ~ "Синема УС"

ФайлКодек: MPEG-4 AVCКачество: WEBRip 1080рВидео: 1920x800, 4937kb/s, 30.000fpsЗвук: 192kb/s, 2ch, 48000kHz, AC3 [RUS]Субтитры: Вшитые корейские субтитры.

ПРИСУТСТВУЕТ РЕКЛАМА

MI

Общее Уникальный идентификатор : 237919779136349823162807930872420481619 (0xB2FDAEC56E86E682AF69287E2C59BA53) Полное имя : G:MOVIESМумия [The Mummy] 2017 [WEBRip-1080p].mkv Формат : Matroska Версия формата : Version 2 Размер файла : 4,08 Гбайт Продолжительность : 1 ч. 51 м. Режим общего битрейта : Переменный Общий поток : 5233 Кбит/сек Дата кодирования : UTC 2017-07-13 08:32:23 Программа кодирования : mkvmerge v8.3.0 ('Over the Horizon') 64bit Библиотека кодирования : libebml v1.3.1 + libmatroska v1.4.2 DURATION : 01:51:32.633000000 NUMBER_OF_FRAMES : 200779 NUMBER_OF_BYTES : 4215557508 _STATISTICS_WRITING_APP : mkvmerge v8.3.0 ('Over the Horizon') 64bit _STATISTICS_WRITING_DATE_UTC : 2017-07-13 08:32:23 _STATISTICS_TAGS : BPS DURATION NUMBER_OF_FRAMES NUMBER_OF_BYTES

Видео Идентификатор : 1 Формат : AVC Формат/Информация : Advanced Video Codec Профиль формата : [email protected] Параметр CABAC формата : Да Параметр ReFrames формата : 5 кадров Идентификатор кодека : V_MPEG4/ISO/AVC Продолжительность : 1 ч. 51 м. Вид битрейта : Переменный Битрейт : 4937 Кбит/сек Максимальный битрейт : 5600 Кбит/сек Ширина : 1920 пикселей Высота : 800 пикселей Соотношение сторон : 2,40:1 Режим частоты кадров : Постоянный Частота кадров : 30,000 кадров/сек Стандарт вещания : Component Цветовое пространство : YUV Субдискретизация насыщенности : 4:2:0 Битовая глубина : 8 бит Тип развёртки : Прогрессивная Бит/(Пиксели*Кадры) : 0.107 Размер потока : 3,85 Гбайт (94%) Default : Да Forced : Нет Основные цвета : BT.709 Характеристики трансфера : BT.709 Коэффициенты матрицы : BT.709

Аудио Идентификатор : 2 Формат : AC-3 Формат/Информация : Audio Coding 3 Расширение режима : CM (complete main) Параметр Endianness формата : Big Идентификатор кодека : A_AC3 Продолжительность : 1 ч. 51 м. Вид битрейта : Постоянный Битрейт : 192 Кбит/сек Каналы : 2 канала Расположение каналов : Front: L R Частота : 48,0 КГц Битовая глубина : 16 бит Метод сжатия : С потерями Размер потока : 153 Мбайт (4%) Default : Да Forced : Нет

krutor.org


Смотрите также