Проклятие аннабель субтитры русские


rutor.org :: Проклятие Аннабель / Annabelle (2014) DVD9

Информация о фильмеНазвание: Проклятие АннабельОригинальное название: AnnabelleГод выхода: 2014Жанр: ужасыРежиссер: Джон Р. ЛеонеттиВ ролях: Аннабелль Уоллис, Уорд Хортон, Элфри Вудард, Тони Амендола, Эрик Ладин, Керри О’Мэлли, Брайан Хау, Ивар Броггер, Джофф Уэнер, Гэбриел Бейтман

О фильме: Джон находит идеальный подарок для своей жены — это редкая старинная кукла в белом свадебном платье. Но восторг от подарка продлился не долго. Однажды ночью в их дом вторгаются члены сатанинского культа…

лицам до 17 лет обязательно присутствие взрослого

Страна: СШАСтудия: New Line CinemaПродолжительность: 95 мин. / 01:35Перевод: полное дублированиеБонусы: Проклятие Аннабель - рассказ о съемках

ФайлКодек: MPEG2Качество: DVD9Видео: PAL 16:9 ([email protected]) VBR 6401 Kbps, 25.000 fpsАудио 1: Dolby AC3, 6 ch, 48.0 KHz, 384 Kbps (русский)Аудио 2: Dolby AC3, 6 ch, 48.0 KHz, 384 Kbps (украинский)Аудио 3: Dolby AC3, 6 ch, 48.0 KHz, 384 Kbps (английский)Аудио 4: Dolby AC3, 6 ch, 48.0 KHz, 384 Kbps (польский)Аудио 5: Dolby AC3, 2 ch, 48.0 KHz, 192 Kbps (турецкий)Субтитры: русские, украинские, английские, болгарские, хорватские, словенские, эстонские, латышские, литовские, польские, турецкие

MediaInfo

General Complete name : E:Prokljatie.Annabel.2014.DVD9VIDEO_TSVTS_01_1.VOB Format : MPEG-PS File size : 1 024 MiB Duration : 17mn 15s Overall bit rate mode : Variable Overall bit rate : 8 294 Kbps

Video ID : 224 (0xE0) Format : MPEG Video Format version : Version 2 Format profile : [email protected] Format settings, BVOP : Yes Format settings, Matrix : Custom Format settings, GOP : Variable Format settings, picture struc : Frame Duration : 17mn 15s Bit rate mode : Variable Bit rate : 6 401 Kbps Maximum bit rate : 7 500 Kbps Width : 720 pixels Height : 576 pixels Display aspect ratio : 16:9 Frame rate : 25.000 fps Standard : PAL Color space : YUV Chroma subsampling : 4:2:0 Bit depth : 8 bits Scan type : Interlaced Scan order : Top Field First Compression mode : Lossy Bits/(Pixel*Frame) : 0.617 Time code of first frame : 00:59:58:00 Time code source : Group of pictures header GOP, Open/Closed : Closed Stream size : 790 MiB (77%)

Audio #1 ID : 189 (0xBD)-128 (0x80) Format : AC-3 Format/Info : Audio Coding 3 Mode extension : CM (complete main) Format settings, Endianness : Big Muxing mode : DVD-Video Duration : 17mn 15s Bit rate mode : Constant Bit rate : 384 Kbps Channel(s) : 6 channels Channel positions : Front: L C R, Side: L R, LFE Sampling rate : 48.0 KHz Bit depth : 16 bits Compression mode : Lossy Stream size : 47.4 MiB (5%)

Audio #2 ID : 189 (0xBD)-129 (0x81) Format : AC-3 Format/Info : Audio Coding 3 Mode extension : CM (complete main) Format settings, Endianness : Big Muxing mode : DVD-Video Duration : 17mn 15s Bit rate mode : Constant Bit rate : 384 Kbps Channel(s) : 6 channels Channel positions : Front: L C R, Side: L R, LFE Sampling rate : 48.0 KHz Bit depth : 16 bits Compression mode : Lossy Stream size : 47.4 MiB (5%)

Audio #3 ID : 189 (0xBD)-130 (0x82) Format : AC-3 Format/Info : Audio Coding 3 Mode extension : CM (complete main) Format settings, Endianness : Big Muxing mode : DVD-Video Duration : 17mn 15s Bit rate mode : Constant Bit rate : 384 Kbps Channel(s) : 6 channels Channel positions : Front: L C R, Side: L R, LFE Sampling rate : 48.0 KHz Bit depth : 16 bits Compression mode : Lossy Stream size : 47.4 MiB (5%)

Audio #4 ID : 189 (0xBD)-131 (0x83) Format : AC-3 Format/Info : Audio Coding 3 Format profile : Dolby Digital Mode extension : CM (complete main) Format settings, Endianness : Big Muxing mode : DVD-Video Duration : 17mn 15s Bit rate mode : Constant Bit rate : 192 Kbps Channel(s) : 2 channels Channel positions : Front: L R Sampling rate : 48.0 KHz Bit depth : 16 bits Compression mode : Lossy Stream size : 23.7 MiB (2%)

Audio #5 ID : 189 (0xBD)-132 (0x84) Format : AC-3 Format/Info : Audio Coding 3 Mode extension : CM (complete main) Format settings, Endianness : Big Muxing mode : DVD-Video Duration : 17mn 15s Bit rate mode : Constant Bit rate : 384 Kbps Channel(s) : 6 channels Channel positions : Front: L C R, Side: L R, LFE Sampling rate : 48.0 KHz Bit depth : 16 bits Compression mode : Lossy Stream size : 47.4 MiB (5%)

Text #1 ID : 189 (0xBD)-32 (0x20) Format : RLE Format/Info : Run-length encoding Muxing mode : DVD-Video

Text #2 ID : 189 (0xBD)-33 (0x21) Format : RLE Format/Info : Run-length encoding Muxing mode : DVD-Video

Text #3 ID : 189 (0xBD)-34 (0x22) Format : RLE Format/Info : Run-length encoding Muxing mode : DVD-Video

Text #4 ID : 189 (0xBD)-35 (0x23) Format : RLE Format/Info : Run-length encoding Muxing mode : DVD-Video

Text #5 ID : 189 (0xBD)-36 (0x24) Format : RLE Format/Info : Run-length encoding Muxing mode : DVD-Video

Text #6 ID : 189 (0xBD)-37 (0x25) Format : RLE Format/Info : Run-length encoding Muxing mode : DVD-Video

Text #7 ID : 189 (0xBD)-38 (0x26) Format : RLE Format/Info : Run-length encoding Muxing mode : DVD-Video

Text #8 ID : 189 (0xBD)-39 (0x27) Format : RLE Format/Info : Run-length encoding Muxing mode : DVD-Video

Text #9 ID : 189 (0xBD)-40 (0x28) Format : RLE Format/Info : Run-length encoding Muxing mode : DVD-Video

Text #10 ID : 189 (0xBD)-41 (0x29) Format : RLE Format/Info : Run-length encoding Muxing mode : DVD-Video

Text #11 ID : 189 (0xBD)-42 (0x2A) Format : RLE Format/Info : Run-length encoding Muxing mode : DVD-Video

Menu

main-rutor.org

rutor.org :: Проклятие Аннабель / Annabelle (2014) BDRip 720p от Leonardo and Scarabey

Проклятие Аннабель / Annabelle

Страна: СШАГод выпуска: 2014Жанр: ужасыПродолжительность: 01:38:49Перевод: Профессиональный (полное дублирование) Лицензия

Режиссер: Джон Р. Леонетти

Актеры: Аннабелль Уоллис, Уорд Хортон, Элфри Вудард, Тони Амендола, Эрик Ладин, Керри О’Мэлли, Брайан Хау, Ивар Броггер, Джофф Уэнер, Гэбриел Бейтман

Описание фильма: Джон находит идеальный подарок для своей жены — это редкая старинная кукла в белом свадебном платье. Но восторг от подарка продлился не долго. Однажды ночью в их дом вторгаются члены сатанинского культа…

ФайлКачество видео: BDRip 720p Исходник: Blu-rayФормат: MKV Видео кодек: MPEG-4 AVC Аудио кодек: AC3Видео: 1280x532 (2.40:1) at 23.976 fps, AVC at 2770 kbps avg, 0.170 bit/pixelАудио: 48 kHz, AC3 Dolby Digital, 3/2 (L,C,R,l,r) + LFE ch, 640 kbps avgСубтитры: Русские, английскиеНавигация по главам: Есть

Автор рипа:

Сообщество:

Релиз от:

MediaInfo

* * * MediaInfo Mac 0.7.33.4 file analysis report. * * * MediaInfo Mac is ©2010 by Diego Massanti - http://mediainfo.massanti.com * * * MediaInfoLib by Jerome Martinez - http://mediainfo.sourceforge.net Created on: 05.02.2015 11:38:39 Московское стандартное время Report for file: Annabelle.2014.720p.BluRay.x264-LEONARDO_[scarabey.org].mkv

General / Container Stream #1 Total Video Streams for this File.................1 Total Audio Streams for this File.................1 Total Subtitle Streams for this File..............5 Video Codecs Used.................................AVC Audio Codecs Used.................................AC3 SubTitle Codecs Used..............................UTF-8 / UTF-8 / UTF-8 / UTF-8 / UTF-8 Available Sutbitle Languages......................Russian / Russian / Ukrainian / Ukrainian / File Format.......................................Matroska Play Time.........................................1h 38mn Total File Size...................................2.40 GiB Total Stream BitRate..............................3 480 Kbps Title (Tag).......................................-=LEONARDO=- Encoded with......................................mkvmerge v5.0.1 ('Es ist Sommer') built on Oct 23 2011 00:46:40 Encoding Library..................................libebml v1.2.2 + libmatroska v1.3.0 Video Stream #1 Codec (Human Name)................................AVC Codec (FourCC)....................................V_MPEG4/ISO/AVC Codec [email protected] Frame Width.......................................1 280 pixels Frame Height......................................532 pixels Frame Rate........................................23.976 fps Total Frames......................................142134 Display Aspect Ratio..............................2.40:1 Scan Type.........................................Progressive Color Space.......................................YUV Codec Settings (Summary)..........................CABAC / 9 Ref Frames QF (like Gordian Knot)............................0.170 Codec Settings (CABAC)............................Yes Codec Settings (Reference Frames).................9 Video Stream Length...............................1h 38mn 48s 178ms Video Stream BitRate..............................2 770 Kbps Bit Depth.........................................8 bits Video Stream Size.................................1.91 GiB (80%) Video Encoder.....................................x264 - core 144 r2525 40bb568 Video Encoder (Settings)..........................cabac=1 / ref=9 / deblock=1:-3:-3 / analyse=0x3:0x133 / me=tesa / subme=11 / psy=1 / psy_rd=1.00:0.00 / mixed_ref=1 / me_range=24 / chroma_me=1 / trellis=2 / 8x8dct=1 / cqm=0 / deadzone=21,11 / fast_pskip=0 / chroma_qp_offset=-2 / threads=12 / lookahead_threads=3 / sliced_threads=0 / nr=0 / decimate=1 / interlaced=0 / bluray_compat=0 / constrained_intra=0 / bframes=16 / b_pyramid=2 / b_adapt=2 / b_bias=0 / direct=1 / weightb=1 / open_gop=0 / weightp=2 / keyint=250 / keyint_min=23 / scenecut=40 / intra_refresh=0 / rc=crf / mbtree=0 / crf=18.0 / qcomp=0.60 / qpmin=0 / qpmax=69 / qpstep=4 / ip_ratio=1.40 / pb_ratio=1.30 / aq=1:1.00 Audio Stream #1 Codec.............................................AC-3 Codec (FourCC)....................................A_AC3 Audio Stream Length...............................1h 38mn 48s 160ms Audio Stream BitRate..............................640 Kbps Audio Stream BitRate Mode.........................CBR Number of Audio Channels..........................6 Audio Channel's Positions.........................Front: L C R, Side: L R, LFE Sampling Rate.....................................48.0 KHz Audio Stream Size.................................452 MiB (18%) Audio Stream Language.............................Russian Subtitle Stream #1 Language..........................................Russian Format............................................UTF-8 Codec ID..........................................S_TEXT/UTF8 Codec Info........................................UTF-8 Plain Text Subtitle Stream #2 Language..........................................Russian Format............................................UTF-8 Codec ID..........................................S_TEXT/UTF8 Codec Info........................................UTF-8 Plain Text Subtitle Stream #3 Language..........................................Ukrainian Format............................................UTF-8 Codec ID..........................................S_TEXT/UTF8 Codec Info........................................UTF-8 Plain Text Subtitle Stream #4 Language..........................................Ukrainian Format............................................UTF-8 Codec ID..........................................S_TEXT/UTF8 Codec Info........................................UTF-8 Plain Text Subtitle Stream #5 Format............................................UTF-8 Codec ID..........................................S_TEXT/UTF8 Codec Info........................................UTF-8 Plain Text Menu / Chapters Stream #1

main-rutor.org

rutor.org :: Проклятие Аннабель / Annabelle (2014) BDRip 1080p от ExKinoRay | D

Информация о фильме

Название: Проклятие АннабельОригинальное название: AnnabelleГод выпуска: 2014Жанр: УжасыВыпущено: США , Evergreen Media, New Line CinemaРежиссер: Джон Р. ЛеонеттиВ ролях: Аннабелль Уоллис, Уорд Хортон, Элфри Вудард, Тони Амендола, Эрик Ладин, Керри О’Мэлли, Брайан Хау, Ивар Броггер, Джофф Уэнер, Гэбриел Бейтман

О фильме: Джон находит идеальный подарок для своей жены — это редкая старинная кукла в белом свадебном платье. Но восторг от подарка продлился не долго. Однажды ночью в их дом вторгаются члены сатанинского культа…

Файл

Качество: BDRip (1080p)Видео: MPEG-4 AVC, 6666 Кбит/с, 1920x800, 23.976 кадр/сАудио: Русский (AC3, 6 ch, 640 Кбит/с), украинский (AC3, 2 ch, 192 Кбит/с), (AC3, 6 ch, 640 Кбит/с), английский (AC3, 6 ch, 640 Кбит/с), (DTS, 6 ch, 1510 Кбит/с)Размер: 7.1 ГБПродолжительность: 01:38:49Перевод: ДублированныйСубтитры: Русские, украинские, английские

Сохранены оригинальные чаптеры как на Blu-Ray. Озвучивание - Дублированное (лицензия)

x264

x264 [info]: frame I:897 Avg QP:15.24 size:182444 x264 [info]: frame P:28095 Avg QP:17.52 size: 74862 x264 [info]: frame B:113141 Avg QP:18.95 size: 23599 x264 [info]: consecutive B-frames: 1.5% 1.7% 3.9% 18.3% 16.6% 34.1% 10.6% 10.5% 1.4% 1.3% x264 [info]: mb I I16..4: 10.8% 72.8% 16.4% x264 [info]: mb P I16..4: 0.9% 16.5% 0.7% P16..4: 30.1% 35.8% 8.7% 1.9% 0.1% skip: 5.3% x264 [info]: mb B I16..4: 0.1% 0.6% 0.0% B16..8: 41.3% 20.7% 2.4% direct: 4.8% skip:30.1% L0:46.5% L1:44.7% BI: 8.8% x264 [info]: 8x8 transform intra:87.9% inter:51.8% x264 [info]: direct mvs spatial:98.3% temporal:1.7% x264 [info]: coded y,uvDC,uvAC intra: 94.2% 88.9% 76.4% inter: 28.4% 29.1% 12.9% x264 [info]: i16 v,h,dc,p: 25% 14% 11% 51% x264 [info]: i8 v,h,dc,ddl,ddr,vr,hd,vl,hu: 8% 6% 13% 11% 13% 13% 11% 12% 12% x264 [info]: i4 v,h,dc,ddl,ddr,vr,hd,vl,hu: 12% 9% 6% 9% 15% 14% 13% 11% 12% x264 [info]: i8c dc,h,v,p: 57% 15% 14% 14% x264 [info]: Weighted P-Frames: Y:9.7% UV:5.9% x264 [info]: ref P L0: 44.7% 7.7% 27.2% 9.3% 9.9% 1.0% 0.2% x264 [info]: ref B L0: 75.8% 17.4% 5.1% 1.7% x264 [info]: ref B L1: 93.5% 6.5% x264 [info]: kb/s:6662.41

Инфо-файл

Общее Уникальный идентификатор : 175442114513269403229922815342518664323 (0x83FCEC144D1C9C9B8B07AA1FF36EFC83) Полное имя : D:ЗагрузкиAnnabelle.2014.x264.BDRip.(1080p).ExKinoRay.mkv Формат : Matroska Версия формата : Version 2 Размер файла : 7,10 Гбайт Продолжительность : 1 ч. 38 м. Общий поток : 10,3 Мбит/сек Название фильма : Проклятие Аннабель.2014.Rip by: ollan Дата кодирования : UTC 2015-02-03 21:39:36 Программа кодирования : mkvmerge v5.6.0 ('Kenya Kane') built on May 27 2012 16:44:04 Библиотека кодирования : libebml v1.2.3 + libmatroska v1.3.0

Видео Идентификатор : 1 Формат : AVC Формат/Информация : Advanced Video Codec Профиль формата : [email protected] Параметр CABAC формата : Да Параметр ReFrames формата : 5 кадров Идентификатор кодека : V_MPEG4/ISO/AVC Продолжительность : 1 ч. 38 м. Битрейт : 6666 Кбит/сек Ширина : 1920 пикселей Высота : 800 пикселей Соотношение сторон : 2,40:1 Режим частоты кадров : Постоянный Частота кадров : 23,976 кадра/сек Цветовое пространство : YUV Субдискретизация насыщенности : 4:2:0 Битовая глубина : 8 бит Тип развёртки : Прогрессивная Бит/(Пиксели*Кадры) : 0.181 Размер потока : 4,46 Гбайт (63%) Библиотека кодирования : x264 core 125 r2200 999b753 Настройки программы : cabac=1 / ref=5 / deblock=1:-3:-3 / analyse=0x3:0x133 / me=umh / subme=11 / psy=1 / psy_rd=1.00:0.10 / mixed_ref=1 / me_range=32 / chroma_me=1 / trellis=2 / 8x8dct=1 / cqm=0 / deadzone=21,11 / fast_pskip=0 / chroma_qp_offset=-3 / threads=12 / lookahead_threads=2 / sliced_threads=0 / nr=0 / decimate=0 / interlaced=0 / bluray_compat=0 / constrained_intra=0 / bframes=9 / b_pyramid=2 / b_adapt=2 / b_bias=0 / direct=3 / weightb=1 / open_gop=0 / weightp=2 / keyint=240 / keyint_min=23 / scenecut=40 / intra_refresh=0 / rc=2pass / mbtree=0 / bitrate=6666 / ratetol=1.0 / qcomp=0.60 / qpmin=0 / qpmax=69 / qpstep=4 / cplxblur=20.0 / qblur=0.5 / ip_ratio=1.40 / pb_ratio=1.30 / aq=1:1.00 Язык : English Default : Да Forced : Нет

Аудио #1 Идентификатор : 2 Формат : AC-3 Формат/Информация : Audio Coding 3 Расширение режима : CM (complete main) Параметр Endianness формата : Big Идентификатор кодека : A_AC3 Продолжительность : 1 ч. 38 м. Вид битрейта : Постоянный Битрейт : 640 Кбит/сек Каналы : 6 каналов Расположение каналов : Front: L C R, Side: L R, LFE Частота : 48,0 КГц Битовая глубина : 16 бит Метод сжатия : С потерями Размер потока : 452 Мбайт (6%) Заголовок : Дублированный (Лицензия) Язык : Russian Default : Да Forced : Нет

Аудио #2 Идентификатор : 3 Формат : AC-3 Формат/Информация : Audio Coding 3 Расширение режима : CM (complete main) Параметр Endianness формата : Big Идентификатор кодека : A_AC3 Продолжительность : 1 ч. 38 м. Вид битрейта : Постоянный Битрейт : 640 Кбит/сек Каналы : 6 каналов Расположение каналов : Front: L C R, Side: L R, LFE Частота : 48,0 КГц Битовая глубина : 16 бит Метод сжатия : С потерями Размер потока : 452 Мбайт (6%) Заголовок : Дублированный (Лицензия) DVD R5 Язык : Ukrainian Default : Нет Forced : Нет

Аудио #3 Идентификатор : 4 Формат : AC-3 Формат/Информация : Audio Coding 3 Расширение режима : CM (complete main) Параметр Endianness формата : Big Идентификатор кодека : A_AC3 Продолжительность : 1 ч. 38 м. Вид битрейта : Постоянный Битрейт : 192 Кбит/сек Каналы : 2 канала Расположение каналов : Front: L R Частота : 48,0 КГц Битовая глубина : 16 бит Метод сжатия : С потерями Размер потока : 136 Мбайт (2%) Заголовок : Дублированный (iTunes Russia) Язык : Ukrainian Default : Нет Forced : Нет

Аудио #4 Идентификатор : 5 Формат : AC-3 Формат/Информация : Audio Coding 3 Расширение режима : CM (complete main) Параметр Endianness формата : Big Идентификатор кодека : A_AC3 Продолжительность : 1 ч. 38 м. Вид битрейта : Постоянный Битрейт : 640 Кбит/сек Каналы : 6 каналов Расположение каналов : Front: L C R, Side: L R, LFE Частота : 48,0 КГц Битовая глубина : 16 бит Метод сжатия : С потерями Размер потока : 452 Мбайт (6%) Язык : English Default : Нет Forced : Нет

Аудио #5 Идентификатор : 6 Формат : DTS Формат/Информация : Digital Theater Systems Режим : 16 Параметр Endianness формата : Big Идентификатор кодека : A_DTS Продолжительность : 1 ч. 38 м. Вид битрейта : Постоянный Битрейт : 1509 Кбит/сек Каналы : 6 каналов Расположение каналов : Front: L C R, Side: L R, LFE Частота : 48,0 КГц Битовая глубина : 24 бит Метод сжатия : С потерями Размер потока : 1,04 Гбайт (15%) Язык : English Default : Нет Forced : Нет

Текст #1 Идентификатор : 7 Формат : UTF-8 Идентификатор кодека : S_TEXT/UTF8 Идентификатор кодека/Информация : UTF-8 Plain Text Заголовок : Forced Язык : Russian Default : Да Forced : Нет

Текст #2 Идентификатор : 8 Формат : UTF-8 Идентификатор кодека : S_TEXT/UTF8 Идентификатор кодека/Информация : UTF-8 Plain Text Заголовок : Full Язык : Russian Default : Нет Forced : Нет

Текст #3 Идентификатор : 9 Формат : UTF-8 Идентификатор кодека : S_TEXT/UTF8 Идентификатор кодека/Информация : UTF-8 Plain Text Заголовок : Forced Язык : Ukrainian Default : Нет Forced : Нет

Текст #4 Идентификатор : 10 Формат : UTF-8 Идентификатор кодека : S_TEXT/UTF8 Идентификатор кодека/Информация : UTF-8 Plain Text Заголовок : Full Язык : Ukrainian Default : Нет Forced : Нет

Текст #5 Идентификатор : 11 Формат : UTF-8 Идентификатор кодека : S_TEXT/UTF8 Идентификатор кодека/Информация : UTF-8 Plain Text Заголовок : Full Язык : English Default : Нет Forced : Нет

Меню 00:00:00.000 : en:Chapter 01 00:11:58.091 : en:Chapter 02 00:19:55.152 : en:Chapter 03 00:30:13.603 : en:Chapter 04 00:39:09.971 : en:Chapter 05 00:51:15.488 : en:Chapter 06 00:59:49.168 : en:Chapter 07 01:10:05.158 : en:Chapter 08 01:20:25.278 : en:Chapter 09 01:31:54.006 : en:Chapter 10 01:34:42.676 : en:Chapter 11 01:38:47.880 : en:Chapter 12

Релиз от: Rip by:

main-rutor.org

Скачать фильм Проклятие Аннабель (2014) через торрент

20 февраля 2016 08:11 Проклятие Аннабель / Annabelle (2014) HDRip-AVC .torrent   [Информация о файле (нажмите для просмотра)] Перевод: Профессиональный (дублированный)Кодек: x264Качество: HDRip-AVC | BDRip 720pВидео: 768x320 (2,40:1), 23,976 fps, x264 ~989 kbps avg, 0.168 bit/pixelЗвук: 48,0 КГц / 24,0 КГц, HE-AAC / LC ~64.00 kbps avg 745,13 Mb 22 8 20 февраля 2016 08:11 Проклятие Аннабель / Annabelle (2014) HDRip от Scarabey | Лицензия .torrent   [Информация о файле (нажмите для просмотра)] Перевод: Професиональный (полное дублирование) - ЛицензияВидео: 720x304 (2.37:1), 23.976 fps, XviD build 73 ~1570 kbps avg, 0.30 bit/pixelАудио: 48 kHz, AC3 Dolby Digital, 3/2 (L,C,R,l,r) + LFE ch, ~448 kbps 1,4 Gb 863 26 20 февраля 2016 08:11 Проклятие Аннабель / Annabelle (2014) BDRip от HQCLUB | Лицензия .torrent   [Информация о файле (нажмите для просмотра)] Перевод: Профессиональный (полное дублирование) CEEСубтитры: русские (полные, форсированные), английские (обычные, SDH, SDH-Colored), украинские (полные, форсированные)Формат: AVIКачество: BDRip (источник:Видео: 720x304 (2.37:1), 23.976 fps, XviD build 65 ~1711 kbps avg, 0.33 bit/pixelАудио #1: 48 kHz, AC3 Dolby Digital, 3/2 (L,C,R,l,r) + LFE ch, ~384 kbps avg (RUS)Аудио #2: 48 kHz, AC3 Dolby Digital, 3/2 (L,C,R,l,r) + LFE ch, ~384 kbps avg (UKR)(отдельно)Аудио #3: 48 kHz, AC3 Dolby Digital, 3/2 (L,C,R,l,r) + LFE ch, ~384 kbps avg (ENG)(отдельно) 1,45 Gb 32 3 20 февраля 2016 08:11 Проклятие Аннабель / Annabelle (2014) HDRip от Scarabey | Лицензия .torrent   [Информация о файле (нажмите для просмотра)] Перевод: Професиональный (полное дублирование) ЛицензияВидео: 720x304 (2.37:1), 23.976 fps, XviD build 50 ~916 kbps avg, 0.17 bit/pixelАудио: 48 kHz, MPEG Layer 3, 2 ch, ~128.00 kbps avg 744,97 Mb 101 7 20 февраля 2016 08:11 Проклятие Аннабель / Annabelle (2014) BDRip от HELLYWOOD | Лицензия .torrent   [Информация о файле (нажмите для просмотра)] Перевод: Профессиональный (полное дублирование) Blu-ray CEE + Украинский (полное дублирование) R5 –отдельно + Оригинальная звуковая дорожка – отдельноСубтитры: Русские[Full, Forced], Украинские [Full, Forced], Английские [Full, SDH]Формат: AVIКачество: BDRip (Исходник: HDClub/Blu-ray CEE/1080p)Видео: 720x304 (2.37:1), 23.976 fps, XviD build 66 ~1638 kbps avg, 0.31 bit/pixelАудио #1: 48 kHz, AC3 Dolby Digital, 3/2 (L,C,R,l,r) + LFE ch, ~448 kbps|DUB, Blu-ray CEE|Аудио #2: 48 kHz, AC3 Dolby Digital, 3/2 (L,C,R,l,r) + LFE ch, ~384 kbps|DUB, UKR – R5|Аудио #3: 48 kHz, AC3 Dolby Digital, 3/2 (L,C,R,l,r) + LFE ch, ~448 kbps|ENG| 2,02 Gb 9 2 20 февраля 2016 08:11 Проклятие Аннабель / Annabelle (2014) DVD5 (сжатый) .torrent   [Информация о файле (нажмите для просмотра)] Перевод: Профессиональный (дублированный) [лицензия]Кодек: MPEG-2Качество: DVD5 (сжатый)Видео: [email protected] (PAL 16:9), ~5957 Кбит/секЗвук: AC3 5.1, 384 Кбит/сек [Английский / Русский(дуб)]Субтитры: Английские, болгарские, хорватские, эстонские, латышские, литовские, польские, русские, словенские, турецкие, украинскиеВидео: Идентификатор : 224 (0xE0) Формат : MPEG Video Версия формата : Version 2 Профиль формата : [email protected] Параметр BVOP формата : Да Параметр матрицы формата : Выборочная Параметр GOP формата : Variable Format_Settings_PictureStructure : Frame Продолжительность : 20 м. Вид битрейта : Переменный Битрейт : 5957 Кбит/сек Максимальный битрейт : 7500 Кбит/сек Ширина : 720 пикселей Высота : 576 пикселей Соотношение сторон : 16:9 Частота кадров : 25,000 кадров/сек Стандарт вещания : PAL Цветовое пространство : YUV Субдискретизация насыщенности : 4:2:0 Битовая глубина : 8 бит Тип развёртки : Чересстрочная Порядок развёртки : Верхнее поле первое Метод сжатия : С потерями Бит/(Пиксели*Кадры) : 0.575 Временной код первого кадра : 00:00:00:00 Оригинал временного кода : Group of pictures header Размер потока : 889 Мбайт (87%)Аудио #1: Идентификатор : 189 (0xBD)-128 (0x80) Формат : AC-3 Формат/Информация : Audio Coding 3 Расширение режима : CM (complete main) Параметр Endianness формата : Big Режим смешивания : DVD-Video Продолжительность : 20 м. Вид битрейта : Постоянный Битрейт : 384 Кбит/сек Каналы : 6 каналов Расположение каналов : Front: L C R, Side: L R, LFE Частота : 48,0 КГц Битовая глубина : 16 бит Метод сжатия : С потерями Размер потока : 57,3 Мбайт (6%)Аудио #2: Идентификатор : 189 (0xBD)-130 (0x82) Формат : AC-3 Формат/Информация : Audio Coding 3 Расширение режима : CM (complete main) Параметр Endianness формата : Big Режим смешивания : DVD-Video Продолжительность : 20 м. Вид битрейта : Постоянный Битрейт : 384 Кбит/сек Каналы : 6 каналов Расположение каналов : Front: L C R, Side: L R, LFE Частота : 48,0 КГц Битовая глубина : 16 бит Метод сжатия : С потерями Размер потока : 57,3 Мбайт (6%) Текст #1 Идентификатор : 189 (0xBD)-32 (0x20) Формат : RLE Формат/Информация : Run-length encoding Режим смешивания : DVD-Video Текст #2 Идентификатор : 189 (0xBD)-33 (0x21) Формат : RLE Формат/Информация : Run-length encoding Режим смешивания : DVD-Video Текст #3 Идентификатор : 189 (0xBD)-34 (0x22) Формат : RLE Формат/Информация : Run-length encoding Режим смешивания : DVD-Video Текст #4 Идентификатор : 189 (0xBD)-35 (0x23) Формат : RLE Формат/Информация : Run-length encoding Режим смешивания : DVD-Video Текст #5 Идентификатор : 189 (0xBD)-36 (0x24) Формат : RLE Формат/Информация : Run-length encoding Режим смешивания : DVD-Video Текст #6 Идентификатор : 189 (0xBD)-37 (0x25) Формат : RLE Формат/Информация : Run-length encoding Режим смешивания : DVD-Video Текст #7 Идентификатор : 189 (0xBD)-38 (0x26) Формат : RLE Формат/Информация : Run-length encoding Режим смешивания : DVD-Video Текст #8 Идентификатор : 189 (0xBD)-39 (0x27) Формат : RLE Формат/Информация : Run-length encoding Режим смешивания : DVD-Video Текст #9 Идентификатор : 189 (0xBD)-40 (0x28) Формат : RLE Формат/Информация : Run-length encoding Режим смешивания : DVD-Video Текст #10 Идентификатор : 189 (0xBD)-41 (0x29) Формат : RLE Формат/Информация : Run-length encoding Режим смешивания : DVD-Video Текст #11 Идентификатор : 189 (0xBD)-42 (0x2A) Формат : RLE Формат/Информация : Run-length encoding Режим смешивания : DVD-Video МенюСкриншоты 4,38 Gb 2 3 20 февраля 2016 08:11 Проклятие Аннабель / Annabelle (2014) DVD9 | Лицензия .torrent   [Информация о файле (нажмите для просмотра)] Перевод: полное дублированиеКодек: MPEG2Качество: DVD9"CP Дистрибуция"Видео: PAL 16:9 ([email protected]) VBR 6401 Kbps, 25.000 fpsАудио 1: Dolby AC3, 6 ch, 48.0 KHz, 384 Kbps(русский)Аудио 2: Dolby AC3, 6 ch, 48.0 KHz, 384 Kbps(украинский)Аудио 3: Dolby AC3, 6 ch, 48.0 KHz, 384 Kbps(английский)Аудио 4: Dolby AC3, 6 ch, 48.0 KHz, 384 Kbps(польский)Аудио 5: Dolby AC3, 2 ch, 48.0 KHz, 192 Kbps(турецкий)Субтитры: русские, украинские, английские, болгарские, хорватские, словенские, эстонские, латышские, литовские, польские, турецкие 5,78 Gb 6 2 20 февраля 2016 08:11 Проклятие Аннабель / Annabelle (2014) BDRip-AVC от Leonardo and Scarabey | Лицензия .torrent   [Информация о файле (нажмите для просмотра)] Перевод: Профессиональный (полное дублирование) ЛицензияФормат: MKVВидео кодек: MPEG-4 AVC Аудио кодек: AC3Видео: 1024x426 (2.40:1) at 23.976 fps, AVC at 1418 kbps avg, 0.136 bit/pixelАудио: 48 kHz, AC3 Dolby Digital, 3/2 (L,C,R,l,r) + LFE ch, 640 kbps avgСубтитры: Русские, английские 1,45 Gb 14 5 20 февраля 2016 08:11 Проклятие Аннабель / Annabelle (2014) BDRip 720p | дополнительные материалы .torrent   [Информация о файле (нажмите для просмотра)] Качество: BDRipВидео: 1280x720 (16:9), 23,976 fps, h364, ~4000 kbps avg, ~0.181 bit/pixelАудио: 48 kHz, AC3 Dolby Digital, 2/0 (L,R) ch, ~192.00 kbps avgПеревод: СубтитрыСубтитры: Русские субтитры: есть 1,19 Gb 3 2 20 февраля 2016 08:11 Проклятие Аннабель / Annabelle (2014) BDRip 720p от Leonardo and Scarabey | Лицензия .torrent   [Информация о файле (нажмите для просмотра)] Перевод: Профессиональный (полное дублирование) ЛицензияФормат: MKVВидео кодек: MPEG-4 AVC Аудио кодек: AC3Видео: 1280x532 (2.40:1) at 23.976 fps, AVC at 2770 kbps avg, 0.170 bit/pixelАудио: 48 kHz, AC3 Dolby Digital, 3/2 (L,C,R,l,r) + LFE ch, 640 kbps avgСубтитры: Русские, английские 2,4 Gb 112 9 20 февраля 2016 08:11 Проклятие Аннабель / Annabelle (2014) BDRip-AVC от HELLYWOOD | Лицензия .torrent   [Информация о файле (нажмите для просмотра)] Перевод: Профессиональный (полное дублирование) [лицензия BD CEE]Субтитры: Русские (полные + форс.), украинские (полные + форс.), английские (Full + SDH)Качество: BDRip-AVCФормат: MKVВидео: х.264, 1136x472 (2,40:1), 23,976 fps, 2263 kbps, 0.176 bit/pixelАудио#1: 48 kHz, AC3 Dolby Digital, 3/2 (L,C,R,l,r) + LFE ch, 448.00 kbps |RUSАудио#2: 48 kHz, AC3 Dolby Digital, 3/2 (L,C,R,l,r) + LFE ch, 448.00 kbps |ENG 2,18 Gb 6 6 20 февраля 2016 08:11 Проклятие Аннабель / Annabelle (2014) BDRip от Twi7ter | D | Лицензия .torrent   [Информация о файле (нажмите для просмотра)] Перевод: Профессиональный (полное дублирование) [лицензия]Субтитры: НетКачество: BDRip [исх.Annabelle 2014 COMPLETE BLURAY-LAZERS]Формат: AVIВидео: 720x304 (2.37:1), 23.976 fps, XviD build 73 ~1657 kbps avg, 0.32 bit/pixelАудио: 48 kHz, AC3 Dolby Digital, 3/2 (L,C,R,l,r) + LFE ch, ~448 kbps|Дубляж, Blu-ray CEE| 1,46 Gb 7 5 20 февраля 2016 08:11 Проклятие Аннабель / Annabelle (2014) BDRip 1080p от ExKinoRay | D | Лицензия .torrent   [Информация о файле (нажмите для просмотра)] Качество: BDRip (1080p)Видео: MPEG-4 AVC, 6666 Кбит/с, 1920x800, 23.976 кадр/сАудио: Русский (AC3, 6 ch, 640 Кбит/с), украинский (AC3, 2 ch, 192 Кбит/с), (AC3, 6 ch, 640 Кбит/с), английский (AC3, 6 ch, 640 Кбит/с), (DTS, 6 ch, 1510 Кбит/с)Перевод: ДублированныйСубтитры: Русские, украинские, английскиеВидео: Идентификатор : 1 Формат : AVC Формат/Информация : Advanced Video Codec Профиль формата : [email protected] Параметр CABAC формата : Да Параметр ReFrames формата : 5 кадров Идентификатор кодека : V_MPEG4/ISO/AVC Продолжительность : 1 ч. 38 м. Битрейт : 6666 Кбит/сек Ширина : 1920 пикселей Высота : 800 пикселей Соотношение сторон : 2,40:1 Режим частоты кадров : Постоянный Частота кадров : 23,976 кадра/сек Цветовое пространство : YUV Субдискретизация насыщенности : 4:2:0 Битовая глубина : 8 бит Тип развёртки : Прогрессивная Бит/(Пиксели*Кадры) : 0.181 Размер потока : 4,46 Гбайт (63%) Библиотека кодирования : x264 core 125 r2200 999b753 Настройки программы : cabac=1 / ref=5 / deblock=1:-3:-3 / analyse=0x3:0x133 / me=umh / subme=11 / psy=1 / psy_rd=1.00:0.10 / mixed_ref=1 / me_range=32 / chroma_me=1 / trellis=2 / 8x8dct=1 / cqm=0 / deadzone=21,11 / fast_pskip=0 / chroma_qp_offset=-3 / threads=12 / lookahead_threads=2 / sliced_threads=0 / nr=0 / decimate=0 / interlaced=0 / bluray_compat=0 / constrained_intra=0 / bframes=9 / b_pyramid=2 / b_adapt=2 / b_bias=0 / direct=3 / weightb=1 / open_gop=0 / weightp=2 / keyint=240 / keyint_min=23 / scenecut=40 / intra_refresh=0 / rc=2pass / mbtree=0 / bitrate=6666 / ratetol=1.0 / qcomp=0.60 / qpmin=0 / qpmax=69 / qpstep=4 / cplxblur=20.0 / qblur=0.5 / ip_ratio=1.40 / pb_ratio=1.30 / aq=1:1.00 Язык : English Default : Да Forced : НетАудио #1: Идентификатор : 2 Формат : AC-3 Формат/Информация : Audio Coding 3 Расширение режима : CM (complete main) Параметр Endianness формата : Big Идентификатор кодека : A_AC3 Продолжительность : 1 ч. 38 м. Вид битрейта : Постоянный Битрейт : 640 Кбит/сек Каналы : 6 каналов Расположение каналов : Front: L C R, Side: L R, LFE Частота : 48,0 КГц Битовая глубина : 16 бит Метод сжатия : С потерями Размер потока : 452 Мбайт (6%) Заголовок : Дублированный (Лицензия) Язык : Russian Default : Да Forced : НетАудио #2: Идентификатор : 3 Формат : AC-3 Формат/Информация : Audio Coding 3 Расширение режима : CM (complete main) Параметр Endianness формата : Big Идентификатор кодека : A_AC3 Продолжительность : 1 ч. 38 м. Вид битрейта : Постоянный Битрейт : 640 Кбит/сек Каналы : 6 каналов Расположение каналов : Front: L C R, Side: L R, LFE Частота : 48,0 КГц Битовая глубина : 16 бит Метод сжатия : С потерями Размер потока : 452 Мбайт (6%) Заголовок : Дублированный (Лицензия) DVD R5 Язык : Ukrainian Default : Нет Forced : НетАудио #3: Идентификатор : 4 Формат : AC-3 Формат/Информация : Audio Coding 3 Расширение режима : CM (complete main) Параметр Endianness формата : Big Идентификатор кодека : A_AC3 Продолжительность : 1 ч. 38 м. Вид битрейта : Постоянный Битрейт : 192 Кбит/сек Каналы : 2 канала Расположение каналов : Front: L R Частота : 48,0 КГц Битовая глубина : 16 бит Метод сжатия : С потерями Размер потока : 136 Мбайт (2%) Заголовок : Дублированный (iTunes Russia) Язык : Ukrainian Default : Нет Forced : НетАудио #4: Идентификатор : 5 Формат : AC-3 Формат/Информация : Audio Coding 3 Расширение режима : CM (complete main) Параметр Endianness формата : Big Идентификатор кодека : A_AC3 Продолжительность : 1 ч. 38 м. Вид битрейта : Постоянный Битрейт : 640 Кбит/сек Каналы : 6 каналов Расположение каналов : Front: L C R, Side: L R, LFE Частота : 48,0 КГц Битовая глубина : 16 бит Метод сжатия : С потерями Размер потока : 452 Мбайт (6%) Язык : English Default : Нет Forced : НетАудио #5: Идентификатор : 6 Формат : DTS Формат/Информация : Digital Theater Systems Режим : 16 Параметр Endianness формата : Big Идентификатор кодека : A_DTS Продолжительность : 1 ч. 38 м. Вид битрейта : Постоянный Битрейт : 1509 Кбит/сек Каналы : 6 каналов Расположение каналов : Front: L C R, Side: L R, LFE Частота : 48,0 КГц Битовая глубина : 24 бит Метод сжатия : С потерями Размер потока : 1,04 Гбайт (15%) Язык : English Default : Нет Forced : Нет 7,1 Gb 35 3 20 февраля 2016 08:11 Проклятие Аннабель / Annabelle (2014) BDRemux 1080p от ExKinoRay | D | Лицензия .torrent   [Информация о файле (нажмите для просмотра)] Качество: Blu-Ray Remux (1080p)Видео: MPEG-4 AVC, 25406 Кбит/с, 1920x1080, 23.976 кадр/сАудио: Русский, украинский (AC3, 6 ch, 640 Кбит/с), английский (DTS-HD MA, 6 ch, 3207 Кбит/с)Перевод: ДублированныйСубтитры: Русские, украинские, английскиеВидео: Идентификатор : 1 Формат : AVC Формат/Информация : Advanced Video Codec Профиль формата : [email protected] Параметр CABAC формата : Да Параметр ReFrames формата : 2 кадра Параметр GOP формата : M=1, N=10 Идентификатор кодека : V_MPEG4/ISO/AVC Продолжительность : 1 ч. 38 м. Вид битрейта : Переменный Ширина : 1920 пикселей Высота : 1080 пикселей Соотношение сторон : 16:9 Режим частоты кадров : Постоянный Частота кадров : 23,976 кадра/сек Цветовое пространство : YUV Субдискретизация насыщенности : 4:2:0 Битовая глубина : 8 бит Тип развёртки : Прогрессивная Язык : English Default : Да Forced : НетАудио #1: Идентификатор : 2 Формат : AC-3 Формат/Информация : Audio Coding 3 Расширение режима : CM (complete main) Параметр Endianness формата : Big Идентификатор кодека : A_AC3 Продолжительность : 1 ч. 38 м. Вид битрейта : Постоянный Битрейт : 640 Кбит/сек Каналы : 6 каналов Расположение каналов : Front: L C R, Side: L R, LFE Частота : 48,0 КГц Битовая глубина : 16 бит Метод сжатия : С потерями Размер потока : 452 Мбайт (2%) Заголовок : Дублированный (Лицензия) Язык : Russian Default : Да Forced : НетАудио #2: Идентификатор : 3 Формат : AC-3 Формат/Информация : Audio Coding 3 Расширение режима : CM (complete main) Параметр Endianness формата : Big Идентификатор кодека : A_AC3 Продолжительность : 1 ч. 38 м. Вид битрейта : Постоянный Битрейт : 640 Кбит/сек Каналы : 6 каналов Расположение каналов : Front: L C R, Side: L R, LFE Частота : 48,0 КГц Битовая глубина : 16 бит Метод сжатия : С потерями Размер потока : 452 Мбайт (2%) Заголовок : Дублированный (Лицензия) DVD R5 Язык : Ukrainian Default : Нет Forced : НетАудио #3: Идентификатор : 4 Формат : DTS Формат/Информация : Digital Theater Systems Профиль формата : MA / Core Режим : 16 Параметр Endianness формата : Big Идентификатор кодека : A_DTS Продолжительность : 1 ч. 38 м. Вид битрейта : Переменный Битрейт : Неизвестно / 1509 Кбит/сек Каналы : 6 каналов Расположение каналов : Front: L C R, Side: L R, LFE Частота : 48,0 КГц Битовая глубина : 24 бит Метод сжатия : Без потерь / Lossy Язык : English Default : Нет Forced : Нет 20,63 Gb 9 5 20 февраля 2016 08:11 Проклятие Аннабель / Annabelle (2014) BDRip 720p от HDCLUB | Лицензия .torrent   [Информация о файле (нажмите для просмотра)] Качество: BDRip 720pВидео: MPEG-4 AVC, 4234 Кбит/с, 1280x534Аудио: Русский, украинский (AC3, 6 ch, 640 Кбит/с), английский (DTS, 6 ch, 1510 Кбит/с)Перевод: ДублированныйСубтитры: Русские, английские, украинские 4,94 Gb 19 3 20 февраля 2016 08:11 Проклятие Аннабель / Annabelle (2014) BDRip 720p | KinoGadget | iPad .torrent   [Информация о файле (нажмите для просмотра)] Перевод: ДублированныйКачество: BDRip 720pФормат: mp4 1,59 Gb 6 1

gig-torrent.net

new-rutor.org :: Проклятие Аннабель / Annabelle (2014) BDRip-AVC от Leonardo and Scarabey

Проклятие Аннабель / Annabelle

Страна: СШАГод выпуска: 2014Жанр: ужасыПродолжительность: 01:38:49Перевод: Профессиональный (полное дублирование) Лицензия

Режиссер: Джон Р. Леонетти

Актеры: Аннабелль Уоллис, Уорд Хортон, Элфри Вудард, Тони Амендола, Эрик Ладин, Керри О’Мэлли, Брайан Хау, Ивар Броггер, Джофф Уэнер, Гэбриел Бейтман

Описание фильма: Джон находит идеальный подарок для своей жены — это редкая старинная кукла в белом свадебном платье. Но восторг от подарка продлился не долго. Однажды ночью в их дом вторгаются члены сатанинского культа…

ФайлКачество видео: BDRip-AVC Исходник: Blu-rayФормат: MKV Видео кодек: MPEG-4 AVC Аудио кодек: AC3Видео: 1024x426 (2.40:1) at 23.976 fps, AVC at 1418 kbps avg, 0.136 bit/pixelАудио: 48 kHz, AC3 Dolby Digital, 3/2 (L,C,R,l,r) + LFE ch, 640 kbps avgСубтитры: Русские, английскиеНавигация по главам: Есть

Автор рипа:

Сообщество:

Релиз от:

MediaInfo

* * * MediaInfo Mac 0.7.33.4 file analysis report. * * * MediaInfo Mac is ©2010 by Diego Massanti - http://mediainfo.massanti.com * * * MediaInfoLib by Jerome Martinez - http://mediainfo.sourceforge.net Created on: 06.02.2015 20:30:08 Московское стандартное время Report for file: Annabelle.2014.BDRip.x264-LEONARDO_[scarabey.org].mkv

General / Container Stream #1 Total Video Streams for this File.................1 Total Audio Streams for this File.................1 Total Subtitle Streams for this File..............5 Video Codecs Used.................................AVC Audio Codecs Used.................................AC3 SubTitle Codecs Used..............................UTF-8 / UTF-8 / UTF-8 / UTF-8 / UTF-8 Available Sutbitle Languages......................Russian / Russian / Ukrainian / Ukrainian / File Format.......................................Matroska Play Time.........................................1h 38mn Total File Size...................................1.45 GiB Total Stream BitRate..............................2 100 Kbps Title (Tag).......................................-=LEONARDO=- Encoded with......................................mkvmerge v5.0.1 ('Es ist Sommer') built on Oct 23 2011 00:46:40 Encoding Library..................................libebml v1.2.2 + libmatroska v1.3.0 Video Stream #1 Codec (Human Name)................................AVC Codec (FourCC)....................................V_MPEG4/ISO/AVC Codec [email protected] Frame Width.......................................1 024 pixels Frame Height......................................426 pixels Frame Rate........................................23.976 fps Total Frames......................................142134 Display Aspect Ratio..............................2.40:1 Scan Type.........................................Progressive Color Space.......................................YUV Codec Settings (Summary)..........................CABAC / 12 Ref Frames QF (like Gordian Knot)............................0.136 Codec Settings (CABAC)............................Yes Codec Settings (Reference Frames).................12 Video Stream Length...............................1h 38mn 48s 178ms Video Stream BitRate..............................1 418 Kbps Bit Depth.........................................8 bits Video Stream Size.................................1 002 MiB (68%) Video Encoder.....................................x264 - core 144 r2525 40bb568 Video Encoder (Settings)..........................cabac=1 / ref=12 / deblock=1:-3:-3 / analyse=0x3:0x133 / me=umh / subme=11 / psy=1 / psy_rd=1.00:0.00 / mixed_ref=1 / me_range=24 / chroma_me=1 / trellis=2 / 8x8dct=1 / cqm=0 / deadzone=21,11 / fast_pskip=0 / chroma_qp_offset=-2 / threads=12 / lookahead_threads=3 / sliced_threads=0 / nr=0 / decimate=1 / interlaced=0 / bluray_compat=0 / constrained_intra=0 / bframes=16 / b_pyramid=2 / b_adapt=2 / b_bias=0 / direct=1 / weightb=1 / open_gop=0 / weightp=2 / keyint=250 / keyint_min=23 / scenecut=40 / intra_refresh=0 / rc=crf / mbtree=0 / crf=18.0 / qcomp=0.60 / qpmin=0 / qpmax=69 / qpstep=4 / ip_ratio=1.40 / pb_ratio=1.30 / aq=1:1.00 Audio Stream #1 Codec.............................................AC-3 Codec (FourCC)....................................A_AC3 Audio Stream Length...............................1h 38mn 48s 160ms Audio Stream BitRate..............................640 Kbps Audio Stream BitRate Mode.........................CBR Number of Audio Channels..........................6 Audio Channel's Positions.........................Front: L C R, Side: L R, LFE Sampling Rate.....................................48.0 KHz Audio Stream Size.................................452 MiB (30%) Audio Stream Language.............................Russian Subtitle Stream #1 Language..........................................Russian Format............................................UTF-8 Codec ID..........................................S_TEXT/UTF8 Codec Info........................................UTF-8 Plain Text Subtitle Stream #2 Language..........................................Russian Format............................................UTF-8 Codec ID..........................................S_TEXT/UTF8 Codec Info........................................UTF-8 Plain Text Subtitle Stream #3 Language..........................................Ukrainian Format............................................UTF-8 Codec ID..........................................S_TEXT/UTF8 Codec Info........................................UTF-8 Plain Text Subtitle Stream #4 Language..........................................Ukrainian Format............................................UTF-8 Codec ID..........................................S_TEXT/UTF8 Codec Info........................................UTF-8 Plain Text Subtitle Stream #5 Format............................................UTF-8 Codec ID..........................................S_TEXT/UTF8 Codec Info........................................UTF-8 Plain Text Menu / Chapters Stream #1

maintracker.ru


Смотрите также