Kimi no na wa субтитры скачать торрент


Твоё имя / Kimi no Na wa [2016 аниме мультфильм BDRip 720p от еnvy / NNNB] MVO скачать через торрент

Format : MatroskaFormat version : Version 2File size : 5.20 GiBDuration : 1 h 46 minOverall bit rate : 6 981 kb/sMovie name : Kimi no na wa.(2016).BDRip.720p.[envy]Encoded date : UTC 2017-09-24 11:01:18Writing application : mkvmerge v5.8.0 ('No Sleep / Pillow') built on Sep 2 2012 15:37:04Writing library : libebml v1.2.3 + libmatroska v1.3.0

VideoID : 1Format : AVCFormat/Info : Advanced Video CodecFormat profile : [email protected] settings, CABAC : YesFormat settings, RefFrames : 9 framesCodec ID : V_MPEG4/ISO/AVCDuration : 1 h 46 minBit rate : 5 700 kb/sWidth : 1 280 pixelsHeight : 720 pixelsDisplay aspect ratio : 16:9Frame rate mode : ConstantFrame rate : 23.976 (24000/1001) FPSColor space : YUVChroma subsampling : 4:2:0Bit depth : 8 bitsScan type : ProgressiveBits/(Pixel*Frame) : 0.258Stream size : 4.14 GiB (80%)Title : Kimi no na wa.(2016).BDRip.720p.[envy]Writing library : x264 core 148 r2744 b97ae06Encoding settings : cabac=1 / ref=9 / deblock=1:0:0 / analyse=0x3:0x113 / me=umh / subme=11 / psy=1 / psy_rd=1.00:0.00 / mixed_ref=1 / me_range=32 / chroma_me=1 / trellis=2 / 8x8dct=1 / cqm=0 / deadzone=21,11 / fast_pskip=0 / chroma_qp_offset=-2 / threads=12 / lookahead_threads=1 / sliced_threads=0 / nr=0 / decimate=1 / interlaced=0 / bluray_compat=0 / constrained_intra=0 / bframes=5 / b_pyramid=2 / b_adapt=2 / b_bias=0 / direct=3 / weightb=1 / open_gop=0 / weightp=2 / keyint=240 / keyint_min=23 / scenecut=40 / intra_refresh=0 / rc=2pass / mbtree=0 / bitrate=5700 / ratetol=1.0 / qcomp=0.60 / qpmin=0 / qpmax=69 / qpstep=4 / cplxblur=20.0 / qblur=0.5 / ip_ratio=1.40 / pb_ratio=1.30 / aq=1:1.00Language : JapaneseDefault : YesForced : No

Audio #1ID : 2Format : AC-3Format/Info : Audio Coding 3Format settings, Endianness : BigCodec ID : A_AC3Duration : 1 h 46 minBit rate mode : ConstantBit rate : 640 kb/sChannel(s) : 6 channelsChannel positions : Front: L C R, Side: L R, LFESampling rate : 48.0 kHzFrame rate : 31.250 FPS (1536 SPF)Bit depth : 16 bitsCompression mode : LossyStream size : 488 MiB (9%)Title : AlexFilmLanguage : RussianService kind : Complete MainDefault : YesForced : No

Audio #2ID : 3Format : AC-3Format/Info : Audio Coding 3Format settings, Endianness : BigCodec ID : A_AC3Duration : 1 h 46 minBit rate mode : ConstantBit rate : 640 kb/sChannel(s) : 6 channelsChannel positions : Front: L C R, Side: L R, LFESampling rate : 48.0 kHzFrame rate : 31.250 FPS (1536 SPF)Bit depth : 16 bitsCompression mode : LossyStream size : 488 MiB (9%)Title : JpnLanguage : JapaneseService kind : Complete MainDefault : NoForced : No

Text #1ID : 4Format : UTF-8Codec ID : S_TEXT/UTF8Codec ID/Info : UTF-8 Plain TextTitle : Rus full AlexFilmLanguage : RussianDefault : NoForced : No

Text #2ID : 5Format : UTF-8Codec ID : S_TEXT/UTF8Codec ID/Info : UTF-8 Plain TextTitle : Eng fullLanguage : EnglishDefault : NoForced : No

Menu00:00:00.000 : :Echo00:01:34.094 : :Opening00:03:21.868 : :Beginning00:05:13.271 : :Miyamizu Family00:08:37.308 : :Who Are You?00:12:11.314 : :Kumihimo00:14:32.371 : :Kuchikamizake00:17:22.500 : :Tokyo00:22:57.918 : :Okudera-senpai00:27:05.624 : :Accident 100:28:16.570 : :Accident 200:29:53.542 : :Day by Day00:32:42.836 : :Object of Worship00:37:26.995 : :Date00:41:57.765 : :Autumn Festival00:44:30.334 : :Disconnection00:45:54.001 : :Searching00:48:28.656 : :Itomori Town that Disappeared00:53:01.387 : :Pursuit00:56:53.869 : :Recollection01:03:42.318 : :Replay01:06:03.793 : :Strategy Meeting01:09:44.931 : :Premonition01:12:41.816 : :Chance Meeting01:16:42.473 : :Twilight01:21:21.710 : :Beautiful, Struggling01:29:12.806 : :Love01:32:51.858 : :Just a Little Longer01:37:01.733 : :Your Name.01:41:19.615 : :Staff Roll

piratbit.ru

Твоё имя / Kimi no Na wa. / Your Name. [2016 Романтика Школа Сверхъестественное BD Remux 1080p] 3 x DVO + Original скачать через торрент

ОбщееУникальный идентификатор : 245974329024886148612647224297402767114 (0xB90CEEBDB0F54C849B5B437BD641970A)Полное имя : E:\Kimi no Na wa. [BDRemux 1920x1080 h364 FLAC]\Kimi no Na wa. [BDRemux 1920x1080 h364 FLAC].mkvФормат : MatroskaВерсия формата : Version 4 / Version 2Размер файла : 23,1 ГбайтПродолжительность : 1 ч. 46 м.Режим общего битрейта : ПеременныйОбщий поток : 31,0 Мбит/секДата кодирования : UTC 2017-07-25 08:59:28Программа кодирования : mkvmerge v14.0.0 ('Flow') 64bitБиблиотека кодирования : libebml v1.3.4 + libmatroska v1.4.5

ВидеоИдентификатор : 1Формат : AVCФормат/Информация : Advanced Video CodecПрофиль формата : [email protected]Параметр CABAC формата : ДаПараметр RefFrames формата : 4 кадраИдентификатор кодека : V_MPEG4/ISO/AVCПродолжительность : 1 ч. 46 м.Вид битрейта : ПеременныйБитрейт : 30,4 Мбит/секМаксимальный битрейт : 35,0 Мбит/секШирина : 1920 пикселейВысота : 1080 пикселейСоотношение сторон : 16:9Режим частоты кадров : ПостоянныйЧастота кадров : 23,976 (24000/1001) кадра/секЦветовое пространство : YUVСубдискретизация насыщенности : 4:2:0Битовая глубина : 8 битТип развёртки : ПрогрессивнаяБит/(Пиксели*Кадры) : 0.611Размер потока : 22,6 Гбайт (98%)Default : ДаForced : Нет

АудиоИдентификатор : 2Формат : FLACФормат/Информация : Free Lossless Audio CodecИдентификатор кодека : A_FLACПродолжительность : 1 ч. 46 м.Вид битрейта : ПеременныйБитрейт : 572 Кбит/секКаналы : 2 каналаРасположение каналов : Front: L RЧастота : 48,0 КГцЧастота кадров : 11,719 кадров/сек (4096 SPF)Битовая глубина : 16 битРазмер потока : 436 Мбайт (2%)Заголовок : DTS-HD MA->FLACБиблиотека кодирования : libFLAC 1.3.2 (UTC 2017-01-01)Язык : JapaneseDefault : ДаForced : Нет

Текст #1Идентификатор : 3Формат : PGSРежим смешивания : zlibИдентификатор кодека : S_HDMV/PGSИдентификатор кодека/Информация : Picture based subtitle format used on BDs/HD-DVDsПродолжительность : 1 ч. 45 м.Битрейт : 40,6 Кбит/секElementCount : 3515Размер потока : 30,6 Мбайт (0%)Язык : JapaneseDefault : ДаForced : Нет

Текст #2Идентификатор : 4Формат : PGSРежим смешивания : zlibИдентификатор кодека : S_HDMV/PGSИдентификатор кодека/Информация : Picture based subtitle format used on BDs/HD-DVDsПродолжительность : 1 ч. 45 м.Битрейт : 30,7 Кбит/секElementCount : 2456Размер потока : 23,2 Мбайт (0%)Язык : EnglishDefault : НетForced : Нет

Текст #3Идентификатор : 5Формат : PGSРежим смешивания : zlibИдентификатор кодека : S_HDMV/PGSИдентификатор кодека/Информация : Picture based subtitle format used on BDs/HD-DVDsПродолжительность : 1 ч. 45 м.Битрейт : 32,4 Кбит/секElementCount : 2919Размер потока : 24,4 Мбайт (0%)Язык : ChineseDefault : НетForced : Нет

Текст #4Идентификатор : 6Формат : PGSРежим смешивания : zlibИдентификатор кодека : S_HDMV/PGSИдентификатор кодека/Информация : Picture based subtitle format used on BDs/HD-DVDsПродолжительность : 1 ч. 45 м.Битрейт : 27,2 Кбит/секElementCount : 2297Размер потока : 20,5 Мбайт (0%)Язык : EnglishDefault : НетForced : Нет

Меню00:00:00.000 : en:残響 / Echo00:01:34.094 : en:オープニング / Opening00:03:21.868 : en:端緒 / Beginning00:05:13.271 : en:宮水一家 / Miyamizu Family00:08:37.308 : en:お前は誰だ? / Who Are You?00:12:11.314 : en:組紐 / Kumihimo00:14:32.371 : en:口噛み酒 / Kuchikamizake00:17:22.500 : en:東京 / Tokyo00:22:57.918 : en:奥寺先輩 / Okudera-senpai00:27:05.624 : en:異変1 / Accident 100:28:16.570 : en:異変2 / Accident 200:29:53.542 : en:入れ替わりの日々 / Day by Day00:32:42.836 : en:御神体 / Object of Worship00:37:26.995 : en:デート / Date00:41:57.765 : en:秋祭り / Autumn Festival00:44:30.334 : en:断絶 / Disconnection00:45:54.001 : en:探訪 / Searching00:48:28.656 : en:消えた糸守町 / Itomori Town that Disappeared00:53:01.387 : en:追求 / Pursuit00:56:53.869 : en:記憶 / Recollection01:03:42.318 : en:再演 / Replay01:06:03.793 : en:作戦会議 / Strategy Meeting01:09:44.931 : en:予感 / Premonition01:12:41.816 : en:邂逅 / Chance Meeting01:16:42.473 : en:カタワレ時 / Twilight01:21:21.710 : en:うつくしく, もがく / Beautiful, Struggling01:29:12.806 : en:恋 / Love01:32:51.858 : en:あと少しだけ / Just a Little Longer01:37:01.733 : en:君の名は. / Your Name.01:41:19.615 : en:スタッフ・クレジット / Staff Roll

piratbit.ru

: torrent :: / Kimi no Na wa / Your Name ( ) [Movie] [ ] [RUS(int), JAP] [2016, , , , , WEBRip] Rips :: HD ::

: Matroska : Version 4 / Version 2 : 2,27 : 1 . 46 . : 3046 / : Kimi no Na wa (Your Name) @ AlexFilm : UTC 2017-07-27 12:26:08 : mkvmerge v7.1.0 ('Good Love') 64bit built on Jul 27 2014 13:06:55 : libebml v1.3.0 + libmatroska v1.4.1 : 1 : AVC / : Advanced Video Codec : [email protected] CABAC : ReFrames : 8 : V_MPEG4/ISO/AVC : 1 . 46 . : 2218 / : 1280 : 720 : 16:9 : : 23,976 (24000/1001) / : YUV : 4:2:0 : 8 : /(*) : 0.100 : 1,65 (73%) : x264 core 152 r2851+58 429492e t_mod_Custom [[email protected] X86_64] : cabac=1 / ref=8 / deblock=1:-1:-1 / analyse=0x3:0x133 / me=umh / subme=9 / psy=1 / fade_compensate=0.00 / psy_rd=0.40:0.15 / mixed_ref=1 / me_range=16 / chroma_me=1 / trellis=2 / 8x8dct=1 / cqm=0 / deadzone=21,11 / fast_pskip=0 / chroma_qp_offset=-3 / threads=24 / lookahead_threads=2 / sliced_threads=0 / nr=0 / decimate=1 / interlaced=0 / bluray_compat=0 / constrained_intra=0 / fgo=0 / bframes=3 / b_pyramid=2 / b_adapt=2 / b_bias=0 / direct=3 / weightb=1 / open_gop=0 / weightp=2 / keyint=600 / keyint_min=1 / scenecut=40 / intra_refresh=0 / rc_lookahead=70 / rc=crf / mbtree=1 / crf=16.5000 / qcomp=0.60 / qpmin=0:0:0 / qpmax=69:69:69 / qpstep=4 / ip_ratio=1.40 / aq=1:0.80 / aq-sensitivity=10.00 / aq-factor=1.00:1.00:1.00 / aq2=0 / aq3=0 : Japanese Default : Forced : : Limited : BT.709 Statistics Tags Issue : mkvmerge v14.0.0 ('Flow') 64bit 2017-07-25 04:49:46 / mkvmerge v7.1.0 ('Good Love') 64bit built on Jul 27 2014 13:06:55 2017-07-27 12:26:08 FromStats_BitRate : 2235654 FromStats_Duration : 01:46:35.640000000 FromStats_FrameCount : 153342 FromStats_StreamSize : 1787305381

#1

: 2 : AC-3 / : Audio Coding 3 : CM (complete main) Endianness : Big : A_AC3 : 1 . 46 . : : 384 / : 2 : Front: L R : 48,0 : 31,250 / (1536 spf) : : 293 (13%) : DD2.0 AlexFilm : Russian Default : Forced :

#2

: 3 : AC-3 / : Audio Coding 3 : CM (complete main) Endianness : Big : A_AC3 : 1 . 46 . : : 384 / : 2 : Front: L R : 48,0 : 31,250 / (1536 spf) : : 293 (13%) : DD2.0 Original : Japanese Default : Forced :

#1

: 4 : PGS : zlib : S_HDMV/PGS / : Picture based subtitle format used on BDs/HD-DVDs : Japanese Default : Forced : Statistics Tags Issue : mkvmerge v14.0.0 ('Flow') 64bit 2017-07-25 04:49:46 / mkvmerge v7.1.0 ('Good Love') 64bit built on Jul 27 2014 13:06:55 2017-07-27 12:26:08 FromStats_BitRate : 40622 FromStats_Duration : 01:45:22.984000000 FromStats_FrameCount : 3515 FromStats_StreamSize : 32106588

#2

: 5 : PGS : zlib : S_HDMV/PGS / : Picture based subtitle format used on BDs/HD-DVDs : English Default : Forced : Statistics Tags Issue : mkvmerge v14.0.0 ('Flow') 64bit 2017-07-25 04:49:46 / mkvmerge v7.1.0 ('Good Love') 64bit built on Jul 27 2014 13:06:55 2017-07-27 12:26:08 FromStats_BitRate : 30685 FromStats_Duration : 01:45:31.659000000 FromStats_FrameCount : 2456 FromStats_StreamSize : 24286422

#3

: 6 : PGS : zlib : S_HDMV/PGS / : Picture based subtitle format used on BDs/HD-DVDs : Chinese Default : Forced : Statistics Tags Issue : mkvmerge v14.0.0 ('Flow') 64bit 2017-07-25 04:49:46 / mkvmerge v7.1.0 ('Good Love') 64bit built on Jul 27 2014 13:06:55 2017-07-27 12:26:08 FromStats_BitRate : 32414 FromStats_Duration : 01:45:22.650000000 FromStats_FrameCount : 2919 FromStats_StreamSize : 25617948 00:00:00.000 : en:Chapter 01 00:01:34.094 : en:Chapter 02 00:03:21.868 : en:Chapter 03 00:05:13.271 : en:Chapter 04 00:08:37.308 : en:Chapter 05 00:12:11.314 : en:Chapter 06 00:14:32.371 : en:Chapter 07 00:17:22.500 : en:Chapter 08 00:22:57.918 : en:Chapter 09 00:27:05.624 : en:Chapter 10 00:28:16.570 : en:Chapter 11 00:29:53.542 : en:Chapter 12 00:32:42.836 : en:Chapter 13 00:37:26.995 : en:Chapter 14 00:41:57.765 : en:Chapter 15 00:44:30.334 : en:Chapter 16 00:45:54.001 : en:Chapter 17 00:48:28.656 : en:Chapter 18 00:53:01.387 : en:Chapter 19 00:56:53.869 : en:Chapter 20 01:03:42.318 : en:Chapter 21 01:06:03.793 : en:Chapter 22 01:09:44.931 : en:Chapter 23 01:12:41.816 : en:Chapter 24 01:16:42.473 : en:Chapter 25 01:21:21.710 : en:Chapter 26 01:29:12.806 : en:Chapter 27 01:32:51.858 : en:Chapter 28 01:37:01.733 : en:Chapter 29 01:41:19.615 : en:Chapter 30 01:46:34.638 : en:Chapter 31

unionpeer.com

Скачать торрент Твоё имя / Kimi no na wa (2016) BDRip 720p от NNNB

Информация о фильме
    Русское название: Твоё имя / Kimi no Na waОригинальное название: Kimi no Na wa / Your nameГод выхода: 2016Жанр: аниме, мультфильм, фэнтези, драма, мелодрамаРежиссер: Макото СинкайВыпущено: ЯпонияПродолжительность: 01:46:35Перевод: Профессиональный (многоголосый, закадровый)Роли озвучивали: Рюносукэ Камики, Монэ Камисираиси, Рё Нарита, Аои Юки, Симадзаки Нобунага, Каито Исикава, Канон Тани, Масаки Тэрасома, Саяка Охара, Кадзухико Иноуэ
Сюжет фильма
    История о парне из Токио и девушке из провинции, которые обнаруживают, что между ними существует странная и необъяснимая связь. Во сне они меняются телами и проживают жизни друг друга. Но однажды эта способность исчезает так же внезапно, как появилась. Таки решает во что бы то ни стало отыскать Мицуху, но способны ли они узнать друг друга в реальной жизни?
Файл
    Качество: BDRip 720p \(исходник Blu-Ray Disc 1080p\)Контейнер: MKV (расширение файла)Видео: 1280x720, 5700 Кбит/сек, 23,976 кадр/сек, AVC, x264, [email protected], 16:9, 0.258 Бит/[Пиксели*Кадры]Аудио 1: AC-3, 640 Кбит/сек, 6 канала(ов), 48,0 КГц - Многоголосый закадровый, AlexFilm / РусскийАудио 2: AC-3, 640 Кбит/сек, 6 канала(ов), 48,0 КГц - Оригинал / ЯпонскийСубтитры: Русские | Полные, Английские | Полные Форсированные субтитры: НетЧаптеры (Главы): Есть (Подписанные)

Автор Рипа: Группа:

MediaInfo

Format : Matroska Format version : Version 2 File size : 5.20 GiB Duration : 1 h 46 min Overall bit rate : 6 981 kb/s Movie name : Kimi no na wa.(2016).BDRip.720p.[envy] Encoded date : UTC 2017-09-24 11:01:18 Writing application : mkvmerge v5.8.0 ('No Sleep / Pillow') built on Sep 2 2012 15:37:04 Writing library : libebml v1.2.3 + libmatroska v1.3.0

Video ID : 1 Format : AVC Format/Info : Advanced Video Codec Format profile : [email protected] Format settings, CABAC : Yes Format settings, RefFrames : 9 frames Codec ID : V_MPEG4/ISO/AVC Duration : 1 h 46 min Bit rate : 5 700 kb/s Width : 1 280 pixels Height : 720 pixels Display aspect ratio : 16:9 Frame rate mode : Constant Frame rate : 23.976 (24000/1001) FPS Color space : YUV Chroma subsampling : 4:2:0 Bit depth : 8 bits Scan type : Progressive Bits/(Pixel*Frame) : 0.258 Stream size : 4.14 GiB (80%) Title : Kimi no na wa.(2016).BDRip.720p.[envy] Writing library : x264 core 148 r2744 b97ae06 Encoding settings : cabac=1 / ref=9 / deblock=1:0:0 / analyse=0x3:0x113 / me=umh / subme=11 / psy=1 / psy_rd=1.00:0.00 / mixed_ref=1 / me_range=32 / chroma_me=1 / trellis=2 / 8x8dct=1 / cqm=0 / deadzone=21,11 / fast_pskip=0 / chroma_qp_offset=-2 / threads=12 / lookahead_threads=1 / sliced_threads=0 / nr=0 / decimate=1 / interlaced=0 / bluray_compat=0 / constrained_intra=0 / bframes=5 / b_pyramid=2 / b_adapt=2 / b_bias=0 / direct=3 / weightb=1 / open_gop=0 / weightp=2 / keyint=240 / keyint_min=23 / scenecut=40 / intra_refresh=0 / rc=2pass / mbtree=0 / bitrate=5700 / ratetol=1.0 / qcomp=0.60 / qpmin=0 / qpmax=69 / qpstep=4 / cplxblur=20.0 / qblur=0.5 / ip_ratio=1.40 / pb_ratio=1.30 / aq=1:1.00 Language : Japanese Default : Yes Forced : No

Audio #1 ID : 2 Format : AC-3 Format/Info : Audio Coding 3 Format settings, Endianness : Big Codec ID : A_AC3 Duration : 1 h 46 min Bit rate mode : Constant Bit rate : 640 kb/s Channel(s) : 6 channels Channel positions : Front: L C R, Side: L R, LFE Sampling rate : 48.0 kHz Frame rate : 31.250 FPS (1536 SPF) Bit depth : 16 bits Compression mode : Lossy Stream size : 488 MiB (9%) Title : AlexFilm Language : Russian Service kind : Complete Main Default : Yes Forced : No

Audio #2 ID : 3 Format : AC-3 Format/Info : Audio Coding 3 Format settings, Endianness : Big Codec ID : A_AC3 Duration : 1 h 46 min Bit rate mode : Constant Bit rate : 640 kb/s Channel(s) : 6 channels Channel positions : Front: L C R, Side: L R, LFE Sampling rate : 48.0 kHz Frame rate : 31.250 FPS (1536 SPF) Bit depth : 16 bits Compression mode : Lossy Stream size : 488 MiB (9%) Title : Jpn Language : Japanese Service kind : Complete Main Default : No Forced : No

Text #1 ID : 4 Format : UTF-8 Codec ID : S_TEXT/UTF8 Codec ID/Info : UTF-8 Plain Text Title : Rus full AlexFilm Language : Russian Default : No Forced : No

Text #2 ID : 5 Format : UTF-8 Codec ID : S_TEXT/UTF8 Codec ID/Info : UTF-8 Plain Text Title : Eng full Language : English Default : No Forced : No

Menu 00:00:00.000 : :Echo 00:01:34.094 : :Opening 00:03:21.868 : :Beginning 00:05:13.271 : :Miyamizu Family 00:08:37.308 : :Who Are You? 00:12:11.314 : :Kumihimo 00:14:32.371 : :Kuchikamizake 00:17:22.500 : :Tokyo 00:22:57.918 : :Okudera-senpai 00:27:05.624 : :Accident 1 00:28:16.570 : :Accident 2 00:29:53.542 : :Day by Day 00:32:42.836 : :Object of Worship 00:37:26.995 : :Date 00:41:57.765 : :Autumn Festival 00:44:30.334 : :Disconnection 00:45:54.001 : :Searching 00:48:28.656 : :Itomori Town that Disappeared 00:53:01.387 : :Pursuit 00:56:53.869 : :Recollection 01:03:42.318 : :Replay 01:06:03.793 : :Strategy Meeting 01:09:44.931 : :Premonition 01:12:41.816 : :Chance Meeting 01:16:42.473 : :Twilight 01:21:21.710 : :Beautiful, Struggling 01:29:12.806 : :Love 01:32:51.858 : :Just a Little Longer 01:37:01.733 : :Your Name. 01:41:19.615 : :Staff Roll

mrutor.org

Скачать торрент Твоё имя / Kimi no na wa (2016) BDRip 720p от NNNB

Информация о фильме
    Русское название: Твоё имя / Kimi no Na waОригинальное название: Kimi no Na wa / Your nameГод выхода: 2016Жанр: аниме, мультфильм, фэнтези, драма, мелодрамаРежиссер: Макото СинкайВыпущено: ЯпонияПродолжительность: 01:46:35Перевод: Профессиональный (многоголосый, закадровый)Роли озвучивали: Рюносукэ Камики, Монэ Камисираиси, Рё Нарита, Аои Юки, Симадзаки Нобунага, Каито Исикава, Канон Тани, Масаки Тэрасома, Саяка Охара, Кадзухико Иноуэ
Сюжет фильма
    История о парне из Токио и девушке из провинции, которые обнаруживают, что между ними существует странная и необъяснимая связь. Во сне они меняются телами и проживают жизни друг друга. Но однажды эта способность исчезает так же внезапно, как появилась. Таки решает во что бы то ни стало отыскать Мицуху, но способны ли они узнать друг друга в реальной жизни?
Файл
    Качество: BDRip 720p \(исходник Blu-Ray Disc 1080p\)Контейнер: MKV (расширение файла)Видео: 1280x720, 5700 Кбит/сек, 23,976 кадр/сек, AVC, x264, [email protected], 16:9, 0.258 Бит/[Пиксели*Кадры]Аудио 1: AC-3, 640 Кбит/сек, 6 канала(ов), 48,0 КГц - Многоголосый закадровый, AlexFilm / РусскийАудио 2: AC-3, 640 Кбит/сек, 6 канала(ов), 48,0 КГц - Оригинал / ЯпонскийСубтитры: Русские | Полные, Английские | Полные Форсированные субтитры: НетЧаптеры (Главы): Есть (Подписанные)

Автор Рипа: Группа:

MediaInfo

Format : Matroska Format version : Version 2 File size : 5.20 GiB Duration : 1 h 46 min Overall bit rate : 6 981 kb/s Movie name : Kimi no na wa.(2016).BDRip.720p.[envy] Encoded date : UTC 2017-09-24 11:01:18 Writing application : mkvmerge v5.8.0 ('No Sleep / Pillow') built on Sep 2 2012 15:37:04 Writing library : libebml v1.2.3 + libmatroska v1.3.0

Video ID : 1 Format : AVC Format/Info : Advanced Video Codec Format profile : [email protected] Format settings, CABAC : Yes Format settings, RefFrames : 9 frames Codec ID : V_MPEG4/ISO/AVC Duration : 1 h 46 min Bit rate : 5 700 kb/s Width : 1 280 pixels Height : 720 pixels Display aspect ratio : 16:9 Frame rate mode : Constant Frame rate : 23.976 (24000/1001) FPS Color space : YUV Chroma subsampling : 4:2:0 Bit depth : 8 bits Scan type : Progressive Bits/(Pixel*Frame) : 0.258 Stream size : 4.14 GiB (80%) Title : Kimi no na wa.(2016).BDRip.720p.[envy] Writing library : x264 core 148 r2744 b97ae06 Encoding settings : cabac=1 / ref=9 / deblock=1:0:0 / analyse=0x3:0x113 / me=umh / subme=11 / psy=1 / psy_rd=1.00:0.00 / mixed_ref=1 / me_range=32 / chroma_me=1 / trellis=2 / 8x8dct=1 / cqm=0 / deadzone=21,11 / fast_pskip=0 / chroma_qp_offset=-2 / threads=12 / lookahead_threads=1 / sliced_threads=0 / nr=0 / decimate=1 / interlaced=0 / bluray_compat=0 / constrained_intra=0 / bframes=5 / b_pyramid=2 / b_adapt=2 / b_bias=0 / direct=3 / weightb=1 / open_gop=0 / weightp=2 / keyint=240 / keyint_min=23 / scenecut=40 / intra_refresh=0 / rc=2pass / mbtree=0 / bitrate=5700 / ratetol=1.0 / qcomp=0.60 / qpmin=0 / qpmax=69 / qpstep=4 / cplxblur=20.0 / qblur=0.5 / ip_ratio=1.40 / pb_ratio=1.30 / aq=1:1.00 Language : Japanese Default : Yes Forced : No

Audio #1 ID : 2 Format : AC-3 Format/Info : Audio Coding 3 Format settings, Endianness : Big Codec ID : A_AC3 Duration : 1 h 46 min Bit rate mode : Constant Bit rate : 640 kb/s Channel(s) : 6 channels Channel positions : Front: L C R, Side: L R, LFE Sampling rate : 48.0 kHz Frame rate : 31.250 FPS (1536 SPF) Bit depth : 16 bits Compression mode : Lossy Stream size : 488 MiB (9%) Title : AlexFilm Language : Russian Service kind : Complete Main Default : Yes Forced : No

Audio #2 ID : 3 Format : AC-3 Format/Info : Audio Coding 3 Format settings, Endianness : Big Codec ID : A_AC3 Duration : 1 h 46 min Bit rate mode : Constant Bit rate : 640 kb/s Channel(s) : 6 channels Channel positions : Front: L C R, Side: L R, LFE Sampling rate : 48.0 kHz Frame rate : 31.250 FPS (1536 SPF) Bit depth : 16 bits Compression mode : Lossy Stream size : 488 MiB (9%) Title : Jpn Language : Japanese Service kind : Complete Main Default : No Forced : No

Text #1 ID : 4 Format : UTF-8 Codec ID : S_TEXT/UTF8 Codec ID/Info : UTF-8 Plain Text Title : Rus full AlexFilm Language : Russian Default : No Forced : No

Text #2 ID : 5 Format : UTF-8 Codec ID : S_TEXT/UTF8 Codec ID/Info : UTF-8 Plain Text Title : Eng full Language : English Default : No Forced : No

Menu 00:00:00.000 : :Echo 00:01:34.094 : :Opening 00:03:21.868 : :Beginning 00:05:13.271 : :Miyamizu Family 00:08:37.308 : :Who Are You? 00:12:11.314 : :Kumihimo 00:14:32.371 : :Kuchikamizake 00:17:22.500 : :Tokyo 00:22:57.918 : :Okudera-senpai 00:27:05.624 : :Accident 1 00:28:16.570 : :Accident 2 00:29:53.542 : :Day by Day 00:32:42.836 : :Object of Worship 00:37:26.995 : :Date 00:41:57.765 : :Autumn Festival 00:44:30.334 : :Disconnection 00:45:54.001 : :Searching 00:48:28.656 : :Itomori Town that Disappeared 00:53:01.387 : :Pursuit 00:56:53.869 : :Recollection 01:03:42.318 : :Replay 01:06:03.793 : :Strategy Meeting 01:09:44.931 : :Premonition 01:12:41.816 : :Chance Meeting 01:16:42.473 : :Twilight 01:21:21.710 : :Beautiful, Struggling 01:29:12.806 : :Love 01:32:51.858 : :Just a Little Longer 01:37:01.733 : :Your Name. 01:41:19.615 : :Staff Roll

krutor.org

rutor.org :: Твоё имя / Kimi no na wa (2016) BDRip 720p от NNNB

Информация о фильме
    Русское название: Твоё имя / Kimi no Na waОригинальное название: Kimi no Na wa / Your nameГод выхода: 2016Жанр: аниме, мультфильм, фэнтези, драма, мелодрамаРежиссер: Макото СинкайВыпущено: ЯпонияПродолжительность: 01:46:35Перевод: Профессиональный (многоголосый, закадровый)Роли озвучивали: Рюносукэ Камики, Монэ Камисираиси, Рё Нарита, Аои Юки, Симадзаки Нобунага, Каито Исикава, Канон Тани, Масаки Тэрасома, Саяка Охара, Кадзухико Иноуэ
Сюжет фильма
    История о парне из Токио и девушке из провинции, которые обнаруживают, что между ними существует странная и необъяснимая связь. Во сне они меняются телами и проживают жизни друг друга. Но однажды эта способность исчезает так же внезапно, как появилась. Таки решает во что бы то ни стало отыскать Мицуху, но способны ли они узнать друг друга в реальной жизни?
Файл
    Качество: BDRip 720p (исходник Blu-Ray Disc 1080p)Контейнер: MKV (расширение файла)Видео: 1280x720, 5700 Кбит/сек, 23,976 кадр/сек, AVC, x264, [email protected], 16:9, 0.258 Бит/[Пиксели*Кадры]Аудио 1: AC-3, 640 Кбит/сек, 6 канала(ов), 48,0 КГц - Многоголосый закадровый, AlexFilm / РусскийАудио 2: AC-3, 640 Кбит/сек, 6 канала(ов), 48,0 КГц - Оригинал / ЯпонскийСубтитры: Русские | Полные, Английские | Полные Форсированные субтитры: НетЧаптеры (Главы): Есть (Подписанные)

Автор Рипа: Группа:

MediaInfo

Format : Matroska Format version : Version 2 File size : 5.20 GiB Duration : 1 h 46 min Overall bit rate : 6 981 kb/s Movie name : Kimi no na wa.(2016).BDRip.720p.[envy] Encoded date : UTC 2017-09-24 11:01:18 Writing application : mkvmerge v5.8.0 ('No Sleep / Pillow') built on Sep 2 2012 15:37:04 Writing library : libebml v1.2.3 + libmatroska v1.3.0

Video ID : 1 Format : AVC Format/Info : Advanced Video Codec Format profile : [email protected] Format settings, CABAC : Yes Format settings, RefFrames : 9 frames Codec ID : V_MPEG4/ISO/AVC Duration : 1 h 46 min Bit rate : 5 700 kb/s Width : 1 280 pixels Height : 720 pixels Display aspect ratio : 16:9 Frame rate mode : Constant Frame rate : 23.976 (24000/1001) FPS Color space : YUV Chroma subsampling : 4:2:0 Bit depth : 8 bits Scan type : Progressive Bits/(Pixel*Frame) : 0.258 Stream size : 4.14 GiB (80%) Title : Kimi no na wa.(2016).BDRip.720p.[envy] Writing library : x264 core 148 r2744 b97ae06 Encoding settings : cabac=1 / ref=9 / deblock=1:0:0 / analyse=0x3:0x113 / me=umh / subme=11 / psy=1 / psy_rd=1.00:0.00 / mixed_ref=1 / me_range=32 / chroma_me=1 / trellis=2 / 8x8dct=1 / cqm=0 / deadzone=21,11 / fast_pskip=0 / chroma_qp_offset=-2 / threads=12 / lookahead_threads=1 / sliced_threads=0 / nr=0 / decimate=1 / interlaced=0 / bluray_compat=0 / constrained_intra=0 / bframes=5 / b_pyramid=2 / b_adapt=2 / b_bias=0 / direct=3 / weightb=1 / open_gop=0 / weightp=2 / keyint=240 / keyint_min=23 / scenecut=40 / intra_refresh=0 / rc=2pass / mbtree=0 / bitrate=5700 / ratetol=1.0 / qcomp=0.60 / qpmin=0 / qpmax=69 / qpstep=4 / cplxblur=20.0 / qblur=0.5 / ip_ratio=1.40 / pb_ratio=1.30 / aq=1:1.00 Language : Japanese Default : Yes Forced : No

Audio #1 ID : 2 Format : AC-3 Format/Info : Audio Coding 3 Format settings, Endianness : Big Codec ID : A_AC3 Duration : 1 h 46 min Bit rate mode : Constant Bit rate : 640 kb/s Channel(s) : 6 channels Channel positions : Front: L C R, Side: L R, LFE Sampling rate : 48.0 kHz Frame rate : 31.250 FPS (1536 SPF) Bit depth : 16 bits Compression mode : Lossy Stream size : 488 MiB (9%) Title : AlexFilm Language : Russian Service kind : Complete Main Default : Yes Forced : No

Audio #2 ID : 3 Format : AC-3 Format/Info : Audio Coding 3 Format settings, Endianness : Big Codec ID : A_AC3 Duration : 1 h 46 min Bit rate mode : Constant Bit rate : 640 kb/s Channel(s) : 6 channels Channel positions : Front: L C R, Side: L R, LFE Sampling rate : 48.0 kHz Frame rate : 31.250 FPS (1536 SPF) Bit depth : 16 bits Compression mode : Lossy Stream size : 488 MiB (9%) Title : Jpn Language : Japanese Service kind : Complete Main Default : No Forced : No

Text #1 ID : 4 Format : UTF-8 Codec ID : S_TEXT/UTF8 Codec ID/Info : UTF-8 Plain Text Title : Rus full AlexFilm Language : Russian Default : No Forced : No

Text #2 ID : 5 Format : UTF-8 Codec ID : S_TEXT/UTF8 Codec ID/Info : UTF-8 Plain Text Title : Eng full Language : English Default : No Forced : No

Menu 00:00:00.000 : :Echo 00:01:34.094 : :Opening 00:03:21.868 : :Beginning 00:05:13.271 : :Miyamizu Family 00:08:37.308 : :Who Are You? 00:12:11.314 : :Kumihimo 00:14:32.371 : :Kuchikamizake 00:17:22.500 : :Tokyo 00:22:57.918 : :Okudera-senpai 00:27:05.624 : :Accident 1 00:28:16.570 : :Accident 2 00:29:53.542 : :Day by Day 00:32:42.836 : :Object of Worship 00:37:26.995 : :Date 00:41:57.765 : :Autumn Festival 00:44:30.334 : :Disconnection 00:45:54.001 : :Searching 00:48:28.656 : :Itomori Town that Disappeared 00:53:01.387 : :Pursuit 00:56:53.869 : :Recollection 01:03:42.318 : :Replay 01:06:03.793 : :Strategy Meeting 01:09:44.931 : :Premonition 01:12:41.816 : :Chance Meeting 01:16:42.473 : :Twilight 01:21:21.710 : :Beautiful, Struggling 01:29:12.806 : :Love 01:32:51.858 : :Just a Little Longer 01:37:01.733 : :Your Name. 01:41:19.615 : :Staff Roll

main-rutor.org


Смотрите также