Форма голоса субтитры скачать торрент


rutor.org :: Форма голоса / A Silent Voice / Koe no Katachi (2017) BDRip 720p

Информация о фильмеНазвание: Форма голосаОригинальное название: A Silent Voice / Koe no KatachiГод выхода: 2017Жанр: повседневность, драма, романтикаРежиссер: Ямада НаокоХудожник: Синохара Муцуо, Уногути ДзёдзиВ ролях: Ирино Мию, Хаями Саори, Юки Аой, Оно Кэнсё, Канэко Юки, Исикава Юй, Хан Мэгуми, Тоёнага Тосиюки, Мацуока МаюО фильме: История сложных судеб двух подростков. У героини проблемы со слухом, из-за чего в обычной школе она вызывала раздражение одноклассников. Раздражение вылилось в издевательства. Герой был одним из зачинщиков издевательств. Но хоть и были виноваты все, когда пришло время кого-то обвинить, только он стал общепризнанным злодеем. И новым объектов издевательств. Прошли годы, и у парня осталось лишь одно желание: попросить прощения...

World Art | MAL

Страна: ЯпонияСтудия: Kyoto Animation & Animation DoПродолжительность: 02:09:42Язык: Русский, ЯпонскийПеревод: Любительский (двухголосый, закадровый)

ФайлКачество: BDRipФормат: MKVКодек: H.264Аудио кодек: AACВидео: 1280x720, 23.976 fps, 1500 kbpsАудио RUS: 48.0 kHz, AAC, 2 ch, 192 kbps - AniDubАудио JAP: 48.0 kHz, AAC, 2 ch, 192 kbpsСубтитры: русские (встроенные полный перевод, ASS) - nippaСубтитры: русские (встроенные полный перевод, ASS) - drnndy

Релиз от: Озвучивание: JAM, Trina_DПеревод: drnndyТайминг и работа со звуком: Fraksinus

MediaInfo

General Format : Matroska Format version : Version 4 / Version 2 File size : 1.77 GiB Duration : 2 h 9 min Overall bit rate : 1 954 kb/s Encoded date : UTC 2017-05-26 18:20:22 Writing application : mkvmerge v8.3.0 ('Over the Horizon') 64bit Writing library : libebml v1.3.1 + libmatroska v1.4.2

Video ID : 1 Format : AVC Format/Info : Advanced Video Codec Format profile : [email protected] Format settings, CABAC : Yes Format settings, ReFrames : 4 frames Codec ID : V_MPEG4/ISO/AVC Duration : 2 h 9 min Bit rate : 1 527 kb/s Width : 1 280 pixels Height : 720 pixels Display aspect ratio : 16:9 Frame rate mode : Constant Frame rate : 23.976 (24000/1001) FPS Color space : YUV Chroma subsampling : 4:2:0 Bit depth : 8 bits Scan type : Progressive Bits/(Pixel*Frame) : 0.069 Stream size : 1.38 GiB (78%) Writing library : x264 core 148 r2762+56 6284cf3 t_mod_Custom [[email protected] X86_64] Encoding settings : cabac=1 / ref=3 / deblock=1:0:0 / analyse=0x1:0x131 / me=umh / subme=9 / psy=1 / fade_compensate=0.00 / psy_rd=1.00:0.00 / mixed_ref=1 / me_range=32 / chroma_me=1 / trellis=1 / 8x8dct=0 / cqm=0 / deadzone=21,11 / fast_pskip=1 / chroma_qp_offset=-2 / threads=12 / lookahead_threads=1 / sliced_threads=0 / nr=0 / decimate=1 / interlaced=0 / bluray_compat=0 / constrained_intra=0 / fgo=0 / bframes=3 / b_pyramid=2 / b_adapt=1 / b_bias=0 / direct=1 / weightb=1 / open_gop=0 / weightp=2 / keyint=240 / keyint_min=1 / scenecut=40 / intra_refresh=0 / rc_lookahead=40 / rc=crf / mbtree=1 / crf=18.0000 / qcomp=0.60 / qpmin=0:0:0 / qpmax=69:69:69 / qpstep=4 / ip_ratio=1.40 / aq=1:1.00 / aq-sensitivity=10.00 / aq-factor=1.00:1.00:1.00 / aq2=0 / aq3=0 Default : Yes Forced : No

Audio #1 ID : 2 Format : AAC Format/Info : Advanced Audio Codec Format profile : LC Codec ID : A_AAC Duration : 2 h 9 min Bit rate : 192 kb/s Channel(s) : 2 channels Channel positions : Front: L R Sampling rate : 48.0 kHz Frame rate : 46.875 FPS (1024 spf) Compression mode : Lossy Stream size : 178 MiB (10%) Title : AniDub Language : Russian Default : Yes Forced : No

Audio #2 ID : 3 Format : AAC Format/Info : Advanced Audio Codec Format profile : LC Codec ID : A_AAC Duration : 2 h 9 min Bit rate : 231 kb/s Channel(s) : 2 channels Channel positions : Front: L R Sampling rate : 48.0 kHz Frame rate : 46.875 FPS (1024 spf) Compression mode : Lossy Stream size : 215 MiB (12%) Title : Original Language : Japanese Default : No Forced : No

Text #1 ID : 4 Format : ASS Codec ID : S_TEXT/ASS Codec ID/Info : Advanced Sub Station Alpha Duration : 2 h 5 min Bit rate : 256 b/s Count of elements : 2958 Compression mode : Lossless Stream size : 235 KiB (0%) Title : Полные субтитры - nippa Language : Russian Default : Yes Forced : No

Text #2 ID : 5 Format : ASS Codec ID : S_TEXT/ASS Codec ID/Info : Advanced Sub Station Alpha Duration : 2 h 3 min Bit rate : 113 b/s Count of elements : 1761 Compression mode : Lossless Stream size : 103 KiB (0%) Title : Полные субтитры - drnndy Language : Russian Default : No Forced : No

main-rutor.org

rutor.org :: Форма голоса / A Silent Voice / Koe no Katachi (2017) BDRip 1080p

Информация о фильмеНазвание: Форма голосаОригинальное название: A Silent Voice / Koe no KatachiГод выхода: 2017Жанр: повседневность, драма, романтикаРежиссер: Ямада НаокоХудожник: Синохара Муцуо, Уногути ДзёдзиВ ролях: Ирино Мию, Хаями Саори, Юки Аой, Оно Кэнсё, Канэко Юки, Исикава Юй, Хан Мэгуми, Тоёнага Тосиюки, Мацуока МаюО фильме: История сложных судеб двух подростков. У героини проблемы со слухом, из-за чего в обычной школе она вызывала раздражение одноклассников. Раздражение вылилось в издевательства. Герой был одним из зачинщиков издевательств. Но хоть и были виноваты все, когда пришло время кого-то обвинить, только он стал общепризнанным злодеем. И новым объектов издевательств. Прошли годы, и у парня осталось лишь одно желание: попросить прощения...

World Art | MAL

Страна: ЯпонияСтудия: Kyoto Animation & Animation DoПродолжительность: 02:09:42Язык: Русский, ЯпонскийПеревод: Любительский (двухголосый, закадровый)

ФайлКачество: BDRipФормат: MKVКодек: H.264Аудио кодек: AAC, FLACВидео: 1920x1036, 23.976 fps, 6245 kbpsАудио RUS: 48.0 kHz, AAC, 2 ch, 192 kbps - AniDubАудио JAP: 48.0 kHz, FLAC, 2 ch, 1427 kbpsСубтитры: русские (встроенные полный перевод, ASS) - nippaСубтитры: русские (встроенные полный перевод, ASS) - drnndy

Релиз от: Озвучивание: JAM, Trina_DПеревод: drnndyТайминг и работа со звуком: Fraksinus

MediaInfo

General Format : Matroska Format version : Version 4 / Version 2 File size : 7.13 GiB Duration : 2 h 9 min Overall bit rate mode : Variable Overall bit rate : 7 867 kb/s Encoded date : UTC 2017-05-27 04:43:02 Writing application : mkvmerge v8.3.0 ('Over the Horizon') 64bit Writing library : libebml v1.3.1 + libmatroska v1.4.2

Video ID : 1 Format : AVC Format/Info : Advanced Video Codec Format profile : [email protected] Format settings, CABAC : Yes Format settings, ReFrames : 4 frames Codec ID : V_MPEG4/ISO/AVC Duration : 2 h 9 min Bit rate : 6 245 kb/s Width : 1 920 pixels Height : 1 036 pixels Display aspect ratio : 1.85:1 Frame rate mode : Constant Frame rate : 23.976 (24000/1001) FPS Color space : YUV Chroma subsampling : 4:2:0 Bit depth : 8 bits Scan type : Progressive Bits/(Pixel*Frame) : 0.131 Stream size : 5.66 GiB (79%) Writing library : x264 core 148 Encoding settings : opencl=1 / cabac=1 / ref=4 / deblock=1:-2:-2 / analyse=0x3:0x113 / me=umh / subme=9 / psy=1 / psy_rd=0.70:0.00 / mixed_ref=0 / me_range=32 / chroma_me=1 / trellis=2 / 8x8dct=1 / cqm=0 / deadzone=21,11 / fast_pskip=1 / chroma_qp_offset=-2 / threads=8 / lookahead_threads=1 / sliced_threads=0 / nr=0 / decimate=1 / interlaced=0 / bluray_compat=0 / constrained_intra=0 / bframes=9 / b_pyramid=2 / b_adapt=2 / b_bias=0 / direct=3 / weightb=1 / open_gop=0 / weightp=2 / keyint=250 / keyint_min=23 / scenecut=40 / intra_refresh=0 / rc_lookahead=40 / rc=crf / mbtree=1 / crf=16.0 / qcomp=0.70 / qpmin=10 / qpmax=20 / qpstep=4 / ip_ratio=1.40 / aq=1:1.00 Default : Yes Forced : No

Audio #1 ID : 2 Format : AAC Format/Info : Advanced Audio Codec Format profile : LC Codec ID : A_AAC Duration : 2 h 9 min Bit rate : 192 kb/s Channel(s) : 2 channels Channel positions : Front: L R Sampling rate : 48.0 kHz Frame rate : 46.875 FPS (1024 spf) Compression mode : Lossy Stream size : 178 MiB (2%) Title : AniDub Language : Russian Default : Yes Forced : No

Audio #2 ID : 3 Format : FLAC Format/Info : Free Lossless Audio Codec Codec ID : A_FLAC Duration : 2 h 9 min Bit rate mode : Variable Bit rate : 1 427 kb/s Channel(s) : 2 channels Channel positions : Front: L R Sampling rate : 48.0 kHz Frame rate : 10.417 FPS (4608 spf) Bit depth : 24 bits Stream size : 1.29 GiB (18%) Title : Original Language : Japanese Default : No Forced : No

Text #1 ID : 4 Format : ASS Codec ID : S_TEXT/ASS Codec ID/Info : Advanced Sub Station Alpha Duration : 2 h 5 min Bit rate : 256 b/s Count of elements : 2958 Compression mode : Lossless Stream size : 235 KiB (0%) Title : Полные субтитры - nippa Language : Russian Default : Yes Forced : No

Text #2 ID : 5 Format : ASS Codec ID : S_TEXT/ASS Codec ID/Info : Advanced Sub Station Alpha Duration : 2 h 3 min Bit rate : 113 b/s Count of elements : 1761 Compression mode : Lossless Stream size : 103 KiB (0%) Title : Полные субтитры - drnndy Language : Russian Default : No Forced : No

main-rutor.org

Скачать торрент Форма голоса / A Silent Voice / Koe no Katachi (2017) BDRip 1080p

Информация о фильмеНазвание: Форма голосаОригинальное название: A Silent Voice / Koe no KatachiГод выхода: 2017Жанр: повседневность, драма, романтикаРежиссер: Ямада НаокоХудожник: Синохара Муцуо, Уногути ДзёдзиВ ролях: Ирино Мию, Хаями Саори, Юки Аой, Оно Кэнсё, Канэко Юки, Исикава Юй, Хан Мэгуми, Тоёнага Тосиюки, Мацуока МаюО фильме: История сложных судеб двух подростков. У героини проблемы со слухом, из-за чего в обычной школе она вызывала раздражение одноклассников. Раздражение вылилось в издевательства. Герой был одним из зачинщиков издевательств. Но хоть и были виноваты все, когда пришло время кого-то обвинить, только он стал общепризнанным злодеем. И новым объектов издевательств. Прошли годы, и у парня осталось лишь одно желание: попросить прощения...

World Art | MAL

Страна: ЯпонияСтудия: Kyoto Animation & Animation DoПродолжительность: 02:09:42Язык: Русский, ЯпонскийПеревод: Любительский (двухголосый, закадровый)

ФайлКачество: BDRipФормат: MKVКодек: H.264Аудио кодек: AAC, FLACВидео: 1920x1036, 23.976 fps, 6245 kbpsАудио RUS: 48.0 kHz, AAC, 2 ch, 192 kbps - AniDubАудио JAP: 48.0 kHz, FLAC, 2 ch, 1427 kbpsСубтитры: русские (встроенные полный перевод, ASS) - nippaСубтитры: русские (встроенные полный перевод, ASS) - drnndy

Релиз от: Озвучивание: JAM, Trina_DПеревод: drnndyТайминг и работа со звуком: Fraksinus

MediaInfo

General Format : Matroska Format version : Version 4 / Version 2 File size : 7.13 GiB Duration : 2 h 9 min Overall bit rate mode : Variable Overall bit rate : 7 867 kb/s Encoded date : UTC 2017-05-27 04:43:02 Writing application : mkvmerge v8.3.0 ('Over the Horizon') 64bit Writing library : libebml v1.3.1 + libmatroska v1.4.2

Video ID : 1 Format : AVC Format/Info : Advanced Video Codec Format profile : [email protected] Format settings, CABAC : Yes Format settings, ReFrames : 4 frames Codec ID : V_MPEG4/ISO/AVC Duration : 2 h 9 min Bit rate : 6 245 kb/s Width : 1 920 pixels Height : 1 036 pixels Display aspect ratio : 1.85:1 Frame rate mode : Constant Frame rate : 23.976 (24000/1001) FPS Color space : YUV Chroma subsampling : 4:2:0 Bit depth : 8 bits Scan type : Progressive Bits/(Pixel*Frame) : 0.131 Stream size : 5.66 GiB (79%) Writing library : x264 core 148 Encoding settings : opencl=1 / cabac=1 / ref=4 / deblock=1:-2:-2 / analyse=0x3:0x113 / me=umh / subme=9 / psy=1 / psy_rd=0.70:0.00 / mixed_ref=0 / me_range=32 / chroma_me=1 / trellis=2 / 8x8dct=1 / cqm=0 / deadzone=21,11 / fast_pskip=1 / chroma_qp_offset=-2 / threads=8 / lookahead_threads=1 / sliced_threads=0 / nr=0 / decimate=1 / interlaced=0 / bluray_compat=0 / constrained_intra=0 / bframes=9 / b_pyramid=2 / b_adapt=2 / b_bias=0 / direct=3 / weightb=1 / open_gop=0 / weightp=2 / keyint=250 / keyint_min=23 / scenecut=40 / intra_refresh=0 / rc_lookahead=40 / rc=crf / mbtree=1 / crf=16.0 / qcomp=0.70 / qpmin=10 / qpmax=20 / qpstep=4 / ip_ratio=1.40 / aq=1:1.00 Default : Yes Forced : No

Audio #1 ID : 2 Format : AAC Format/Info : Advanced Audio Codec Format profile : LC Codec ID : A_AAC Duration : 2 h 9 min Bit rate : 192 kb/s Channel(s) : 2 channels Channel positions : Front: L R Sampling rate : 48.0 kHz Frame rate : 46.875 FPS (1024 spf) Compression mode : Lossy Stream size : 178 MiB (2%) Title : AniDub Language : Russian Default : Yes Forced : No

Audio #2 ID : 3 Format : FLAC Format/Info : Free Lossless Audio Codec Codec ID : A_FLAC Duration : 2 h 9 min Bit rate mode : Variable Bit rate : 1 427 kb/s Channel(s) : 2 channels Channel positions : Front: L R Sampling rate : 48.0 kHz Frame rate : 10.417 FPS (4608 spf) Bit depth : 24 bits Stream size : 1.29 GiB (18%) Title : Original Language : Japanese Default : No Forced : No

Text #1 ID : 4 Format : ASS Codec ID : S_TEXT/ASS Codec ID/Info : Advanced Sub Station Alpha Duration : 2 h 5 min Bit rate : 256 b/s Count of elements : 2958 Compression mode : Lossless Stream size : 235 KiB (0%) Title : Полные субтитры - nippa Language : Russian Default : Yes Forced : No

Text #2 ID : 5 Format : ASS Codec ID : S_TEXT/ASS Codec ID/Info : Advanced Sub Station Alpha Duration : 2 h 3 min Bit rate : 113 b/s Count of elements : 1761 Compression mode : Lossless Stream size : 103 KiB (0%) Title : Полные субтитры - drnndy Language : Russian Default : No Forced : No

krutor.org

Торрент :: Форма голоса / A Silent Voice / Koe no Katachi (2017) BDRip 1080p

Информация о фильмеНазвание: Форма голосаОригинальное название: A Silent Voice / Koe no KatachiГод выхода: 2017Жанр: повседневность, драма, романтикаРежиссер: Ямада НаокоХудожник: Синохара Муцуо, Уногути ДзёдзиВ ролях: Ирино Мию, Хаями Саори, Юки Аой, Оно Кэнсё, Канэко Юки, Исикава Юй, Хан Мэгуми, Тоёнага Тосиюки, Мацуока МаюО фильме: История сложных судеб двух подростков. У героини проблемы со слухом, из-за чего в обычной школе она вызывала раздражение одноклассников. Раздражение вылилось в издевательства. Герой был одним из зачинщиков издевательств. Но хоть и были виноваты все, когда пришло время кого-то обвинить, только он стал общепризнанным злодеем. И новым объектов издевательств. Прошли годы, и у парня осталось лишь одно желание: попросить прощения...

World Art | MAL

Страна: ЯпонияСтудия: Kyoto Animation & Animation DoПродолжительность: 02:09:42Язык: Русский, ЯпонскийПеревод: Любительский (двухголосый, закадровый)

ФайлКачество: BDRipФормат: MKVКодек: H.264Аудио кодек: AAC, FLACВидео: 1920x1036, 23.976 fps, 6245 kbpsАудио RUS: 48.0 kHz, AAC, 2 ch, 192 kbps - AniDubАудио JAP: 48.0 kHz, FLAC, 2 ch, 1427 kbpsСубтитры: русские (встроенные полный перевод, ASS) - nippaСубтитры: русские (встроенные полный перевод, ASS) - drnndy

Релиз от: Озвучивание: JAM, Trina_DПеревод: drnndyТайминг и работа со звуком: Fraksinus

MediaInfo

General Format : Matroska Format version : Version 4 / Version 2 File size : 7.13 GiB Duration : 2 h 9 min Overall bit rate mode : Variable Overall bit rate : 7 867 kb/s Encoded date : UTC 2017-05-27 04:43:02 Writing application : mkvmerge v8.3.0 ('Over the Horizon') 64bit Writing library : libebml v1.3.1 + libmatroska v1.4.2

Video ID : 1 Format : AVC Format/Info : Advanced Video Codec Format profile : [email protected] Format settings, CABAC : Yes Format settings, ReFrames : 4 frames Codec ID : V_MPEG4/ISO/AVC Duration : 2 h 9 min Bit rate : 6 245 kb/s Width : 1 920 pixels Height : 1 036 pixels Display aspect ratio : 1.85:1 Frame rate mode : Constant Frame rate : 23.976 (24000/1001) FPS Color space : YUV Chroma subsampling : 4:2:0 Bit depth : 8 bits Scan type : Progressive Bits/(Pixel*Frame) : 0.131 Stream size : 5.66 GiB (79%) Writing library : x264 core 148 Encoding settings : opencl=1 / cabac=1 / ref=4 / deblock=1:-2:-2 / analyse=0x3:0x113 / me=umh / subme=9 / psy=1 / psy_rd=0.70:0.00 / mixed_ref=0 / me_range=32 / chroma_me=1 / trellis=2 / 8x8dct=1 / cqm=0 / deadzone=21,11 / fast_pskip=1 / chroma_qp_offset=-2 / threads=8 / lookahead_threads=1 / sliced_threads=0 / nr=0 / decimate=1 / interlaced=0 / bluray_compat=0 / constrained_intra=0 / bframes=9 / b_pyramid=2 / b_adapt=2 / b_bias=0 / direct=3 / weightb=1 / open_gop=0 / weightp=2 / keyint=250 / keyint_min=23 / scenecut=40 / intra_refresh=0 / rc_lookahead=40 / rc=crf / mbtree=1 / crf=16.0 / qcomp=0.70 / qpmin=10 / qpmax=20 / qpstep=4 / ip_ratio=1.40 / aq=1:1.00 Default : Yes Forced : No

Audio #1 ID : 2 Format : AAC Format/Info : Advanced Audio Codec Format profile : LC Codec ID : A_AAC Duration : 2 h 9 min Bit rate : 192 kb/s Channel(s) : 2 channels Channel positions : Front: L R Sampling rate : 48.0 kHz Frame rate : 46.875 FPS (1024 spf) Compression mode : Lossy Stream size : 178 MiB (2%) Title : AniDub Language : Russian Default : Yes Forced : No

Audio #2 ID : 3 Format : FLAC Format/Info : Free Lossless Audio Codec Codec ID : A_FLAC Duration : 2 h 9 min Bit rate mode : Variable Bit rate : 1 427 kb/s Channel(s) : 2 channels Channel positions : Front: L R Sampling rate : 48.0 kHz Frame rate : 10.417 FPS (4608 spf) Bit depth : 24 bits Stream size : 1.29 GiB (18%) Title : Original Language : Japanese Default : No Forced : No

Text #1 ID : 4 Format : ASS Codec ID : S_TEXT/ASS Codec ID/Info : Advanced Sub Station Alpha Duration : 2 h 5 min Bit rate : 256 b/s Count of elements : 2958 Compression mode : Lossless Stream size : 235 KiB (0%) Title : Полные субтитры - nippa Language : Russian Default : Yes Forced : No

Text #2 ID : 5 Format : ASS Codec ID : S_TEXT/ASS Codec ID/Info : Advanced Sub Station Alpha Duration : 2 h 3 min Bit rate : 113 b/s Count of elements : 1761 Compression mode : Lossless Stream size : 103 KiB (0%) Title : Полные субтитры - drnndy Language : Russian Default : No Forced : No

therutor.org

РУТОРГ :: Форма голоса / A Silent Voice / Koe no Katachi (2017) BDRip 720p

Информация о фильмеНазвание: Форма голосаОригинальное название: A Silent Voice / Koe no KatachiГод выхода: 2017Жанр: повседневность, драма, романтикаРежиссер: Ямада НаокоХудожник: Синохара Муцуо, Уногути ДзёдзиВ ролях: Ирино Мию, Хаями Саори, Юки Аой, Оно Кэнсё, Канэко Юки, Исикава Юй, Хан Мэгуми, Тоёнага Тосиюки, Мацуока МаюО фильме: История сложных судеб двух подростков. У героини проблемы со слухом, из-за чего в обычной школе она вызывала раздражение одноклассников. Раздражение вылилось в издевательства. Герой был одним из зачинщиков издевательств. Но хоть и были виноваты все, когда пришло время кого-то обвинить, только он стал общепризнанным злодеем. И новым объектов издевательств. Прошли годы, и у парня осталось лишь одно желание: попросить прощения...

World Art | MAL

Страна: ЯпонияСтудия: Kyoto Animation & Animation DoПродолжительность: 02:09:42Язык: Русский, ЯпонскийПеревод: Любительский (двухголосый, закадровый)

ФайлКачество: BDRipФормат: MKVКодек: H.264Аудио кодек: AACВидео: 1280x720, 23.976 fps, 1500 kbpsАудио RUS: 48.0 kHz, AAC, 2 ch, 192 kbps - AniDubАудио JAP: 48.0 kHz, AAC, 2 ch, 192 kbpsСубтитры: русские (встроенные полный перевод, ASS) - nippaСубтитры: русские (встроенные полный перевод, ASS) - drnndy

Релиз от: Озвучивание: JAM, Trina_DПеревод: drnndyТайминг и работа со звуком: Fraksinus

MediaInfo

General Format : Matroska Format version : Version 4 / Version 2 File size : 1.77 GiB Duration : 2 h 9 min Overall bit rate : 1 954 kb/s Encoded date : UTC 2017-05-26 18:20:22 Writing application : mkvmerge v8.3.0 ('Over the Horizon') 64bit Writing library : libebml v1.3.1 + libmatroska v1.4.2

Video ID : 1 Format : AVC Format/Info : Advanced Video Codec Format profile : [email protected] Format settings, CABAC : Yes Format settings, ReFrames : 4 frames Codec ID : V_MPEG4/ISO/AVC Duration : 2 h 9 min Bit rate : 1 527 kb/s Width : 1 280 pixels Height : 720 pixels Display aspect ratio : 16:9 Frame rate mode : Constant Frame rate : 23.976 (24000/1001) FPS Color space : YUV Chroma subsampling : 4:2:0 Bit depth : 8 bits Scan type : Progressive Bits/(Pixel*Frame) : 0.069 Stream size : 1.38 GiB (78%) Writing library : x264 core 148 r2762+56 6284cf3 t_mod_Custom [[email protected] X86_64] Encoding settings : cabac=1 / ref=3 / deblock=1:0:0 / analyse=0x1:0x131 / me=umh / subme=9 / psy=1 / fade_compensate=0.00 / psy_rd=1.00:0.00 / mixed_ref=1 / me_range=32 / chroma_me=1 / trellis=1 / 8x8dct=0 / cqm=0 / deadzone=21,11 / fast_pskip=1 / chroma_qp_offset=-2 / threads=12 / lookahead_threads=1 / sliced_threads=0 / nr=0 / decimate=1 / interlaced=0 / bluray_compat=0 / constrained_intra=0 / fgo=0 / bframes=3 / b_pyramid=2 / b_adapt=1 / b_bias=0 / direct=1 / weightb=1 / open_gop=0 / weightp=2 / keyint=240 / keyint_min=1 / scenecut=40 / intra_refresh=0 / rc_lookahead=40 / rc=crf / mbtree=1 / crf=18.0000 / qcomp=0.60 / qpmin=0:0:0 / qpmax=69:69:69 / qpstep=4 / ip_ratio=1.40 / aq=1:1.00 / aq-sensitivity=10.00 / aq-factor=1.00:1.00:1.00 / aq2=0 / aq3=0 Default : Yes Forced : No

Audio #1 ID : 2 Format : AAC Format/Info : Advanced Audio Codec Format profile : LC Codec ID : A_AAC Duration : 2 h 9 min Bit rate : 192 kb/s Channel(s) : 2 channels Channel positions : Front: L R Sampling rate : 48.0 kHz Frame rate : 46.875 FPS (1024 spf) Compression mode : Lossy Stream size : 178 MiB (10%) Title : AniDub Language : Russian Default : Yes Forced : No

Audio #2 ID : 3 Format : AAC Format/Info : Advanced Audio Codec Format profile : LC Codec ID : A_AAC Duration : 2 h 9 min Bit rate : 231 kb/s Channel(s) : 2 channels Channel positions : Front: L R Sampling rate : 48.0 kHz Frame rate : 46.875 FPS (1024 spf) Compression mode : Lossy Stream size : 215 MiB (12%) Title : Original Language : Japanese Default : No Forced : No

Text #1 ID : 4 Format : ASS Codec ID : S_TEXT/ASS Codec ID/Info : Advanced Sub Station Alpha Duration : 2 h 5 min Bit rate : 256 b/s Count of elements : 2958 Compression mode : Lossless Stream size : 235 KiB (0%) Title : Полные субтитры - nippa Language : Russian Default : Yes Forced : No

Text #2 ID : 5 Format : ASS Codec ID : S_TEXT/ASS Codec ID/Info : Advanced Sub Station Alpha Duration : 2 h 3 min Bit rate : 113 b/s Count of elements : 1761 Compression mode : Lossless Stream size : 103 KiB (0%) Title : Полные субтитры - drnndy Language : Russian Default : No Forced : No

xn--c1avfbif.org

Скачать торрент Форма голоса / A Silent Voice / Koe no Katachi (2017) BDRip 720p

Информация о фильмеНазвание: Форма голосаОригинальное название: A Silent Voice / Koe no KatachiГод выхода: 2017Жанр: повседневность, драма, романтикаРежиссер: Ямада НаокоХудожник: Синохара Муцуо, Уногути ДзёдзиВ ролях: Ирино Мию, Хаями Саори, Юки Аой, Оно Кэнсё, Канэко Юки, Исикава Юй, Хан Мэгуми, Тоёнага Тосиюки, Мацуока МаюО фильме: История сложных судеб двух подростков. У героини проблемы со слухом, из-за чего в обычной школе она вызывала раздражение одноклассников. Раздражение вылилось в издевательства. Герой был одним из зачинщиков издевательств. Но хоть и были виноваты все, когда пришло время кого-то обвинить, только он стал общепризнанным злодеем. И новым объектов издевательств. Прошли годы, и у парня осталось лишь одно желание: попросить прощения...

World Art | MAL

Страна: ЯпонияСтудия: Kyoto Animation & Animation DoПродолжительность: 02:09:42Язык: Русский, ЯпонскийПеревод: Любительский (двухголосый, закадровый)

ФайлКачество: BDRipФормат: MKVКодек: H.264Аудио кодек: AACВидео: 1280x720, 23.976 fps, 1500 kbpsАудио RUS: 48.0 kHz, AAC, 2 ch, 192 kbps - AniDubАудио JAP: 48.0 kHz, AAC, 2 ch, 192 kbpsСубтитры: русские (встроенные полный перевод, ASS) - nippaСубтитры: русские (встроенные полный перевод, ASS) - drnndy

Релиз от: Озвучивание: JAM, Trina_DПеревод: drnndyТайминг и работа со звуком: Fraksinus

MediaInfo

General Format : Matroska Format version : Version 4 / Version 2 File size : 1.77 GiB Duration : 2 h 9 min Overall bit rate : 1 954 kb/s Encoded date : UTC 2017-05-26 18:20:22 Writing application : mkvmerge v8.3.0 ('Over the Horizon') 64bit Writing library : libebml v1.3.1 + libmatroska v1.4.2

Video ID : 1 Format : AVC Format/Info : Advanced Video Codec Format profile : [email protected] Format settings, CABAC : Yes Format settings, ReFrames : 4 frames Codec ID : V_MPEG4/ISO/AVC Duration : 2 h 9 min Bit rate : 1 527 kb/s Width : 1 280 pixels Height : 720 pixels Display aspect ratio : 16:9 Frame rate mode : Constant Frame rate : 23.976 (24000/1001) FPS Color space : YUV Chroma subsampling : 4:2:0 Bit depth : 8 bits Scan type : Progressive Bits/(Pixel*Frame) : 0.069 Stream size : 1.38 GiB (78%) Writing library : x264 core 148 r2762+56 6284cf3 t_mod_Custom [[email protected] X86_64] Encoding settings : cabac=1 / ref=3 / deblock=1:0:0 / analyse=0x1:0x131 / me=umh / subme=9 / psy=1 / fade_compensate=0.00 / psy_rd=1.00:0.00 / mixed_ref=1 / me_range=32 / chroma_me=1 / trellis=1 / 8x8dct=0 / cqm=0 / deadzone=21,11 / fast_pskip=1 / chroma_qp_offset=-2 / threads=12 / lookahead_threads=1 / sliced_threads=0 / nr=0 / decimate=1 / interlaced=0 / bluray_compat=0 / constrained_intra=0 / fgo=0 / bframes=3 / b_pyramid=2 / b_adapt=1 / b_bias=0 / direct=1 / weightb=1 / open_gop=0 / weightp=2 / keyint=240 / keyint_min=1 / scenecut=40 / intra_refresh=0 / rc_lookahead=40 / rc=crf / mbtree=1 / crf=18.0000 / qcomp=0.60 / qpmin=0:0:0 / qpmax=69:69:69 / qpstep=4 / ip_ratio=1.40 / aq=1:1.00 / aq-sensitivity=10.00 / aq-factor=1.00:1.00:1.00 / aq2=0 / aq3=0 Default : Yes Forced : No

Audio #1 ID : 2 Format : AAC Format/Info : Advanced Audio Codec Format profile : LC Codec ID : A_AAC Duration : 2 h 9 min Bit rate : 192 kb/s Channel(s) : 2 channels Channel positions : Front: L R Sampling rate : 48.0 kHz Frame rate : 46.875 FPS (1024 spf) Compression mode : Lossy Stream size : 178 MiB (10%) Title : AniDub Language : Russian Default : Yes Forced : No

Audio #2 ID : 3 Format : AAC Format/Info : Advanced Audio Codec Format profile : LC Codec ID : A_AAC Duration : 2 h 9 min Bit rate : 231 kb/s Channel(s) : 2 channels Channel positions : Front: L R Sampling rate : 48.0 kHz Frame rate : 46.875 FPS (1024 spf) Compression mode : Lossy Stream size : 215 MiB (12%) Title : Original Language : Japanese Default : No Forced : No

Text #1 ID : 4 Format : ASS Codec ID : S_TEXT/ASS Codec ID/Info : Advanced Sub Station Alpha Duration : 2 h 5 min Bit rate : 256 b/s Count of elements : 2958 Compression mode : Lossless Stream size : 235 KiB (0%) Title : Полные субтитры - nippa Language : Russian Default : Yes Forced : No

Text #2 ID : 5 Format : ASS Codec ID : S_TEXT/ASS Codec ID/Info : Advanced Sub Station Alpha Duration : 2 h 3 min Bit rate : 113 b/s Count of elements : 1761 Compression mode : Lossless Stream size : 103 KiB (0%) Title : Полные субтитры - drnndy Language : Russian Default : No Forced : No

krutor.org

Скачать торрент Форма голоса / A Silent Voice / Koe no Katachi (2017) BDRip 720p

Информация о фильмеНазвание: Форма голосаОригинальное название: A Silent Voice / Koe no KatachiГод выхода: 2017Жанр: повседневность, драма, романтикаРежиссер: Ямада НаокоХудожник: Синохара Муцуо, Уногути ДзёдзиВ ролях: Ирино Мию, Хаями Саори, Юки Аой, Оно Кэнсё, Канэко Юки, Исикава Юй, Хан Мэгуми, Тоёнага Тосиюки, Мацуока МаюО фильме: История сложных судеб двух подростков. У героини проблемы со слухом, из-за чего в обычной школе она вызывала раздражение одноклассников. Раздражение вылилось в издевательства. Герой был одним из зачинщиков издевательств. Но хоть и были виноваты все, когда пришло время кого-то обвинить, только он стал общепризнанным злодеем. И новым объектов издевательств. Прошли годы, и у парня осталось лишь одно желание: попросить прощения...

World Art | MAL

Страна: ЯпонияСтудия: Kyoto Animation & Animation DoПродолжительность: 02:09:42Язык: Русский, ЯпонскийПеревод: Любительский (двухголосый, закадровый)

ФайлКачество: BDRipФормат: MKVКодек: H.264Аудио кодек: AACВидео: 1280x720, 23.976 fps, 1500 kbpsАудио RUS: 48.0 kHz, AAC, 2 ch, 192 kbps - AniDubАудио JAP: 48.0 kHz, AAC, 2 ch, 192 kbpsСубтитры: русские (встроенные полный перевод, ASS) - nippaСубтитры: русские (встроенные полный перевод, ASS) - drnndy

Релиз от: Озвучивание: JAM, Trina_DПеревод: drnndyТайминг и работа со звуком: Fraksinus

MediaInfo

General Format : Matroska Format version : Version 4 / Version 2 File size : 1.77 GiB Duration : 2 h 9 min Overall bit rate : 1 954 kb/s Encoded date : UTC 2017-05-26 18:20:22 Writing application : mkvmerge v8.3.0 ('Over the Horizon') 64bit Writing library : libebml v1.3.1 + libmatroska v1.4.2

Video ID : 1 Format : AVC Format/Info : Advanced Video Codec Format profile : [email protected] Format settings, CABAC : Yes Format settings, ReFrames : 4 frames Codec ID : V_MPEG4/ISO/AVC Duration : 2 h 9 min Bit rate : 1 527 kb/s Width : 1 280 pixels Height : 720 pixels Display aspect ratio : 16:9 Frame rate mode : Constant Frame rate : 23.976 (24000/1001) FPS Color space : YUV Chroma subsampling : 4:2:0 Bit depth : 8 bits Scan type : Progressive Bits/(Pixel*Frame) : 0.069 Stream size : 1.38 GiB (78%) Writing library : x264 core 148 r2762+56 6284cf3 t_mod_Custom [[email protected] X86_64] Encoding settings : cabac=1 / ref=3 / deblock=1:0:0 / analyse=0x1:0x131 / me=umh / subme=9 / psy=1 / fade_compensate=0.00 / psy_rd=1.00:0.00 / mixed_ref=1 / me_range=32 / chroma_me=1 / trellis=1 / 8x8dct=0 / cqm=0 / deadzone=21,11 / fast_pskip=1 / chroma_qp_offset=-2 / threads=12 / lookahead_threads=1 / sliced_threads=0 / nr=0 / decimate=1 / interlaced=0 / bluray_compat=0 / constrained_intra=0 / fgo=0 / bframes=3 / b_pyramid=2 / b_adapt=1 / b_bias=0 / direct=1 / weightb=1 / open_gop=0 / weightp=2 / keyint=240 / keyint_min=1 / scenecut=40 / intra_refresh=0 / rc_lookahead=40 / rc=crf / mbtree=1 / crf=18.0000 / qcomp=0.60 / qpmin=0:0:0 / qpmax=69:69:69 / qpstep=4 / ip_ratio=1.40 / aq=1:1.00 / aq-sensitivity=10.00 / aq-factor=1.00:1.00:1.00 / aq2=0 / aq3=0 Default : Yes Forced : No

Audio #1 ID : 2 Format : AAC Format/Info : Advanced Audio Codec Format profile : LC Codec ID : A_AAC Duration : 2 h 9 min Bit rate : 192 kb/s Channel(s) : 2 channels Channel positions : Front: L R Sampling rate : 48.0 kHz Frame rate : 46.875 FPS (1024 spf) Compression mode : Lossy Stream size : 178 MiB (10%) Title : AniDub Language : Russian Default : Yes Forced : No

Audio #2 ID : 3 Format : AAC Format/Info : Advanced Audio Codec Format profile : LC Codec ID : A_AAC Duration : 2 h 9 min Bit rate : 231 kb/s Channel(s) : 2 channels Channel positions : Front: L R Sampling rate : 48.0 kHz Frame rate : 46.875 FPS (1024 spf) Compression mode : Lossy Stream size : 215 MiB (12%) Title : Original Language : Japanese Default : No Forced : No

Text #1 ID : 4 Format : ASS Codec ID : S_TEXT/ASS Codec ID/Info : Advanced Sub Station Alpha Duration : 2 h 5 min Bit rate : 256 b/s Count of elements : 2958 Compression mode : Lossless Stream size : 235 KiB (0%) Title : Полные субтитры - nippa Language : Russian Default : Yes Forced : No

Text #2 ID : 5 Format : ASS Codec ID : S_TEXT/ASS Codec ID/Info : Advanced Sub Station Alpha Duration : 2 h 3 min Bit rate : 113 b/s Count of elements : 1761 Compression mode : Lossless Stream size : 103 KiB (0%) Title : Полные субтитры - drnndy Language : Russian Default : No Forced : No

mrutor.org


Смотрите также