Таймлесс сапфировая книга 2 скачать


Сапфировая книга через торрент в хорошем качестве бесплатно WEB-DLRip

Раздают: 1 [ 0 KB/s ]
Размер: 1.46 GB | Добавлен: 2 года 10 мес. назад | Торрент скачан:1339 раз
Реклама Дарим 3000 рублей за регистрацию, не упусти свой шанс получить шикарный бонус!!!

06-12-2014 09:18 Таймлесс 2: Сапфировая книга Скачать торрент  

Таймлесс 2: Сапфировая книга / Saphirblau «Любовь будет вечной, если ты повелитель времени» ✦ Год выпуска:2014✦ Страна: Германия✦ Жанр:фантастика, фэнтези, драма, мелодрама, детектив✦ Продолжительность:01:56:06✦ Перевод:Профессиональный многоголосый [Лицензия] ✦ Режиссер:Феликс Фуксштайнер , Катарина Шёде
  • В ролях: Мария Эрих (Gwendolyn Shepherd), Яннис Нивёнер (Gideon de Villiers), Петер Симонишек (Graf von St. Germain), Йозефина Пройсс (Lucy Montrose), Флориан Бартоломай (Paul de Villiers), Руфус Бек (Xemerius, озвучка), Лаура Берлин (Charlotte), Сандра Боргманн (Lady Lavinia), Юстина дель Корте (Madame Rossini), Вероника Феррес (Grace Sheperd), Рольф Канис (William de Villiers), Дженнифер Лотси (Leslie)
  • Описание:Приключения юной Гвендолин Шеферд продолжаются. Она начинает все больше узнавать о тайнах мира путешественников во времени. Ей предстоит разгадать больше загадок и научиться быть светской леди для приемов в 18 веке. Гвендолин узнает больше о своей семье, в первую очередь о ее дедушке Лукасе. Также Гвен подозревает, что Гидеон скрывает что-то от нее, возможно какую-то сокровенную страшную тайну... Но с появлением нового, слегка надоедливого друга Ксемериуса, девушке становится легче преодолевать все препятствия на пути.
  • Мировая премьера:7 августа 2014 ✦ Качество: WEB-DLRip✦ Формат:AVI✦ Видео кодек: XviD✦ Аудио кодек:AC3✦ Видео: XviD, 720x304 (2.35:1), 1338 kbps, 24 fps, 0,255 bpp✦ Аудио: AC3 / 5.1 / 48 kHz / 448 kbps / 16 bit

    Код:

    GeneralComplete name                            : D:\Торенты\Tajmless.2.2014.P.WEDBLRip.1.46GB.aviFormat                                   : AVIFormat/Info                              : Audio Video InterleaveFile size                                : 1.46 GiBDuration                                 : 1h 56mnOverall bit rate                         : 1 796 KbpsWriting application                      : VirtualDubMod 1.5.10.3 | www.virtualdub-fr.org || (build 2550/release)Writing library                          : VirtualDubMod build 2550/release

    VideoID                                       : 0Format                                   : MPEG-4 VisualFormat profile                           : Advanced [email protected] settings, BVOP                    : 2Format settings, QPel                    : NoFormat settings, GMC                     : No warppointsFormat settings, Matrix                  : Default (MPEG)Codec ID                                 : XVIDCodec ID/Hint                            : XviDDuration                                 : 1h 56mnBit rate                                 : 1 339 KbpsWidth                                    : 720 pixelsHeight                                   : 304 pixelsDisplay aspect ratio                     : 2.35:1Frame rate                               : 24.000 fpsColor space                              : YUVChroma subsampling                       : 4:2:0Bit depth                                : 8 bitsScan type                                : ProgressiveCompression mode                         : LossyBits/(Pixel*Frame)                       : 0.255Stream size                              : 1.09 GiB (75%)Writing library                          : XviD 1.2.1 (UTC 2008-12-04)

    AudioID                                       : 1Format                                   : AC-3Format/Info                              : Audio Coding 3Mode extension                           : CM (complete main)Codec ID                                 : 2000Duration                                 : 1h 56mnBit rate mode                            : ConstantBit rate                                 : 448 KbpsChannel(s)                               : 6 channelsChannel positions                        : Front: L C R, Side: L R, LFESampling rate                            : 48.0 KHzBit depth                                : 16 bitsCompression mode                         : LossyStream size                              : 372 MiB (25%)Alignment                                : Split accross interleavesInterleave, duration                     : 42 ms (1.00 video frame)Interleave, preload duration             : 500 ms

    Срочно! Нужна помощь! Жмите © Оформление by Ворон
  • Скачать Таймлесс 2: Сапфировая книга через торрент http://pic.pb.wtf/images/6/ordi9.jpg Скачать фильм Таймлесс 2: Сапфировая книга через торрент бесплантно в хорошем качестве Описание:Приключения юной Гвендолин Шеферд продолжаются. Она начинает все больше узнавать о тайнах мира путешественников во времени. Ей ... 2014-12-06 09:18 9.6 10 26

    Loading...

    Loading...

    Рекламный пират

    06-12-2014 13:33 Таймлесс 2: Сапфировая книга Скачать торрент  

    Спасибо за релиз. Первый фильм вышел не плохим.Ворон, он же Raven, вижу внизу оформления раздачи новые строчки о том же, не понимаю, что вам мешает перейти от слов к делу?Так любите же свой народ, уважайте другие народы! Делайте это не на словах, а на деле! Кто вам мешает следовать этим прописным истинам?

    31-01-2015 18:40 Таймлесс 2: Сапфировая книга Скачать торрент  

    А вот нельзя было немецкую озвучку вообще убрать, или хотя бы приглушить, хреновый звук короче

    Дорогой пользователь! Огромная просьба, поблагодарите релизера, оцените раздачу и оставьте свои комментарий, если Вы скачали Таймлесс 2: Сапфировая книга через торрент бесплатно! Внесите свою лепту в развитие PiratBit!

    Комментировать посты могут только пользователи прошедшие не сложную регистрацию

    Таймлесс 2: Сапфировая книга через торрент Скачать бесплатно Таймлесс 2: Сапфировая книга Таймлесс 2: Сапфировая книга скачать торрент Таймлесс 2: Сапфировая книга смотреть онлайн Cкачать фильм Таймлесс 2: Сапфировая книга бесплатно Таймлесс 2: Сапфировая книга скачать торрент в хорошем качестве Таймлесс 2: Сапфировая книга смотреть онлайн бесплатно в хорошем качестве

    Вы не можете начинать темыВы не можете отвечать на сообщенияВы не можете редактировать свои сообщенияВы не можете удалять свои сообщенияВы не можете голосовать в опросахВы не можете прикреплять файлы к сообщениямВы можете скачивать файлы

    piratbit.ru

    Сапфировая книга через торрент в хорошем качестве бесплатно HDRip

    Размер: 2.14 GB | Добавлен: 2 года 7 мес. назад | Торрент скачан:649 раз
    Реклама Дарим 3000 рублей за регистрацию, не упусти свой шанс получить шикарный бонус!!!

    26-02-2015 18:05 Таймлесс 2: Сапфировая книга Скачать торрент  

    Таймлесс 2: Сапфировая книга / Saphirblau

    Год выпуска: 2014Страна: Германия / Tele München Fernseh Produktionsgesellschaft (TMG), mem-film, LieblingsfilmЖанр: фантастика, фэнтези, драма, мелодрама, детективПродолжительность: 01:56:06Перевод: Профессиональный многоголосый закадровый (Лицензия R5)

    Режиссер: Феликс Фуксштайнер, Катарина Шёде В ролях: Мария Эрих, Яннис Нивёнер, Петер Симонишек, Йозефина Пройсс, Флориан Бартоломай, Руфус Бек, Лаура Берлин, Сандра Боргманн, Юстина дель Корте, Вероника Феррес

    Описание: Приключения юной Гвендолин Шеферд продолжаются. Она начинает все больше узнавать о тайнах мира путешественников во времени. Ей предстоит разгадать больше загадок и научиться быть светской леди для приемов в 18 веке. Гвендолин узнает больше о своей семье, в первую очередь о ее дедушке Лукасе. Также Гвен подозревает, что Гидеон скрывает что-то от нее, возможно какую-то сокровенную страшную тайну... Но с появлением нового, слегка надоедливого друга Ксемериуса, девушке становится легче преодолевать все препятствия на пути.

    Качество: HDRipФормат: AVIВидео кодек: XviDАудио кодек: AC3Видео: 720x304 (2.37:1), 24.000 fps, XviD build 50 ~2180 kbps avg, 0.41 bit/pixelАудио: 48 kHz, AC3 Dolby Digital, 3/2 (L,C,R,l,r) + LFE ch, ~448 kbps

    ОбщееПолное имя : F:\кино\Таймлесс 2. Сапфировая книга.2014.HDRip.aviФормат : AVIФормат/Информация : Audio Video InterleaveПрофиль формата : OpenDMLРазмер файла : 2,14 ГбайтПродолжительность : 1 ч. 56 м.Общий поток : 2635 Кбит/секНазвание фильма : Таймлесс 2. Сапфировая книга.2014.HDRip.aviРежиссёр : Rip by coc900Жанр : FantasyПрограмма кодирования : VirtualDubMod 1.5.10.3 | www.virtualdub-fr.org || (build 2550/release)Формат оригинала/Имя : Movie

    ВидеоИдентификатор : 0Формат : MPEG-4 VisualПрофиль формата : Advanced [email protected]Параметр BVOP формата : 2Параметр QPel формата : НетПараметр GMC формата : Без точки переходаПараметр матрицы формата : Default (H.263)Идентификатор кодека : XVIDИдентификатор кодека/Подсказка : XviDПродолжительность : 1 ч. 56 м.Битрейт : 2175 Кбит/секШирина : 720 пикселейВысота : 304 пикселяСоотношение сторон : 2,35:1Частота кадров : 24,000 кадра/секЦветовое пространство : YUVСубдискретизация насыщенности : 4:2:0Битовая глубина : 8 битТип развёртки : ПрогрессивнаяМетод сжатия : С потерямиБит/(Пиксели*Кадры) : 0.414Размер потока : 1,76 Гбайт (83%)Библиотека кодирования : XviD 1.2.1 (UTC 2008-12-04)

    АудиоИдентификатор : 1Формат : AC-3Формат/Информация : Audio Coding 3Расширение режима : CM (complete main)Параметр Endianness формата : BigИдентификатор кодека : 2000Продолжительность : 1 ч. 56 м.Вид битрейта : ПостоянныйБитрейт : 448 Кбит/секКаналы : 6 каналовРасположение каналов : Front: L C R, Side: L R, LFEЧастота : 48,0 КГцБитовая глубина : 16 битМетод сжатия : С потерямиРазмер потока : 372 Мбайт (17%)Выравнивание : Разделение по промежуткамПродолжительность промежутка : 42 мс. (1,00 видеокадр)Время предзагрузки промежутка : 500 мс.

    Скачать Таймлесс 2: Сапфировая книга через торрент http://pic1.pb.wtf/images/9/2vsmf.jpg Скачать фильм Таймлесс 2: Сапфировая книга через торрент бесплантно в хорошем качестве Описание: Приключения юной Гвендолин Шеферд продолжаются. Она начинает все больше узнавать о тайнах мира путешественников во времени. Ей ... 2015-02-26 18:05 9 10 24

    Loading...

    Loading...

    Рекламный пират

    27-02-2015 06:58 Таймлесс 2: Сапфировая книга Скачать торрент  

    27-02-2015 20:24 Таймлесс 2: Сапфировая книга Скачать торрент  

    castrator3000 писал(а):

    чё за гамно!?

    вместо бессмысленного коментария написал бы что тебе не понравилось в нем дабы люди заходя на раздачу прочли и возможно это им помогло бы понять скачивать или нет.

    28-02-2015 13:59 Таймлесс 2: Сапфировая книга Скачать торрент  

    castrator3000 писал(а):

    чё за гамно!?

    пишется не гамно даун , а

    28-02-2015 21:09 Таймлесс 2: Сапфировая книга Скачать торрент  

    castrator3000 писал(а):

    чё за гамно!?

    Даун

    30-03-2015 00:38 Таймлесс 2: Сапфировая книга Скачать торрент  

    Дорогой пользователь! Огромная просьба, поблагодарите релизера, оцените раздачу и оставьте свои комментарий, если Вы скачали Таймлесс 2: Сапфировая книга через торрент бесплатно! Внесите свою лепту в развитие PiratBit!

    Комментировать посты могут только пользователи прошедшие не сложную регистрацию

    Таймлесс 2: Сапфировая книга через торрент Скачать бесплатно Таймлесс 2: Сапфировая книга Таймлесс 2: Сапфировая книга скачать торрент Таймлесс 2: Сапфировая книга смотреть онлайн Cкачать фильм Таймлесс 2: Сапфировая книга бесплатно Таймлесс 2: Сапфировая книга скачать торрент в хорошем качестве Таймлесс 2: Сапфировая книга смотреть онлайн бесплатно в хорошем качестве

    Вы не можете начинать темыВы не можете отвечать на сообщенияВы не можете редактировать свои сообщенияВы не можете удалять свои сообщенияВы не можете голосовать в опросахВы не можете прикреплять файлы к сообщениямВы можете скачивать файлы

    piratbit.ru

    Сапфировая книга (2014) через торрент

    20 февраля 2016 08:19 Таймлесс 2: Сапфировая книга / Saphirblau (2014) BDRip 720p | KinoGadget | iPad .torrent   [Информация о файле (нажмите для просмотра)] Перевод: Профессиональный многоголосыйКачество: BDRip 720pФормат: mp4 1,57 Gb 63 4 20 февраля 2016 08:19 Таймлесс 2: Сапфировая книга / Saphirblau (2014) BDRip от HQCLUB | Лицензия .torrent   [Информация о файле (нажмите для просмотра)] Перевод: Профессиональный (многоголосый, закадровый) R5 + Оригинал (немецкий)Субтитры: немецкие (SDH)Формат: AVIКачество: BDRip (источник:Видео: 720x304 (2.37:1), 24 fps, XviD build 65 ~1789 kbps avg, 0.34 bit/pixelАудио #1: 48 kHz, AC3 Dolby Digital, 3/2 (L,C,R,l,r) + LFE ch, ~448 kbps avg (RUS)Аудио #2: 48 kHz, AC3 Dolby Digital, 3/2 (L,C,R,l,r) + LFE ch, ~448 kbps avg (GER) 2,18 Gb 206 8 20 февраля 2016 08:19 Таймлесс 2: Сапфировая книга / Saphirblau (2014) HDRip от Scarabey | P | Лицензия .torrent   [Информация о файле (нажмите для просмотра)] Перевод: Профессиональный (многоголосый закадровый) [Лицензия]Видео: 688x288 (2.39:1), 24 fps, XviD build 73 ~764 kbps avg, 0.16 bit/pixelАудио: 48 kHz, MPEG Layer 3, 2 ch, ~128.00 kbps avg 748,82 Mb 23 5 20 февраля 2016 08:19 Таймлесс 2: Сапфировая книга / Saphirblau (2014) HDRip от Scarabey | P | Лицензия .torrent   [Информация о файле (нажмите для просмотра)] Перевод: Профессиональный (многоголосый закадровый) [Лицензия]Видео: 720x304 (2.37:1), 24 fps, XviD build 73 ~1334 kbps avg, 0.25 bit/pixelАудио: 48 kHz, AC3 Dolby Digital, 3/2 (L,C,R,l,r) + LFE ch, ~448 kbps 1,45 Gb 546 17 20 февраля 2016 08:19 Таймлесс 2: Сапфировая книга / Saphirblau (2014) BDRip-AVC от HELLYWOOD | Лицензия .torrent   [Информация о файле (нажмите для просмотра)] Перевод: Профессиональный (многоголосый закадровый) [лицензия R5]Субтитры: НемецкиеКачество: BDRip-AVCФормат: MKVВидео: х.264, 1040x442 (2,35:1), 24,000 fps, 1792 Кbps, 0.162 bit/pixelАудио#1: 48 kHz, AC3 Dolby Digital, 3/2 (L,C,R,l,r) + LFE ch, 448.00 kbps |RUSАудио#2: 48 kHz, AC3 Dolby Digital, 3/2 (L,C,R,l,r) + LFE ch, 448.00 kbps |GER 2,18 Gb 10 3 20 февраля 2016 08:19 Таймлесс 2: Сапфировая книга / Saphirblau (2014) BDRip 720p от Leonardo and Scarabey | Лицензия .torrent   [Информация о файле (нажмите для просмотра)] Перевод: Профессиональный (многоголосый закадровый) ЛицензияФормат: MKVВидео кодек: MPEG-4 AVC Аудио кодек: AC3Видео: 1280x544 (2.35:1) at 24.000 fps, 2947 kbps avg, 0.176 bit/pixelАудио: 48 kHz; AC3 Dolby Digital; 3/2 (L,C,R,l,r) + LFE ch; 448 kbps avg 2,81 Gb 56 6 20 февраля 2016 08:19 Таймлесс 2: Сапфировая книга / Saphirblau (2014) BDRemux 1080p от ExKinoRay | P | Лицензия .torrent   [Информация о файле (нажмите для просмотра)] Качество: BDRemux (1080p)Видео: MPEG-4 AVC, 19000 Кбит/с, 1920х1080, 24 кадр/сАудио: Русский (АС3, 6 ch, 448 Кбит/с), немецкий (DTS-HD MA, 6 ch, 1981 Кбит/с)Перевод: Профессиональный многоголосыйСубтитры: НемецкиеВидео: Идентификатор : 1 Формат : AVC Формат/Информация : Advanced Video Codec Профиль формата : [email protected] Параметр CABAC формата : Да Параметр ReFrames формата : 4 кадра Идентификатор кодека : V_MPEG4/ISO/AVC Продолжительность : 1 ч. 56 м. Вид битрейта : Переменный Максимальный битрейт : 30,0 Мбит/сек Ширина : 1920 пикселей Высота : 1080 пикселей Соотношение сторон : 16:9 Режим частоты кадров : Постоянный Частота кадров : 24,000 кадра/сек Стандарт вещания : NTSC Цветовое пространство : YUV Субдискретизация насыщенности : 4:2:0 Битовая глубина : 8 бит Тип развёртки : Прогрессивная Язык : German Default : Да Forced : Нет Основные цвета : BT.709 Характеристики трансфера : BT.709 Коэффициенты матрицы : BT.709Аудио #1: Идентификатор : 2 Формат : AC-3 Формат/Информация : Audio Coding 3 Расширение режима : CM (complete main) Параметр Endianness формата : Big Идентификатор кодека : A_AC3 Продолжительность : 1 ч. 56 м. Вид битрейта : Постоянный Битрейт : 448 Кбит/сек Каналы : 6 каналов Расположение каналов : Front: L C R, Side: L R, LFE Частота : 48,0 КГц Битовая глубина : 16 бит Метод сжатия : С потерями Размер потока : 372 Мбайт (2%) Заголовок : Профессиональный многоголосый (DVD R5) Язык : Russian Default : Да Forced : НетАудио #2: Идентификатор : 3 Формат : DTS Формат/Информация : Digital Theater Systems Профиль формата : MA / Core Режим : 16 Параметр Endianness формата : Big Идентификатор кодека : A_DTS Продолжительность : 1 ч. 56 м. Вид битрейта : Переменный Битрейт : Неизвестно / 1509 Кбит/сек Каналы : 6 каналов Расположение каналов : Front: L C R, Side: L R, LFE Частота : 48,0 КГц Битовая глубина : 16 бит Метод сжатия : Без потерь / Lossy Язык : German Default : Нет Forced : Нет 17,38 Gb 11 4 20 февраля 2016 08:19 Таймлесс 2: Сапфировая книга / Saphirblau (2014) BDRip 720p | Лицензия .torrent   [Информация о файле (нажмите для просмотра)] Перевод: Профессиональный (многоголосый закадровый)Кодек: x264Качество: BDRip 720pВидео: MPEG-4 AVC, 4703 Кбит/с, 1280x544, 23,976 fpsЗвук: Аудио: Rus, AC3, 448 kb/s (6 ch), 48 kHz Аудио 2: Eng, DTS, 1510 kb/s (6 ch), 48 kHzСубтитры: немецкие 5,51 Gb 4 5 20 февраля 2016 08:18 Таймлесс 2: Сапфировая книга / Saphirblau (2014) HDRip-AVC | Лицензия .torrent   [Информация о файле (нажмите для просмотра)] Перевод: Профессиональное (многоголосое)ЛицензияКодек: MPEG-4 AVC (MKV)Качество: HDRip-AVCВидео: AVC, 1008x432, 2100 KbpsЗвук: Russian / German: AC3, 384 kbps (6 ch)Субтитры: нет 2,33 Gb 16 3 20 февраля 2016 08:18 Таймлесс 2: Сапфировая книга / Saphirblau (2014) HDRip от AleksSin | P | Лицензия .torrent   [Информация о файле (нажмите для просмотра)] Перевод: Профессиональный (Многоголосый)[лицензия]Кодек: AVI (XviD)Качество: HDRip(Исх. BDRip 720p)Видео: 720x304 (2.37:1), 24 fps, XviD build 73 ~1748 kbps avg, 0.34 bit/pixelАудио: 48 kHz, AC3 Dolby Digital, 3/2 (L,C,R,l,r) + LFE ch, ~384.00 kbps avg(русский)Аудио 2: 48 kHz, AC3 Dolby Digital, 3/2 (L,C,R,l,r) + LFE ch, ~384.00 kbps avg(немецкий)Субтитры: нетВидео: Идентификатор : 0 Формат : MPEG-4 Visual Профиль формата : Advanced [email protected] Параметр BVOP формата : 1 Параметр QPel формата : Нет Параметр GMC формата : Без точки перехода Параметр матрицы формата : Выборочная Идентификатор кодека : XVID Идентификатор кодека/Подсказка : XviD Продолжительность : 1 ч. 56 м. Битрейт : 1748 Кбит/сек Ширина : 720 пикс. Высота : 304 пикс. Соотношение сторон : 2,35:1 Частота кадров : 24,000 кадр/сек Цветовое пространство : YUV Подвыборка цветности : 4:2:0 Битовая глубина : 8 бит Тип развёртки : Прогрессивная Метод сжатия : С потерями Бит/(Пиксели*Кадры) : 0.333 Размер потока : 1,42 Гбайт (69%) Библиотека кодирования : XviD 73Аудио #1: Идентификатор : 1 Формат : AC-3 Формат/Информация : Audio Coding 3 Расширение режима : CM (complete main) Идентификатор кодека : 2000 Продолжительность : 1 ч. 56 м. Вид битрейта : Постоянный Битрейт : 384 Кбит/сек Каналы : 6 каналов Расположение каналов : Front: L C R, Side: L R, LFE Частота : 48,0 КГц Битовая глубина : 16 бит Метод сжатия : С потерями Размер потока : 319 Мбайт (15%) Выравнивание : Разделение по промежуткам Продолжительность промежутка : 42 мс. (1,00 видеокадр) Время предзагрузки промежутка : 500 msАудио #2: Идентификатор : 2 Формат : AC-3 Формат/Информация : Audio Coding 3 Расширение режима : CM (complete main) Идентификатор кодека : 2000 Продолжительность : 1 ч. 56 м. Вид битрейта : Постоянный Битрейт : 384 Кбит/сек Каналы : 6 каналов Расположение каналов : Front: L C R, Side: L R, LFE Частота : 48,0 КГц Битовая глубина : 16 бит Метод сжатия : С потерями Размер потока : 319 Мбайт (15%) Выравнивание : Разделение по промежуткам Продолжительность промежутка : 42 мс. (1,00 видеокадр) Время предзагрузки промежутка : 500 ms 2,06 Gb 6 1 20 февраля 2016 08:18 Таймлесс 2: Сапфировая книга / Saphirblau (2014) BDRip 1080p | P | Лицензия .torrent   [Информация о файле (нажмите для просмотра)] Перевод: Профессиональный (Многоголосый) [лицензия]Контейнер: MKVКодек: MPEG-4 (AVC)Качество: BDRipВидео: 4591 kb/s, 1920x816Звук: Russian: AC3, 384 kb/s (6 ch) / German: DTS, 1510 kb/s (6 ch)Субтитры: ОтсутствуютВидео: Идентификатор : 1 Формат : AVC Формат/Информация : Advanced Video Codec Профиль формата : [email protected] Параметр CABAC формата : Да Параметр ReFrames формата : 5 кадров Идентификатор кодека : V_MPEG4/ISO/AVC Продолжительность : 1 ч. 56 м. Битрейт : 4590 Кбит/сек Ширина : 1920 пикселей Высота : 816 пикселей Соотношение сторон : 2,35:1 Режим частоты кадров : Постоянный Частота кадров : 24,000 кадра/сек Цветовое пространство : YUV Субдискретизация насыщенности : 4:2:0 Битовая глубина : 8 бит Тип развёртки : Прогрессивная Бит/(Пиксели*Кадры) : 0.122 Размер потока : 3,72 Гбайт (69%) Библиотека кодирования : x264 core 144 r2525 40bb568 Настройки программы : cabac=1 / ref=5 / deblock=1:-1:-1 / analyse=0x3:0x133 / me=umh / subme=7 / psy=1 / psy_rd=1.00:0.15 / mixed_ref=1 / me_range=16 / chroma_me=1 / trellis=1 / 8x8dct=1 / cqm=0 / deadzone=21,11 / fast_pskip=0 / chroma_qp_offset=-3 / threads=8 / lookahead_threads=1 / sliced_threads=0 / nr=0 / decimate=1 / interlaced=0 / bluray_compat=0 / constrained_intra=0 / bframes=3 / b_pyramid=2 / b_adapt=1 / b_bias=0 / direct=1 / weightb=1 / open_gop=0 / weightp=2 / keyint=250 / keyint_min=24 / scenecut=40 / intra_refresh=0 / rc_lookahead=40 / rc=crf / mbtree=1 / crf=20.0 / qcomp=0.60 / qpmin=0 / qpmax=69 / qpstep=4 / ip_ratio=1.40 / aq=1:1.00 Default : Да Forced : НетАудио #1: Идентификатор : 2 Формат : AC-3 Формат/Информация : Audio Coding 3 Расширение режима : CM (complete main) Параметр Endianness формата : Big Идентификатор кодека : A_AC3 Продолжительность : 1 ч. 56 м. Вид битрейта : Постоянный Битрейт : 384 Кбит/сек Каналы : 6 каналов Расположение каналов : Front: L C R, Side: L R, LFE Частота : 48,0 КГц Битовая глубина : 16 бит Метод сжатия : С потерями Размер потока : 319 Мбайт (6%) Язык : Russian Default : Да Forced : НетАудио #2: Идентификатор : 3 Формат : DTS Формат/Информация : Digital Theater Systems Идентификатор кодека : A_DTS Продолжительность : 1 ч. 56 м. Вид битрейта : Постоянный Битрейт : 1510 Кбит/сек Каналы : 6 каналов Расположение каналов : Front: L C R, Side: L R, LFE Частота : 48,0 КГц Битовая глубина : 16 бит Метод сжатия : С потерями Размер потока : 1,22 Гбайт (23%) Язык : German Default : Нет Forced : Нет 5,37 Gb 70 4 20 февраля 2016 08:18 Таймлесс 2: Сапфировая книга / Saphirblau (2014) WEB-DLRip 720p от MegaPeer | P .torrent   [Информация о файле (нажмите для просмотра)] Формат: MKVКачество: WEB-DLRip 720pВидео: MPEG-4 AVC, 2107 kb/s, 1280x570Аудио: AC3, 448 kb/s (6 ch) 2,08 Gb 8 4 20 февраля 2016 08:18 Таймлесс 2: Сапфировая книга / Saphirblau (2014) DVDRip-AVC от ExKinoRay | P | Лицензия .torrent   [Информация о файле (нажмите для просмотра)] Качество: DVDRip (AVC)Видео: MPEG-4 AVC, 1431 Кбит/с, [email protected]Аудио: AC3, 6 ch, 448 Кбит/с 1,47 Gb 4 1 20 февраля 2016 08:18 Таймлесс 2: Сапфировая книга / Saphirblau (2014) DVDRip от Scarabey | P | Лицензия .torrent   [Информация о файле (нажмите для просмотра)] Перевод: Профессиональный (многоголосый закадровый) [Лицензия]Видео: 688x288 (2.39:1), 25 fps, XviD build 73 ~795 kbps avg, 0.16 bit/pixelАудио: 48 kHz, MPEG Layer 3, 2 ch, ~128.00 kbps avg 746,2 Mb 8 1 20 февраля 2016 08:18 Таймлесс 2: Сапфировая книга / Saphirblau (2014) DVDRip от Scarabey | P | Лицензия .torrent   [Информация о файле (нажмите для просмотра)] Перевод: Профессиональный (многоголосый закадровый) [Лицензия]Видео: 720x304 (2.37:1), 25 fps, XviD build 73 ~1398 kbps avg, 0.26 bit/pixelАудио: 48 kHz, AC3 Dolby Digital, 3/2 (L,C,R,l,r) + LFE ch, ~448 kbps 1,45 Gb 52 1 20 февраля 2016 08:18 Таймлесс 2: Сапфировая книга / Saphirblau (2014) WEB-DLRip от Generalfilm | КПК | P .torrent   [Информация о файле (нажмите для просмотра)] Качество: WEB-DLRip | КПКВидео: кодеккодек: x264,формат: mp4,размер кадра: 480х208, битрейт: 350 кб/сАудио: языкрусский, перевод: Профессиональный многоголосый, 398,57 Mb 7 4

    gig-torrent.net

    rutor.org :: Таймлесс 2: Сапфировая книга / Saphirblau (2014) BDRip 720p

    Информация о фильмеНазвание: Таймлесс 2: Сапфировая книгаОригинальное название: SaphirblauГод выхода: 2014Жанр: фэнтезиРежиссер: Феликс Фуксштайнер / Felix Fuchssteiner, Катарина Шёде / Katharina SchdeВ ролях: Мария Эрих, Яннис Нивёнер, Петер Симонишек, Йозефина Пройсс, Флориан Бартоломай, Руфус Бек, Лаура Берлин, Сандра Боргманн, Юстина дель Корте, Вероника Феррес

    О фильме: Приключения юной Гвендолин Шеферд продолжаются. Она начинает все больше узнавать о тайнах мира путешественников во времени. Ей предстоит разгадать больше загадок и научиться быть светской леди для приемов в 18 веке. Гвендолин узнает больше о своей семье, в первую очередь о ее дедушке Лукасе. Также Гвен подозревает, что Гидеон скрывает что-то от нее, возможно какую-то сокровенную страшную тайну… Но с появлением нового, слегка надоедливого друга Ксемериуса, девушке становится легче преодолевать все препятствия на пути.

    За предоставленный Blu-Ray диск благодарность 'L

    Страна: ГерманияСтудия: ARRI Film & TV ServicesПродолжительность: 01:56:06Перевод: Профессиональный (многоголосый закадровый)

    ФайлКодек: x264Качество: BDRip 720pВидео: MPEG-4 AVC, 4703 Кбит/с, 1280x544, 23,976 fpsЗвук: Аудио: Rus, AC3, 448 kb/s (6 ch), 48 kHz Аудио 2: Eng, DTS, 1510 kb/s (6 ch), 48 kHzСубтитры: немецкие

    MediaInfo

    264 [info]: frame I:1846 Avg QP:13.55 size:101993 x264 [info]: frame P:38236 Avg QP:15.02 size: 47431 x264 [info]: frame B:127105 Avg QP:16.87 size: 17376

    Format : Matroska Format version : Version 4 / Version 2 File size : 5.51 GiB Duration : 1h 56mn Overall bit rate : 6 795 Kbps Movie name : Таймлесс 2_Сапфировая книга. (Tonik) Encoded date : UTC 2015-02-26 01:46:51 Writing application : mkvmerge v7.1.0 ('Good Love') 64bit built on Jul 27 2014 13:06:55 Writing library : libebml v1.3.0 + libmatroska v1.4.1 _STATISTICS_WRITING_APP : mkvmerge v7.1.0 ('Good Love') 64bit built on Jul 27 2014 13:06:55 _STATISTICS_WRITING_DATE_UTC : 2015-02-26 01:46:51 _STATISTICS_TAGS : BPS DURATION NUMBER_OF_FRAMES NUMBER_OF_BYTES DURATION : 01:54:50.667000000 NUMBER_OF_FRAMES : 1725 NUMBER_OF_BYTES : 65042

    Video ID : 1 Format : AVC Format/Info : Advanced Video Codec Format profile : [email protected] Format settings, CABAC : Yes Format settings, ReFrames : 12 frames Codec ID : V_MPEG4/ISO/AVC Duration : 1h 56mn Bit rate : 4 703 Kbps Width : 1 280 pixels Height : 544 pixels Display aspect ratio : 2.35:1 Frame rate mode : Constant Frame rate : 24.000 fps Color space : YUV Chroma subsampling : 4:2:0 Bit depth : 8 bits Scan type : Progressive Bits/(Pixel*Frame) : 0.281 Stream size : 3.81 GiB (69%) Title : Tonik Writing library : x264 core 144 r2525 40bb568 Encoding settings : cabac=1 / ref=12 / deblock=1:-3:-3 / analyse=0x3:0x133 / me=umh / subme=11 / psy=1 / psy_rd=1.00:0.00 / mixed_ref=1 / me_range=32 / chroma_me=1 / trellis=2 / 8x8dct=1 / cqm=0 / deadzone=21,11 / fast_pskip=0 / chroma_qp_offset=-2 / threads=12 / lookahead_threads=3 / sliced_threads=0 / nr=0 / decimate=1 / interlaced=0 / bluray_compat=0 / constrained_intra=0 / bframes=11 / b_pyramid=2 / b_adapt=2 / b_bias=0 / direct=1 / weightb=1 / open_gop=0 / weightp=2 / keyint=250 / keyint_min=24 / scenecut=40 / intra_refresh=0 / rc=crf / mbtree=0 / crf=15.8 / qcomp=0.60 / qpmin=0 / qpmax=69 / qpstep=4 / ip_ratio=1.40 / pb_ratio=1.30 / aq=1:1.00 Language : German Default : Yes Forced : No _STATISTICS_WRITING_APP : mkvmerge v7.1.0 ('Good Love') 64bit built on Jul 27 2014 13:06:55 _STATISTICS_WRITING_DATE_UTC : 2015-02-26 01:46:51 _STATISTICS_TAGS : BPS DURATION NUMBER_OF_FRAMES NUMBER_OF_BYTES DURATION : 01:56:06.125000000 NUMBER_OF_FRAMES : 167187 NUMBER_OF_BYTES : 4210395059

    Audio #1 ID : 2 Format : AC-3 Format/Info : Audio Coding 3 Mode extension : CM (complete main) Format settings, Endianness : Big Codec ID : A_AC3 Duration : 1h 56mn Bit rate mode : Constant Bit rate : 448 Kbps Channel(s) : 6 channels Channel positions : Front: L C R, Side: L R, LFE Sampling rate : 48.0 KHz Bit depth : 16 bits Compression mode : Lossy Stream size : 372 MiB (7%) Language : Russian Default : Yes Forced : No

    Audio #2 ID : 3 Format : DTS Format/Info : Digital Theater Systems Mode : 16 Format settings, Endianness : Big Codec ID : A_DTS Duration : 1h 56mn Bit rate mode : Constant Bit rate : 1 509 Kbps Channel(s) : 6 channels Channel positions : Front: L C R, Side: L R, LFE Sampling rate : 48.0 KHz Bit depth : 16 bits Compression mode : Lossy Stream size : 1.22 GiB (22%) Language : German Default : No Forced : No

    Text ID : 4 Format : UTF-8 Codec ID : S_TEXT/UTF8 Codec ID/Info : UTF-8 Plain Text Language : German Default : No Forced : No

    main-rutor.org


    Смотрите также