Resident evil vendetta скачать


Скачать торрент Обитель зла: Вендетта / Resident Evil: Vendetta (2017) WEB-DL 720p от ExKinoRay

Информация о фильмеНазвание: Обитель зла: ВендеттаОригинальное название: Resident Evil: VendettaГод выхода: 2017Жанр: Мультфильм, ужасы, фантастика, боевик, детектив, приключенияРежиссер: Таканори ЦудзимотоВ ролях: Кевин Дорман, Мэттью Мерсер, Эрин Кехилл, Кари Уолгрен, Ариф С. Кинчен, Арни Пантойя, Джон ДеМита, Кристина Валенсуела, Фред Татаскьор, Александр Полински

О фильме:Сотрудник организации по борьбе с биотерроризмом B.S.A.A. Крис Редфилд проникает в таинственный особняк, который, согласно информации, является базой контрабандистов оружием. В ходе расследования Крис сталкивается с Гленом Ариасом, преступником объявленным в международный розыск, и становится свидетелем странной картины, в результате которой упускает Ариаса.

Страна: Япония Продолжительность: 01:37:13Перевод: Дублированный | iTunes

ФайлКачество: WEB-DL 720pВидео: MPEG-4 AVC, 1280x720, 3226 Kbit/s, 23.976 fpsЗвук: Аудио #01: 48 kHz, AC3, 5.1, 384 Kbps | Дублированный | iTunes | RUS |Аудио #02: 48 kHz, AC3, 5.1, 384 Kbps | Оригинал | ENG |Субтитры: Русские, английские

MI

General Unique ID : 246117094968336260759750970746716803635 (0xB9286DA53BC012D5B648D6ABC6BFD233) Complete name : C:UsersbattiDesktopResident.Evil.Vendetta.2017.WEB-DL.720p.ExKinoRay.mkv Format : Matroska Format version : Version 4 / Version 2 File size : 2.71 GiB Duration : 1 h 37 min Overall bit rate mode : Variable Overall bit rate : 3 996 kb/s Encoded date : UTC 2017-06-19 21:04:24 Writing application : mkvmerge v12.0.0 ('Trust / Lust') 64bit Writing library : libebml v1.3.4 + libmatroska v1.4.5

Video ID : 1 Format : AVC Format/Info : Advanced Video Codec Format profile : [email protected] Format settings, CABAC : Yes Format settings, ReFrames : 4 frames Codec ID : V_MPEG4/ISO/AVC Duration : 1 h 37 min Bit rate mode : Variable Bit rate : 3 226 kb/s Maximum bit rate : 40.0 Mb/s Width : 1 280 pixels Height : 720 pixels Display aspect ratio : 16:9 Frame rate mode : Constant Frame rate : 23.976 (24000/1001) FPS Color space : YUV Chroma subsampling : 4:2:0 Bit depth : 8 bits Scan type : Progressive Bits/(Pixel*Frame) : 0.146 Stream size : 2.19 GiB (81%) Language : English Default : Yes Forced : No Color range : Limited Color primaries : BT.709 Transfer characteristics : BT.709 Matrix coefficients : BT.709

Audio #1 ID : 2 Format : AC-3 Format/Info : Audio Coding 3 Format settings, Endianness : Big Codec ID : A_AC3 Duration : 1 h 37 min Bit rate mode : Constant Bit rate : 384 kb/s Channel(s) : 6 channels Channel positions : Front: L C R, Side: L R, LFE Sampling rate : 48.0 kHz Frame rate : 31.250 FPS (1536 spf) Bit depth : 16 bits Compression mode : Lossy Stream size : 267 MiB (10%) Title : iTunes Language : Russian Service kind : Complete Main Default : Yes Forced : No

Audio #2 ID : 3 Format : AC-3 Format/Info : Audio Coding 3 Format settings, Endianness : Big Codec ID : A_AC3 Duration : 1 h 37 min Bit rate mode : Constant Bit rate : 384 kb/s Channel(s) : 6 channels Channel positions : Front: L C R, Side: L R, LFE Sampling rate : 48.0 kHz Frame rate : 31.250 FPS (1536 spf) Bit depth : 16 bits Compression mode : Lossy Stream size : 267 MiB (10%) Title : Original Language : English Service kind : Complete Main Default : No Forced : No

Text #1 ID : 4 Format : UTF-8 Codec ID : S_TEXT/UTF8 Codec ID/Info : UTF-8 Plain Text Duration : 1 h 35 min Bit rate : 48 b/s Count of elements : 600 Stream size : 33.9 KiB (0%) Title : Full Language : Russian Default : No Forced : No

Text #2 ID : 5 Format : UTF-8 Codec ID : S_TEXT/UTF8 Codec ID/Info : UTF-8 Plain Text Duration : 1 h 35 min Bit rate : 28 b/s Count of elements : 587 Stream size : 19.9 KiB (0%) Title : Full Language : English Default : No Forced : No

Menu 00:00:00.000 : en:1 00:01:56.491 : en:2 00:11:46.622 : en:3 00:17:50.944 : en:4 00:25:11.259 : en:5 00:30:59.565 : en:6 00:36:42.115 : en:7 00:42:48.814 : en:8 00:48:19.978 : en:9 00:53:49.849 : en:10 00:58:50.024 : en:11 01:06:57.594 : en:12 01:11:37.831 : en:13 01:15:12.044 : en:14 01:21:40.681 : en:15 01:29:37.741 : en:16

Релиз от: Автор релиза: Подпишись на меня, кликни по картинке > :

krutor.org

Скачать торрент Обитель зла: Вендетта / Resident Evil: Vendetta (2017) BDRip от R.G.Resident

Информация о фильмеНазвание: Обитель зла: ВендеттаОригинальное название: Resident Evil: VendettaГод выпуска: 2017Страна: ЯпонияЖанр: мультфильм, ужасы, фантастика, боевик, детектив, приключенияПеревод: Дубляж - [iTunes]Продолжительность: 01:37:14Режиссер: Таканори Цудзимото В ролях: Кевин Дорман (Chris Redfield, озвучка), Мэттью Мерсер (Leon S. Kennedy, озвучка), Эрин Кехилл (Rebecca Chambers, озвучка), Кари Уолгрен (Nadia, озвучка), Ариф С. Кинчен (D.C.), Арни Пантойя (Damian, озвучка), Джон ДеМита (Glenn Arias, озвучка), Кристина Валенсуела (Maria Gomez, озвучка), Фред Татаскьор (Diego Gomez, озвучка), Александр Полински (Patricio, озвучка), Орион Акаба (Soldier, озвучка), Дэрин Де Пол (Zombie, озвучка)Описание: Сотрудник организации по борьбе с биотерроризмом B.S.A.A. Крис Редфилд проникает в таинственный особняк, который, согласно информации, является базой контрабандистов оружием. В ходе расследования Крис сталкивается с Гленом Ариасом, преступником объявленным в международный розыск, и становится свидетелем странной картины, в результате которой упускает Ариаса.Рейтинг:MPAA: R - Лицам до 17 лет обязательно присутствие взрослогоКачество: BDRip \|Исх: Resident.Evil.Vendetta.2017.BDREMUX.1080p.ExKinoRay.mkv\|Формат: AVIВидео: XviD, 688x384 (16:9), 939 kbps, 23,976 fps, 0,148 bppАудио: MP3 / 2.0 / 48 kHz / 128 kbps /СэмплРелиз от:

ОтчетМедиаИнфо

Общее Полное имя : E:Resident.Evil.Vendetta.2017.BDRip.745.R.G.Resident.avi Формат : AVI Формат/Информация : Audio Video Interleave Размер файла : 746 Мбайт Продолжительность : 1 ч. 37 м. Общий поток : 1073 Кбит/сек Программа кодирования : VirtualDubModRus 1.5.10.2 (build 2542/release) Библиотека кодирования : VirtualDubMod build 2542/release

Видео Идентификатор : 0 Формат : MPEG-4 Visual Профиль формата : Advanced [email protected] Параметр BVOP формата : 2 Параметр QPel формата : Нет Параметр GMC формата : Без точки перехода Параметр матрицы формата : Выборочная Идентификатор кодека : XVID Идентификатор кодека/Подсказка : XviD Продолжительность : 1 ч. 37 м. Битрейт : 939 Кбит/сек Ширина : 688 пикселей Высота : 384 пикселя Соотношение сторон : 16:9 Частота кадров : 23,976 (24000/1001) кадра/сек Цветовое пространство : YUV Субдискретизация насыщенности : 4:2:0 Битовая глубина : 8 бит Тип развёртки : Прогрессивная Метод сжатия : С потерями Бит/(Пиксели*Кадры) : 0.148 Размер потока : 653 Мбайт (88%) Библиотека кодирования : XviD 73

Аудио Идентификатор : 1 Формат : MPEG Audio Версия формата : Version 1 Профиль формата : Layer 3 Идентификатор кодека : 55 Идентификатор кодека/Подсказка : MP3 Продолжительность : 1 ч. 37 м. Вид битрейта : Постоянный Битрейт : 128 Кбит/сек Каналы : 2 канала Частота : 48,0 КГц Метод сжатия : С потерями Размер потока : 89,0 Мбайт (12%) Выравнивание : Соединение по промежуткам Продолжительность промежутка : 167 мс. (4,00 видеокадра) Время предзагрузки промежутка : 216 мс. Библиотека кодирования : LAME3.99r Настройки программы : -m s -V 4 -q 3 -lowpass 17 -b 128

krutor.org

Скачать торрент Обитель зла: Вендетта / Resident Evil: Vendetta (2017) BDRip от R.G.Resident

Информация о фильмеНазвание: Обитель зла: ВендеттаОригинальное название: Resident Evil: VendettaГод выпуска: 2017Страна: ЯпонияЖанр: мультфильм, ужасы, фантастика, боевик, детектив, приключенияПеревод: Дубляж - [iTunes]Субтитры: Русские (полные, внешние)Продолжительность: 01:37:14Режиссер: Таканори Цудзимото В ролях: Кевин Дорман (Chris Redfield, озвучка), Мэттью Мерсер (Leon S. Kennedy, озвучка), Эрин Кехилл (Rebecca Chambers, озвучка), Кари Уолгрен (Nadia, озвучка), Ариф С. Кинчен (D.C.), Арни Пантойя (Damian, озвучка), Джон ДеМита (Glenn Arias, озвучка), Кристина Валенсуела (Maria Gomez, озвучка), Фред Татаскьор (Diego Gomez, озвучка), Александр Полински (Patricio, озвучка), Орион Акаба (Soldier, озвучка), Дэрин Де Пол (Zombie, озвучка)Описание: Сотрудник организации по борьбе с биотерроризмом B.S.A.A. Крис Редфилд проникает в таинственный особняк, который, согласно информации, является базой контрабандистов оружием. В ходе расследования Крис сталкивается с Гленом Ариасом, преступником объявленным в международный розыск, и становится свидетелем странной картины, в результате которой упускает Ариаса.Рейтинг:MPAA: R - Лицам до 17 лет обязательно присутствие взрослогоКачество: BDRip \|Исх: Resident.Evil.Vendetta.2017.BDREMUX.1080p.ExKinoRay.mkv\|Формат: AVIВидео: XviD, 720x400 (16:9), 2174 kbps, 23,976 fps, 0,315 bppАудио №1: русский / AC3 / 5.1 / 48 kHz / 384 kbps /Аудио №2: английский / AC3 / 5.1 / 48 kHz / 448 kbps /СэмплРелиз от:

ОтчетМедиаИнфо

Общее Полное имя : E:Resident.Evil.Vendetta.2017.BDRip.R.G.ResidentResident.Evil.Vendetta.2017.BDRip.R.G.Resident.avi Формат : AVI Формат/Информация : Audio Video Interleave Профиль формата : OpenDML Размер файла : 2,05 Гбайт Продолжительность : 1 ч. 37 м. Общий поток : 3024 Кбит/сек Программа кодирования : VirtualDubModRus 1.5.10.2 (build 2542/release) Библиотека кодирования : VirtualDubMod build 2542/release

Видео Идентификатор : 0 Формат : MPEG-4 Visual Профиль формата : Advanced [email protected] Параметр BVOP формата : 2 Параметр QPel формата : Нет Параметр GMC формата : Без точки перехода Параметр матрицы формата : Выборочная Идентификатор кодека : XVID Идентификатор кодека/Подсказка : XviD Продолжительность : 1 ч. 37 м. Битрейт : 2174 Кбит/сек Ширина : 720 пикселей Высота : 400 пикселей Соотношение сторон : 16:9 Частота кадров : 23,976 (24000/1001) кадра/сек Цветовое пространство : YUV Субдискретизация насыщенности : 4:2:0 Битовая глубина : 8 бит Тип развёртки : Прогрессивная Метод сжатия : С потерями Бит/(Пиксели*Кадры) : 0.315 Размер потока : 1,48 Гбайт (72%) Библиотека кодирования : XviD 73

Аудио #1 Идентификатор : 1 Формат : AC-3 Формат/Информация : Audio Coding 3 Параметр Endianness формата : Big Идентификатор кодека : 2000 Продолжительность : 1 ч. 37 м. Вид битрейта : Постоянный Битрейт : 384 Кбит/сек Каналы : 6 каналов Расположение каналов : Front: L C R, Side: L R, LFE Частота : 48,0 КГц Частота кадров : 31,250 кадров/сек (1536 SPF) Битовая глубина : 16 бит Метод сжатия : С потерями Размер потока : 267 Мбайт (13%) Выравнивание : Разделение по промежуткам Продолжительность промежутка : 42 мс. (1,00 видеокадр) Время предзагрузки промежутка : 500 мс.

Аудио #2 Идентификатор : 2 Формат : AC-3 Формат/Информация : Audio Coding 3 Параметр Endianness формата : Big Идентификатор кодека : 2000 Продолжительность : 1 ч. 37 м. Вид битрейта : Постоянный Битрейт : 448 Кбит/сек Каналы : 6 каналов Расположение каналов : Front: L C R, Side: L R, LFE Частота : 48,0 КГц Частота кадров : 31,250 кадров/сек (1536 SPF) Битовая глубина : 16 бит Метод сжатия : С потерями Размер потока : 312 Мбайт (15%) Выравнивание : Разделение по промежуткам Продолжительность промежутка : 42 мс. (1,00 видеокадр) Время предзагрузки промежутка : 500 мс.

krutor.org

Скачать торрент Обитель зла: Вендетта / Resident Evil: Vendetta (2017) HDRip-AVC от ImperiaFilm

Информация о фильмеНазвание: Обитель зла: ВендеттаОригинальное название: Resident Evil: VendettaГод выхода: 2017Жанр: Мультфильм, ужасы, фантастика, боевик, детектив, приключенияРежиссер: Таканори ЦудзимотоВ ролях: Кевин Дорман, Мэттью Мерсер, Эрин Кехилл, Кари Уолгрен, Ариф С. Кинчен, Арни Пантойя, Джон ДеМита, Кристина Валенсуела, Фред Татаскьор, Александр Полински

О фильме :Сотрудник организации по борьбе с биотерроризмом B.S.A.A. Крис Редфилд проникает в таинственный особняк, который, согласно информации, является базой контрабандистов оружием. В ходе расследования Крис сталкивается с Гленом Ариасом, преступником объявленным в международный розыск, и становится свидетелем странной картины, в результате которой упускает Ариаса.

Страна: Япония Продолжительность: 01:37:14Перевод: Дублированный | iTunes

ФайлФормат: MKVКачество: HDRip-AVC Видео: 768х432 (16:9), 24 fps, x264, 990 kbps, 0.124 bit/pixelАудио: 48.0 kHz, AAC -LC, 2 ch, ~74 kbps avg

MI

Общее Уникальный идентификатор : 192187843262524798065514894728837724162 (0x9096084023048904A38E4BDA543BF802) Полное имя : C:UsersАлександрDesktopфильмResident.Evil.Vendetta.2017.ImperiaFilm.mkv Формат : Matroska Версия формата : Version 2 Размер файла : 739 Мбайт Продолжительность : 1 ч. 37 м. Общий поток : 1063 Кбит/сек Дата кодирования : UTC 2017-07-04 23:26:42 Программа кодирования : mkvmerge v13.0.0 ('The Juggler') 64bit Библиотека кодирования : libebml v1.3.4 + libmatroska v1.4.5

Видео Идентификатор : 1 Формат : AVC Формат/Информация : Advanced Video Codec Профиль формата : [email protected] Параметр CABAC формата : Да Параметр ReFrames формата : 12 кадров Идентификатор кодека : V_MPEG4/ISO/AVC Продолжительность : 1 ч. 37 м. Битрейт : 990 Кбит/сек Ширина : 768 пикселей Высота : 432 пикселя Соотношение сторон : 16:9 Режим частоты кадров : Постоянный Частота кадров : 23,976 (24000/1001) кадра/сек Цветовое пространство : YUV Субдискретизация насыщенности : 4:2:0 Битовая глубина : 8 бит Тип развёртки : Прогрессивная Бит/(Пиксели*Кадры) : 0.124 Размер потока : 687 Мбайт (93%) Библиотека кодирования : x264 core 152 r2851 ba24899 Настройки программы : cabac=1 / ref=12 / deblock=1:-2:-2 / analyse=0x3:0x113 / me=umh / subme=11 / psy=1 / psy_rd=1.00:0.15 / mixed_ref=1 / me_range=32 / chroma_me=1 / trellis=2 / 8x8dct=1 / cqm=0 / deadzone=21,11 / fast_pskip=0 / chroma_qp_offset=-3 / threads=6 / lookahead_threads=1 / sliced_threads=0 / nr=0 / decimate=0 / interlaced=0 / bluray_compat=0 / constrained_intra=0 / bframes=16 / b_pyramid=2 / b_adapt=2 / b_bias=0 / direct=3 / weightb=1 / open_gop=0 / weightp=2 / keyint=240 / keyint_min=23 / scenecut=0 / intra_refresh=0 / rc_lookahead=60 / rc=2pass / mbtree=0 / bitrate=990 / ratetol=1.0 / qcomp=0.60 / qpmin=0 / qpmax=51 / qpstep=4 / cplxblur=15.0 / qblur=0.5 / vbv_maxrate=50000 / vbv_bufsize=62500 / nal_hrd=none / filler=0 / ip_ratio=1.40 / pb_ratio=1.30 / aq=2:1.00 Default : Да Forced : Нет

Аудио Идентификатор : 2 Формат : AAC Формат/Информация : Advanced Audio Codec Профиль формата : HE-AAC / LC Идентификатор кодека : A_AAC Продолжительность : 1 ч. 37 м. Битрейт : 74,0 Кбит/сек Каналы : 2 канала Расположение каналов : Front: L R Частота : 48,0 КГц / 24,0 КГц Частота кадров : 23,438 кадра/сек (1024 spf) Метод сжатия : С потерями Задержка видео : 31 мс. Размер потока : 51,5 Мбайт (7%) Язык : Russian Default : Да Forced : Нет

Релиз от:

krutor.org

Скачать торрент Обитель зла: Вендетта / Resident Evil: Vendetta (2017) BDRip 720p от ExKinoRay

Информация о фильмеНазвание: Обитель зла: ВендеттаОригинальное название: Resident Evil: VendettaГод выхода: 2017Жанр: Мультфильм, ужасы, фантастика, боевик, детектив, приключенияРежиссер: Таканори ЦудзимотоВ ролях: Кевин Дорман, Мэттью Мерсер, Эрин Кехилл, Кари Уолгрен, Ариф С. Кинчен, Арни Пантойя, Джон ДеМита, Кристина Валенсуела, Фред Татаскьор, Александр Полински

О фильме:Сотрудник организации по борьбе с биотерроризмом B.S.A.A. Крис Редфилд проникает в таинственный особняк, который, согласно информации, является базой контрабандистов оружием. В ходе расследования Крис сталкивается с Гленом Ариасом, преступником объявленным в международный розыск, и становится свидетелем странной картины, в результате которой упускает Ариаса.

Страна: Япония Продолжительность: 01:37:14Перевод: Дублированный | iTunes

ФайлКачество: BDRip 720pВидео: MPEG-4 AVC, 1280x720, 4894 Kbit/s, 23.976 fpsЗвук: Аудио #01: 48 kHz, AC3, 5.1, 384 Kbps | Дублированный | iTunes | RUS |Аудио #02: 48 kHz, DTS, 5.1, 1510 Kbps | Оригинал | ENG |Субтитры: Русские, английские

MI

General Unique ID : 187472722860600267572866810049834759530 (0x8D09EEDDC2CF52F4871B21444073B56A) Complete name : F:VideoResident.Evil.Vendetta.2017.BDRip.720p.ExKinoRay.mkv Format : Matroska Format version : Version 4 / Version 2 File size : 4.61 GiB Duration : 1 h 37 min Overall bit rate : 6 787 kb/s Encoded date : UTC 2017-07-02 03:54:43 Writing application : mkvmerge v13.0.0 ('The Juggler') 64bit Writing library : libebml v1.3.4 + libmatroska v1.4.5

Video ID : 1 Format : AVC Format/Info : Advanced Video Codec Format profile : [email protected] Format settings, CABAC : Yes Format settings, ReFrames : 9 frames Codec ID : V_MPEG4/ISO/AVC Duration : 1 h 37 min Bit rate : 4 894 kb/s Width : 1 280 pixels Height : 720 pixels Display aspect ratio : 16:9 Frame rate mode : Constant Frame rate : 23.976 (24000/1001) FPS Color space : YUV Chroma subsampling : 4:2:0 Bit depth : 8 bits Scan type : Progressive Bits/(Pixel*Frame) : 0.221 Stream size : 3.32 GiB (72%) Writing library : x264 core 148 r2597 e86f3a1 Encoding settings : cabac=1 / ref=9 / deblock=1:0:0 / analyse=0x3:0x113 / me=umh / subme=10 / psy=1 / psy_rd=1.05:0.10 / mixed_ref=1 / me_range=32 / chroma_me=1 / trellis=2 / 8x8dct=1 / cqm=0 / deadzone=21,11 / fast_pskip=0 / chroma_qp_offset=-2 / threads=12 / lookahead_threads=1 / sliced_threads=0 / nr=0 / decimate=1 / interlaced=0 / bluray_compat=0 / constrained_intra=0 / bframes=6 / b_pyramid=2 / b_adapt=2 / b_bias=0 / direct=3 / weightb=1 / open_gop=0 / weightp=2 / keyint=250 / keyint_min=23 / scenecut=40 / intra_refresh=0 / rc=2pass / mbtree=0 / bitrate=4894 / ratetol=1.0 / qcomp=0.70 / qpmin=0 / qpmax=69 / qpstep=4 / cplxblur=20.0 / qblur=0.5 / ip_ratio=1.40 / pb_ratio=1.30 / aq=2:1.00 Language : English Default : Yes Forced : No

Audio #1 ID : 2 Format : AC-3 Format/Info : Audio Coding 3 Format settings, Endianness : Big Codec ID : A_AC3 Duration : 1 h 37 min Bit rate mode : Constant Bit rate : 384 kb/s Channel(s) : 6 channels Channel positions : Front: L C R, Side: L R, LFE Sampling rate : 48.0 kHz Frame rate : 31.250 FPS (1536 spf) Bit depth : 16 bits Compression mode : Lossy Stream size : 267 MiB (6%) Title : iTunes Language : Russian Service kind : Complete Main Default : Yes Forced : No

Audio #2 ID : 3 Format : DTS Format/Info : Digital Theater Systems Mode : 16 Format settings, Endianness : Big Codec ID : A_DTS Duration : 1 h 37 min Bit rate mode : Constant Bit rate : 1 509 kb/s Channel(s) : 6 channels Channel positions : Front: L C R, Side: L R, LFE Sampling rate : 48.0 kHz Frame rate : 93.750 FPS (512 spf) Bit depth : 24 bits Compression mode : Lossy Stream size : 1.03 GiB (22%) Title : Original Language : English Default : No Forced : No

Text #1 ID : 4 Format : UTF-8 Codec ID : S_TEXT/UTF8 Codec ID/Info : UTF-8 Plain Text Duration : 1 h 35 min Bit rate : 48 b/s Count of elements : 600 Stream size : 33.9 KiB (0%) Title : Full Language : Russian Default : No Forced : No

Text #2 ID : 5 Format : UTF-8 Codec ID : S_TEXT/UTF8 Codec ID/Info : UTF-8 Plain Text Duration : 1 h 35 min Bit rate : 28 b/s Count of elements : 587 Stream size : 19.9 KiB (0%) Title : Full Language : English Default : No Forced : No

Menu 00:00:00.000 : en:00:00:00.000 00:01:57.492 : en:00:01:57.492 00:11:47.624 : en:00:11:47.624 00:17:51.946 : en:00:17:51.946 00:25:12.261 : en:00:25:12.261 00:31:00.567 : en:00:31:00.567 00:36:43.118 : en:00:36:43.118 00:42:49.817 : en:00:42:49.817 00:48:20.981 : en:00:48:20.981 00:53:50.853 : en:00:53:50.853 00:58:51.027 : en:00:58:51.027 01:06:58.598 : en:01:06:58.598 01:11:38.836 : en:01:11:38.836 01:15:13.050 : en:01:15:13.050 01:21:41.688 : en:01:21:41.688 01:29:38.748 : en:01:29:38.748

Релиз от: Автор релиза: Подпишись на меня, кликни по картинке > :

krutor.org

Скачать торрент Обитель зла: Вендетта / Resident Evil: Vendetta (2017) BDRip 1080p

Информация о фильмеНазвание: Обитель зла: ВендеттаОригинальное название: Resident Evil: VendettaГод выхода: 2017Жанр: Мультфильм, ужасы, фантастика, боевик, детектив, приключенияРежиссер: Таканори ЦудзимотоВ ролях: Кевин Дорман, Мэттью Мерсер, Эрин Кехилл, Кари Уолгрен, Ариф С. Кинчен, Арни Пантойя, Джон ДеМита, Кристина Валенсуела, Фред Татаскьор, Александр Полински

О фильме: Сотрудник организации по борьбе с биотерроризмом B.S.A.A. Крис Редфилд проникает в таинственный особняк, который, согласно информации, является базой контрабандистов оружием. В ходе расследования Крис сталкивается с Гленом Ариасом, преступником объявленным в международный розыск, и становится свидетелем странной картины, в результате которой упускает Ариаса.

Страна: Япония Продолжительность: 01:37:14Перевод: Дублированный [iTunes]

ФайлФормат: MKVКачество: BDRip 1080pВидео: MPEG-4 AVC, 7535 kb/s, 1920x1080Аудио: Russian: AC3, 384 kb/s (6 ch) / English: AC3, 640 kb/s (6 ch)Субтитры: Русские, английские

MI

Общее Уникальный идентификатор : 254629524562536873859483335167157247138 (0xBF8FDCD3E0DD751FA4A5DF8856089CA2) Полное имя : D:загрузкиResident.Evil.Vendetta.2017.D.BDRip.1080p.mkv Формат : Matroska Версия формата : Version 2 Размер файла : 5,80 Гбайт Продолжительность : 1 ч. 37 м. Общий поток : 8539 Кбит/сек Дата кодирования : UTC 2017-07-02 08:51:28 Программа кодирования : mkvmerge v7.8.0 ('River Man') 32bit built on Apr 3 2015 12:11:22 Библиотека кодирования : libebml v1.3.1 + libmatroska v1.4.2

Видео Идентификатор : 1 Формат : AVC Формат/Информация : Advanced Video Codec Профиль формата : [email protected] Параметр CABAC формата : Да Параметр ReFrames формата : 4 кадра Идентификатор кодека : V_MPEG4/ISO/AVC Продолжительность : 1 ч. 37 м. Битрейт : 7535 Кбит/сек Ширина : 1920 пикселей Высота : 1080 пикселей Соотношение сторон : 16:9 Режим частоты кадров : Постоянный Частота кадров : 23,976 (24000/1001) кадра/сек Цветовое пространство : YUV Субдискретизация насыщенности : 4:2:0 Битовая глубина : 8 бит Тип развёртки : Прогрессивная Бит/(Пиксели*Кадры) : 0.152 Размер потока : 4,99 Гбайт (86%) Библиотека кодирования : x264 core 148 r2597 e86f3a1 Настройки программы : cabac=1 / ref=4 / deblock=1:0:0 / analyse=0x3:0x113 / me=umh / subme=10 / psy=1 / psy_rd=1.05:0.10 / mixed_ref=1 / me_range=48 / chroma_me=1 / trellis=2 / 8x8dct=1 / cqm=0 / deadzone=21,11 / fast_pskip=0 / chroma_qp_offset=-2 / threads=12 / lookahead_threads=1 / sliced_threads=0 / nr=0 / decimate=1 / interlaced=0 / bluray_compat=0 / constrained_intra=0 / bframes=6 / b_pyramid=2 / b_adapt=2 / b_bias=0 / direct=3 / weightb=1 / open_gop=0 / weightp=2 / keyint=250 / keyint_min=23 / scenecut=40 / intra_refresh=0 / rc=2pass / mbtree=0 / bitrate=7535 / ratetol=2.0 / qcomp=0.70 / qpmin=0 / qpmax=69 / qpstep=4 / cplxblur=20.0 / qblur=0.5 / ip_ratio=1.40 / pb_ratio=1.30 / aq=2:1.00 Язык : English Default : Да Forced : Нет

Аудио #1 Идентификатор : 2 Формат : AC-3 Формат/Информация : Audio Coding 3 Параметр Endianness формата : Big Идентификатор кодека : A_AC3 Продолжительность : 1 ч. 37 м. Вид битрейта : Постоянный Битрейт : 384 Кбит/сек Каналы : 6 каналов Расположение каналов : Front: L C R, Side: L R, LFE Частота : 48,0 КГц Частота кадров : 31,250 кадров/сек (1536 spf) Битовая глубина : 16 бит Метод сжатия : С потерями Размер потока : 267 Мбайт (4%) Заголовок : iTunes Язык : Russian Default : Да Forced : Нет

Аудио #2 Идентификатор : 3 Формат : AC-3 Формат/Информация : Audio Coding 3 Параметр Endianness формата : Big Идентификатор кодека : A_AC3 Продолжительность : 1 ч. 37 м. Вид битрейта : Постоянный Битрейт : 640 Кбит/сек Каналы : 6 каналов Расположение каналов : Front: L C R, Side: L R, LFE Частота : 48,0 КГц Частота кадров : 31,250 кадров/сек (1536 spf) Битовая глубина : 16 бит Метод сжатия : С потерями Размер потока : 445 Мбайт (7%) Язык : English Default : Нет Forced : Нет

Текст #1 Идентификатор : 4 Формат : UTF-8 Идентификатор кодека : S_TEXT/UTF8 Идентификатор кодека/Информация : UTF-8 Plain Text Заголовок : Full Язык : Russian Default : Нет Forced : Нет

Текст #2 Идентификатор : 5 Формат : UTF-8 Идентификатор кодека : S_TEXT/UTF8 Идентификатор кодека/Информация : UTF-8 Plain Text Заголовок : Full Язык : English Default : Нет Forced : Нет

Меню 00:00:00.000 : en:00:00:00.000 00:01:57.492 : en:00:01:57.492 00:11:47.624 : en:00:11:47.624 00:17:51.946 : en:00:17:51.946 00:25:12.261 : en:00:25:12.261 00:31:00.567 : en:00:31:00.567 00:36:43.118 : en:00:36:43.118 00:42:49.817 : en:00:42:49.817 00:48:20.981 : en:00:48:20.981 00:53:50.853 : en:00:53:50.853 00:58:51.027 : en:00:58:51.027 01:06:58.598 : en:01:06:58.598 01:11:38.836 : en:01:11:38.836 01:15:13.050 : en:01:15:13.050 01:21:41.688 : en:01:21:41.688 01:29:38.748 : en:01:29:38.748

krutor.org

Скачать торрент Обитель зла: Вендетта / Resident Evil: Vendetta (2017) BDRip от R.G.Resident

Информация о фильмеНазвание: Обитель зла: ВендеттаОригинальное название: Resident Evil: VendettaГод выпуска: 2017Страна: ЯпонияЖанр: мультфильм, ужасы, фантастика, боевик, детектив, приключенияПеревод: Дубляж - [iTunes]Продолжительность: 01:37:14Режиссер: Таканори Цудзимото В ролях: Кевин Дорман (Chris Redfield, озвучка), Мэттью Мерсер (Leon S. Kennedy, озвучка), Эрин Кехилл (Rebecca Chambers, озвучка), Кари Уолгрен (Nadia, озвучка), Ариф С. Кинчен (D.C.), Арни Пантойя (Damian, озвучка), Джон ДеМита (Glenn Arias, озвучка), Кристина Валенсуела (Maria Gomez, озвучка), Фред Татаскьор (Diego Gomez, озвучка), Александр Полински (Patricio, озвучка), Орион Акаба (Soldier, озвучка), Дэрин Де Пол (Zombie, озвучка)Описание: Сотрудник организации по борьбе с биотерроризмом B.S.A.A. Крис Редфилд проникает в таинственный особняк, который, согласно информации, является базой контрабандистов оружием. В ходе расследования Крис сталкивается с Гленом Ариасом, преступником объявленным в международный розыск, и становится свидетелем странной картины, в результате которой упускает Ариаса.Рейтинг:MPAA: R - Лицам до 17 лет обязательно присутствие взрослогоКачество: BDRip \|Исх: Resident.Evil.Vendetta.2017.BDREMUX.1080p.ExKinoRay.mkv\|Формат: AVIВидео: XviD, 688x384 (16:9), 939 kbps, 23,976 fps, 0,148 bppАудио: MP3 / 2.0 / 48 kHz / 128 kbps /СэмплРелиз от:

ОтчетМедиаИнфо

Общее Полное имя : E:Resident.Evil.Vendetta.2017.BDRip.745.R.G.Resident.avi Формат : AVI Формат/Информация : Audio Video Interleave Размер файла : 746 Мбайт Продолжительность : 1 ч. 37 м. Общий поток : 1073 Кбит/сек Программа кодирования : VirtualDubModRus 1.5.10.2 (build 2542/release) Библиотека кодирования : VirtualDubMod build 2542/release

Видео Идентификатор : 0 Формат : MPEG-4 Visual Профиль формата : Advanced [email protected] Параметр BVOP формата : 2 Параметр QPel формата : Нет Параметр GMC формата : Без точки перехода Параметр матрицы формата : Выборочная Идентификатор кодека : XVID Идентификатор кодека/Подсказка : XviD Продолжительность : 1 ч. 37 м. Битрейт : 939 Кбит/сек Ширина : 688 пикселей Высота : 384 пикселя Соотношение сторон : 16:9 Частота кадров : 23,976 (24000/1001) кадра/сек Цветовое пространство : YUV Субдискретизация насыщенности : 4:2:0 Битовая глубина : 8 бит Тип развёртки : Прогрессивная Метод сжатия : С потерями Бит/(Пиксели*Кадры) : 0.148 Размер потока : 653 Мбайт (88%) Библиотека кодирования : XviD 73

Аудио Идентификатор : 1 Формат : MPEG Audio Версия формата : Version 1 Профиль формата : Layer 3 Идентификатор кодека : 55 Идентификатор кодека/Подсказка : MP3 Продолжительность : 1 ч. 37 м. Вид битрейта : Постоянный Битрейт : 128 Кбит/сек Каналы : 2 канала Частота : 48,0 КГц Метод сжатия : С потерями Размер потока : 89,0 Мбайт (12%) Выравнивание : Соединение по промежуткам Продолжительность промежутка : 167 мс. (4,00 видеокадра) Время предзагрузки промежутка : 216 мс. Библиотека кодирования : LAME3.99r Настройки программы : -m s -V 4 -q 3 -lowpass 17 -b 128

mrutor.org


Смотрите также