Resident evil vendetta скачать торрент


rutor.org :: Обитель зла: Вендетта / Resident Evil: Vendetta (2017) WEB-DLRip от R.G.Resident

Информация о фильмеНазвание: Обитель зла: ВендеттаОригинальное название: Resident Evil: VendettaГод выпуска: 2017Страна: ЯпонияЖанр: мультфильм, ужасы, фантастика, боевик, детектив, приключенияПеревод: Дубляж - [iTunes]Продолжительность: 01:37:13Режиссер: Таканори Цудзимото В ролях: Кевин Дорман (Chris Redfield, озвучка), Мэттью Мерсер (Leon S. Kennedy, озвучка), Эрин Кехилл (Rebecca Chambers, озвучка), Кари Уолгрен (Nadia, озвучка), Ариф С. Кинчен (D.C.), Арни Пантойя (Damian, озвучка), Джон ДеМита (Glenn Arias, озвучка), Кристина Валенсуела (Maria Gomez, озвучка), Фред Татаскьор (Diego Gomez, озвучка), Александр Полински (Patricio, озвучка), Орион Акаба (Soldier, озвучка), Дэрин Де Пол (Zombie, озвучка)Описание: Сотрудник организации по борьбе с биотерроризмом B.S.A.A. Крис Редфилд проникает в таинственный особняк, который, согласно информации, является базой контрабандистов оружием. В ходе расследования Крис сталкивается с Гленом Ариасом, преступником объявленным в международный розыск, и становится свидетелем странной картины, в результате которой упускает Ариаса.Рейтинг:MPAA: R - Лицам до 17 лет обязательно присутствие взрослогоКачество: WEB-DLRipФормат: AVIВидео: XviD, 688x384 (16:9), 938 kbps, 23,976 fps, 0,148 bppАудио: MP3 / 2.0 / 48 kHz / 128 kbps /СэмплРелиз от:

ОтчетМедиаИнфо

General Complete name : E:Resident.Evil.Vendetta.2017.WEB-DLRip.745.R.G.Resident.avi Format : AVI Format/Info : Audio Video Interleave File size : 746 MiB Duration : 1 h 37 min Overall bit rate : 1 073 kb/s Writing application : VirtualDubModRus 1.5.10.2 (build 2542/release) Writing library : VirtualDubMod build 2542/release

Video ID : 0 Format : MPEG-4 Visual Format profile : Advanced [email protected] Format settings, BVOP : 2 Format settings, QPel : No Format settings, GMC : No warppoints Format settings, Matrix : Custom Codec ID : XVID Codec ID/Hint : XviD Duration : 1 h 37 min Bit rate : 939 kb/s Width : 688 pixels Height : 384 pixels Display aspect ratio : 16:9 Frame rate : 23.976 (23976/1000) FPS Color space : YUV Chroma subsampling : 4:2:0 Bit depth : 8 bits Scan type : Progressive Compression mode : Lossy Bits/(Pixel*Frame) : 0.148 Stream size : 653 MiB (88%) Writing library : XviD 73

Audio ID : 1 Format : MPEG Audio Format version : Version 1 Format profile : Layer 3 Codec ID : 55 Codec ID/Hint : MP3 Duration : 1 h 37 min Bit rate mode : Constant Bit rate : 128 kb/s Channel(s) : 2 channels Sampling rate : 48.0 kHz Compression mode : Lossy Stream size : 89.0 MiB (12%) Alignment : Aligned on interleaves Interleave, duration : 167 ms (4.00 video frames) Interleave, preload duration : 216 ms Writing library : LAME3.99r Encoding settings : -m s -V 4 -q 3 -lowpass 17 -b 128

main-rutor.org

Скачать торрент Обитель зла: Вендетта / Resident Evil: Vendetta (2017) WEB-DL 720p от ExKinoRay

Информация о фильмеНазвание: Обитель зла: ВендеттаОригинальное название: Resident Evil: VendettaГод выхода: 2017Жанр: Мультфильм, ужасы, фантастика, боевик, детектив, приключенияРежиссер: Таканори ЦудзимотоВ ролях: Кевин Дорман, Мэттью Мерсер, Эрин Кехилл, Кари Уолгрен, Ариф С. Кинчен, Арни Пантойя, Джон ДеМита, Кристина Валенсуела, Фред Татаскьор, Александр Полински

О фильме:Сотрудник организации по борьбе с биотерроризмом B.S.A.A. Крис Редфилд проникает в таинственный особняк, который, согласно информации, является базой контрабандистов оружием. В ходе расследования Крис сталкивается с Гленом Ариасом, преступником объявленным в международный розыск, и становится свидетелем странной картины, в результате которой упускает Ариаса.

Страна: Япония Продолжительность: 01:37:13Перевод: Дублированный | iTunes

ФайлКачество: WEB-DL 720pВидео: MPEG-4 AVC, 1280x720, 3226 Kbit/s, 23.976 fpsЗвук: Аудио #01: 48 kHz, AC3, 5.1, 384 Kbps | Дублированный | iTunes | RUS |Аудио #02: 48 kHz, AC3, 5.1, 384 Kbps | Оригинал | ENG |Субтитры: Русские, английские

MI

General Unique ID : 246117094968336260759750970746716803635 (0xB9286DA53BC012D5B648D6ABC6BFD233) Complete name : C:UsersbattiDesktopResident.Evil.Vendetta.2017.WEB-DL.720p.ExKinoRay.mkv Format : Matroska Format version : Version 4 / Version 2 File size : 2.71 GiB Duration : 1 h 37 min Overall bit rate mode : Variable Overall bit rate : 3 996 kb/s Encoded date : UTC 2017-06-19 21:04:24 Writing application : mkvmerge v12.0.0 ('Trust / Lust') 64bit Writing library : libebml v1.3.4 + libmatroska v1.4.5

Video ID : 1 Format : AVC Format/Info : Advanced Video Codec Format profile : [email protected] Format settings, CABAC : Yes Format settings, ReFrames : 4 frames Codec ID : V_MPEG4/ISO/AVC Duration : 1 h 37 min Bit rate mode : Variable Bit rate : 3 226 kb/s Maximum bit rate : 40.0 Mb/s Width : 1 280 pixels Height : 720 pixels Display aspect ratio : 16:9 Frame rate mode : Constant Frame rate : 23.976 (24000/1001) FPS Color space : YUV Chroma subsampling : 4:2:0 Bit depth : 8 bits Scan type : Progressive Bits/(Pixel*Frame) : 0.146 Stream size : 2.19 GiB (81%) Language : English Default : Yes Forced : No Color range : Limited Color primaries : BT.709 Transfer characteristics : BT.709 Matrix coefficients : BT.709

Audio #1 ID : 2 Format : AC-3 Format/Info : Audio Coding 3 Format settings, Endianness : Big Codec ID : A_AC3 Duration : 1 h 37 min Bit rate mode : Constant Bit rate : 384 kb/s Channel(s) : 6 channels Channel positions : Front: L C R, Side: L R, LFE Sampling rate : 48.0 kHz Frame rate : 31.250 FPS (1536 spf) Bit depth : 16 bits Compression mode : Lossy Stream size : 267 MiB (10%) Title : iTunes Language : Russian Service kind : Complete Main Default : Yes Forced : No

Audio #2 ID : 3 Format : AC-3 Format/Info : Audio Coding 3 Format settings, Endianness : Big Codec ID : A_AC3 Duration : 1 h 37 min Bit rate mode : Constant Bit rate : 384 kb/s Channel(s) : 6 channels Channel positions : Front: L C R, Side: L R, LFE Sampling rate : 48.0 kHz Frame rate : 31.250 FPS (1536 spf) Bit depth : 16 bits Compression mode : Lossy Stream size : 267 MiB (10%) Title : Original Language : English Service kind : Complete Main Default : No Forced : No

Text #1 ID : 4 Format : UTF-8 Codec ID : S_TEXT/UTF8 Codec ID/Info : UTF-8 Plain Text Duration : 1 h 35 min Bit rate : 48 b/s Count of elements : 600 Stream size : 33.9 KiB (0%) Title : Full Language : Russian Default : No Forced : No

Text #2 ID : 5 Format : UTF-8 Codec ID : S_TEXT/UTF8 Codec ID/Info : UTF-8 Plain Text Duration : 1 h 35 min Bit rate : 28 b/s Count of elements : 587 Stream size : 19.9 KiB (0%) Title : Full Language : English Default : No Forced : No

Menu 00:00:00.000 : en:1 00:01:56.491 : en:2 00:11:46.622 : en:3 00:17:50.944 : en:4 00:25:11.259 : en:5 00:30:59.565 : en:6 00:36:42.115 : en:7 00:42:48.814 : en:8 00:48:19.978 : en:9 00:53:49.849 : en:10 00:58:50.024 : en:11 01:06:57.594 : en:12 01:11:37.831 : en:13 01:15:12.044 : en:14 01:21:40.681 : en:15 01:29:37.741 : en:16

Релиз от: Автор релиза: Подпишись на меня, кликни по картинке > :

mrutor.org

Скачать торрент Обитель зла: Вендетта / Resident Evil: Vendetta (2016) BDRip-AVC от OlLanDGroup

Обитель зла: Вендетта / Resident Evil: Vendetta

Год выпуска: 2016Страна: ЯпонияПроизводство: Marza Animation PlanetЖанр: Приключения, фантастика, боевик, полнометражный

Режиссёр: Таканори ЦудзимотоВ ролях: Кевин Дорман, Мэттью Мерсер, Эрин Кехилл, Кари Уолгрен, Ариф С. Кинчен, Арни Пантойя, Джон ДеМита, Кристина Валенсуела, Фред Татаскьор, Александр Полински

Перевод: Дублированный | iTunesСубтитры: Русские, английские

Описание: Сотрудник организации по борьбе с биотерроризмом B.S.A.A. Крис Редфилд проникает в таинственный особняк, который, согласно информации, является базой контрабандистов оружием. В ходе расследования Крис сталкивается с Гленом Ариасом, преступником объявленным в международный розыск, и становится свидетелем странной картины, в результате которой упускает Ариаса.

Качество: BDRip-AVCПродолжительность: 01:37:14

Формат: MKVВидео кодек: MPEG-4 AVCАудио кодек: AC3Видео: 720x406 (2.40:1), 23.976 fps, x264 ~1699 kbps avg, 0.242 bit/pixelАудио: 48 kHz, AC3 Dolby Digital, 3/2 (L,C,R,l,r) + LFE ch, ~384.00 kbps avg | RUS (iTunes)

Дата премьеры (мир): 27 мая 2017Дата премьеры (РФ):

Релиз от: Rip by:

MediaInfo

Общее Уникальный идентификатор : 229899918184204218430775467438953864157 (0xACF51D191ABCFDC887907C5C3BF21BDD) Полное имя : D:Resident.Evil.Vendetta.2017.BDRip(AVC).OlLanDGroup.mkv Формат : Matroska Версия формата : Version 2 Размер файла : 1,42 Гбайт Продолжительность : 1 ч. 37 м. Общий поток : 2085 Кбит/сек Название фильма : Resident.Evil.Vendetta.2017 #TorpedoUK# Дата кодирования : UTC 2017-07-05 02:16:45 Программа кодирования : mkvmerge v7.8.0 ('River Man') 32bit built on Apr 3 2015 12:11:22 Библиотека кодирования : libebml v1.3.1 + libmatroska v1.4.2

Видео Идентификатор : 1 Формат : AVC Формат/Информация : Advanced Video Codec Профиль формата : [email protected] Параметр CABAC формата : Да Параметр ReFrames формата : 10 кадров Идентификатор кодека : V_MPEG4/ISO/AVC Продолжительность : 1 ч. 37 м. Битрейт : 1699 Кбит/сек Ширина : 720 пикселей Высота : 406 пикселей Соотношение сторон : 16:9 Режим частоты кадров : Постоянный Частота кадров : 23,976 (24000/1001) кадра/сек Цветовое пространство : YUV Субдискретизация насыщенности : 4:2:0 Битовая глубина : 8 бит Тип развёртки : Прогрессивная Бит/(Пиксели*Кадры) : 0.242 Размер потока : 1,13 Гбайт (80%) Библиотека кодирования : x264 core 146 r2538 121396c Настройки программы : cabac=1 / ref=10 / deblock=1:-3:-3 / analyse=0x3:0x133 / me=umh / subme=11 / psy=1 / psy_rd=1.00:0.07 / mixed_ref=1 / me_range=48 / chroma_me=1 / trellis=2 / 8x8dct=1 / cqm=0 / deadzone=21,11 / fast_pskip=0 / chroma_qp_offset=-3 / threads=6 / lookahead_threads=1 / sliced_threads=0 / nr=0 / decimate=0 / interlaced=0 / bluray_compat=0 / constrained_intra=0 / bframes=10 / b_pyramid=2 / b_adapt=2 / b_bias=0 / direct=3 / weightb=1 / open_gop=0 / weightp=2 / keyint=240 / keyint_min=23 / scenecut=40 / intra_refresh=0 / rc_lookahead=40 / rc=2pass / mbtree=0 / bitrate=1699 / ratetol=1.0 / qcomp=0.60 / qpmin=0 / qpmax=69 / qpstep=4 / cplxblur=20.0 / qblur=0.5 / vbv_maxrate=50000 / vbv_bufsize=62500 / nal_hrd=none / filler=0 / ip_ratio=1.40 / pb_ratio=1.30 / aq=1:1.00 Default : Да Forced : Нет

Аудио Идентификатор : 2 Формат : AC-3 Формат/Информация : Audio Coding 3 Расширение режима : CM (complete main) Параметр Endianness формата : Big Идентификатор кодека : A_AC3 Продолжительность : 1 ч. 37 м. Вид битрейта : Постоянный Битрейт : 384 Кбит/сек Каналы : 6 каналов Расположение каналов : Front: L C R, Side: L R, LFE Частота : 48,0 КГц Частота кадров : 31,250 кадров/сек (1536 spf) Битовая глубина : 16 бит Метод сжатия : С потерями Размер потока : 267 Мбайт (18%) Заголовок : iTunes Язык : Russian Default : Да Forced : Нет

Текст #1 Идентификатор : 3 Формат : UTF-8 Идентификатор кодека : S_TEXT/UTF8 Идентификатор кодека/Информация : UTF-8 Plain Text Заголовок : Full Язык : Russian Default : Нет Forced : Нет

Текст #2 Идентификатор : 4 Формат : UTF-8 Идентификатор кодека : S_TEXT/UTF8 Идентификатор кодека/Информация : UTF-8 Plain Text Заголовок : Full Язык : English Default : Нет Forced : Нет

Текст #3 Идентификатор : 5 Формат : UTF-8 Идентификатор кодека : S_TEXT/UTF8 Идентификатор кодека/Информация : UTF-8 Plain Text Заголовок : SDH Язык : English Default : Нет Forced : Нет

Текст #4 Идентификатор : 6 Формат : UTF-8 Идентификатор кодека : S_TEXT/UTF8 Идентификатор кодека/Информация : UTF-8 Plain Text Заголовок : Colored Язык : English Default : Нет Forced : Нет

Меню 00:00:00.000 : :Chapter 01 00:01:57.491 : :Chapter 02 00:11:47.623 : :Chapter 03 00:17:51.944 : :Chapter 04 00:25:12.259 : :Chapter 05 00:31:00.567 : :Chapter 06 00:36:43.117 : :Chapter 07 00:42:49.817 : :Chapter 08 00:48:20.980 : :Chapter 09 00:53:50.850 : :Chapter 10 00:58:51.027 : :Chapter 11 01:06:58.597 : :Chapter 12 01:11:38.836 : :Chapter 13 01:15:13.050 : :Chapter 14 01:21:41.688 : :Chapter 15 01:29:38.747 : :Chapter 16

krutor.org

Скачать торрент Обитель зла: Вендетта / Resident Evil: Vendetta (2016) BDRip-AVC от OlLanDGroup

Обитель зла: Вендетта / Resident Evil: Vendetta

Год выпуска: 2016Страна: ЯпонияПроизводство: Marza Animation PlanetЖанр: Приключения, фантастика, боевик, полнометражный

Режиссёр: Таканори ЦудзимотоВ ролях: Кевин Дорман, Мэттью Мерсер, Эрин Кехилл, Кари Уолгрен, Ариф С. Кинчен, Арни Пантойя, Джон ДеМита, Кристина Валенсуела, Фред Татаскьор, Александр Полински

Перевод: Дублированный | iTunesСубтитры: Русские, английские

Описание: Сотрудник организации по борьбе с биотерроризмом B.S.A.A. Крис Редфилд проникает в таинственный особняк, который, согласно информации, является базой контрабандистов оружием. В ходе расследования Крис сталкивается с Гленом Ариасом, преступником объявленным в международный розыск, и становится свидетелем странной картины, в результате которой упускает Ариаса.

Качество: BDRip-AVCПродолжительность: 01:37:14

Формат: MKVВидео кодек: MPEG-4 AVCАудио кодек: AC3Видео: 720x406 (2.40:1), 23.976 fps, x264 ~1699 kbps avg, 0.242 bit/pixelАудио: 48 kHz, AC3 Dolby Digital, 3/2 (L,C,R,l,r) + LFE ch, ~384.00 kbps avg | RUS (iTunes)

Дата премьеры (мир): 27 мая 2017Дата премьеры (РФ):

Релиз от: Rip by:

MediaInfo

Общее Уникальный идентификатор : 229899918184204218430775467438953864157 (0xACF51D191ABCFDC887907C5C3BF21BDD) Полное имя : D:Resident.Evil.Vendetta.2017.BDRip(AVC).OlLanDGroup.mkv Формат : Matroska Версия формата : Version 2 Размер файла : 1,42 Гбайт Продолжительность : 1 ч. 37 м. Общий поток : 2085 Кбит/сек Название фильма : Resident.Evil.Vendetta.2017 #TorpedoUK# Дата кодирования : UTC 2017-07-05 02:16:45 Программа кодирования : mkvmerge v7.8.0 ('River Man') 32bit built on Apr 3 2015 12:11:22 Библиотека кодирования : libebml v1.3.1 + libmatroska v1.4.2

Видео Идентификатор : 1 Формат : AVC Формат/Информация : Advanced Video Codec Профиль формата : [email protected] Параметр CABAC формата : Да Параметр ReFrames формата : 10 кадров Идентификатор кодека : V_MPEG4/ISO/AVC Продолжительность : 1 ч. 37 м. Битрейт : 1699 Кбит/сек Ширина : 720 пикселей Высота : 406 пикселей Соотношение сторон : 16:9 Режим частоты кадров : Постоянный Частота кадров : 23,976 (24000/1001) кадра/сек Цветовое пространство : YUV Субдискретизация насыщенности : 4:2:0 Битовая глубина : 8 бит Тип развёртки : Прогрессивная Бит/(Пиксели*Кадры) : 0.242 Размер потока : 1,13 Гбайт (80%) Библиотека кодирования : x264 core 146 r2538 121396c Настройки программы : cabac=1 / ref=10 / deblock=1:-3:-3 / analyse=0x3:0x133 / me=umh / subme=11 / psy=1 / psy_rd=1.00:0.07 / mixed_ref=1 / me_range=48 / chroma_me=1 / trellis=2 / 8x8dct=1 / cqm=0 / deadzone=21,11 / fast_pskip=0 / chroma_qp_offset=-3 / threads=6 / lookahead_threads=1 / sliced_threads=0 / nr=0 / decimate=0 / interlaced=0 / bluray_compat=0 / constrained_intra=0 / bframes=10 / b_pyramid=2 / b_adapt=2 / b_bias=0 / direct=3 / weightb=1 / open_gop=0 / weightp=2 / keyint=240 / keyint_min=23 / scenecut=40 / intra_refresh=0 / rc_lookahead=40 / rc=2pass / mbtree=0 / bitrate=1699 / ratetol=1.0 / qcomp=0.60 / qpmin=0 / qpmax=69 / qpstep=4 / cplxblur=20.0 / qblur=0.5 / vbv_maxrate=50000 / vbv_bufsize=62500 / nal_hrd=none / filler=0 / ip_ratio=1.40 / pb_ratio=1.30 / aq=1:1.00 Default : Да Forced : Нет

Аудио Идентификатор : 2 Формат : AC-3 Формат/Информация : Audio Coding 3 Расширение режима : CM (complete main) Параметр Endianness формата : Big Идентификатор кодека : A_AC3 Продолжительность : 1 ч. 37 м. Вид битрейта : Постоянный Битрейт : 384 Кбит/сек Каналы : 6 каналов Расположение каналов : Front: L C R, Side: L R, LFE Частота : 48,0 КГц Частота кадров : 31,250 кадров/сек (1536 spf) Битовая глубина : 16 бит Метод сжатия : С потерями Размер потока : 267 Мбайт (18%) Заголовок : iTunes Язык : Russian Default : Да Forced : Нет

Текст #1 Идентификатор : 3 Формат : UTF-8 Идентификатор кодека : S_TEXT/UTF8 Идентификатор кодека/Информация : UTF-8 Plain Text Заголовок : Full Язык : Russian Default : Нет Forced : Нет

Текст #2 Идентификатор : 4 Формат : UTF-8 Идентификатор кодека : S_TEXT/UTF8 Идентификатор кодека/Информация : UTF-8 Plain Text Заголовок : Full Язык : English Default : Нет Forced : Нет

Текст #3 Идентификатор : 5 Формат : UTF-8 Идентификатор кодека : S_TEXT/UTF8 Идентификатор кодека/Информация : UTF-8 Plain Text Заголовок : SDH Язык : English Default : Нет Forced : Нет

Текст #4 Идентификатор : 6 Формат : UTF-8 Идентификатор кодека : S_TEXT/UTF8 Идентификатор кодека/Информация : UTF-8 Plain Text Заголовок : Colored Язык : English Default : Нет Forced : Нет

Меню 00:00:00.000 : :Chapter 01 00:01:57.491 : :Chapter 02 00:11:47.623 : :Chapter 03 00:17:51.944 : :Chapter 04 00:25:12.259 : :Chapter 05 00:31:00.567 : :Chapter 06 00:36:43.117 : :Chapter 07 00:42:49.817 : :Chapter 08 00:48:20.980 : :Chapter 09 00:53:50.850 : :Chapter 10 00:58:51.027 : :Chapter 11 01:06:58.597 : :Chapter 12 01:11:38.836 : :Chapter 13 01:15:13.050 : :Chapter 14 01:21:41.688 : :Chapter 15 01:29:38.747 : :Chapter 16

mrutor.org

Скачать торрент Обитель зла: Вендетта / Resident Evil: Vendetta (2017) BDRip-AVC от ExKinoRay

Информация о фильмеНазвание: Обитель зла: ВендеттаОригинальное название: Resident Evil: VendettaГод выпуска: 2017Жанр: Приключения, фантастика, боевик, полнометражныйРежиссер: Таканори ЦудзимотоВ ролях: Кевин Дорман, Мэттью Мерсер, Эрин Кехилл, Кари Уолгрен, Ариф С. Кинчен, Арни Пантойя, Джон ДеМита, Кристина Валенсуела, Фред Татаскьор, Александр Полински

Описание: Сотрудник организации по борьбе с биотерроризмом B.S.A.A. Крис Редфилд проникает в таинственный особняк, который, согласно информации, является базой контрабандистов оружием. В ходе расследования Крис сталкивается с Гленом Ариасом, преступником объявленным в международный розыск, и становится свидетелем странной картины, в результате которой упускает Ариаса.

Страна: Япония, Marza Animation Planet Продолжительность: 01:37:14Перевод: Дублированный | iTunes

ФайлФормат: MKVКачество: BDRip-AVCВидео: MPEG-4 AVC, 1024x576 (16:9), 2010 Kbit/s, 23.976 fps, 0,142 bppЗвук: Аудио #01: 48 kHz, AC3, 5.1, 384 Kbps | Дублированный | iTunes | RUS Аудио #02: 48 kHz, AC3, 5.1, 448 Kbps | Оригинал | ENGСубтитры: Русские, английские

Навигация по главам: есть

MI

General Unique ID : 223461071909265821921559501596201864163 (0xA81D09777CEEAB06A2E74DCE23C44BE3) Complete name : D:Resident.evil.2017.BDRip.AVC.ExKinoRay.mkv Format : Matroska Format version : Version 2 File size : 1.93 GiB Duration : 1 h 37 min Overall bit rate : 2 842 kb/s Movie name : Resident Evil: Vendetta (2017) from ExKinoRay Encoded date : UTC 2017-07-04 20:14:09 Writing application : mkvmerge v5.6.0 ('Kenya Kane') built on May 27 2012 16:44:04 Writing library : libebml v1.2.3 + libmatroska v1.3.0

Video ID : 1 Format : AVC Format/Info : Advanced Video Codec Format profile : [email protected] Format settings, CABAC : Yes Format settings, ReFrames : 13 frames Codec ID : V_MPEG4/ISO/AVC Duration : 1 h 37 min Bit rate : 2 010 kb/s Width : 1 024 pixels Height : 576 pixels Display aspect ratio : 16:9 Frame rate mode : Constant Frame rate : 23.976 (24000/1001) FPS Color space : YUV Chroma subsampling : 4:2:0 Bit depth : 8 bits Scan type : Progressive Bits/(Pixel*Frame) : 0.142 Stream size : 1.33 GiB (69%) Title : Enigma Writing library : x264 core 144 r2525 40bb568 Encoding settings : cabac=1 / ref=13 / deblock=1:-2:-2 / analyse=0x3:0x113 / me=umh / subme=10 / psy=1 / psy_rd=1.00:0.00 / mixed_ref=1 / me_range=32 / chroma_me=1 / trellis=2 / 8x8dct=1 / cqm=0 / deadzone=21,11 / fast_pskip=1 / chroma_qp_offset=-2 / threads=12 / lookahead_threads=3 / sliced_threads=0 / nr=0 / decimate=0 / interlaced=0 / bluray_compat=0 / constrained_intra=0 / bframes=10 / b_pyramid=2 / b_adapt=2 / b_bias=0 / direct=3 / weightb=1 / open_gop=0 / weightp=2 / keyint=240 / keyint_min=23 / scenecut=40 / intra_refresh=0 / rc_lookahead=40 / rc=2pass / mbtree=0 / bitrate=2010 / ratetol=1.0 / qcomp=0.62 / qpmin=0 / qpmax=51 / qpstep=4 / cplxblur=20.0 / qblur=0.5 / vbv_maxrate=50000 / vbv_bufsize=62500 / nal_hrd=none / filler=0 / ip_ratio=1.40 / pb_ratio=1.30 / aq=3:1.00 Language : English Default : Yes Forced : No Color range : Limited Color primaries : BT.709 Transfer characteristics : BT.709 Matrix coefficients : BT.709

Audio #1 ID : 2 Format : AC-3 Format/Info : Audio Coding 3 Mode extension : CM (complete main) Format settings, Endianness : Big Codec ID : A_AC3 Duration : 1 h 37 min Bit rate mode : Constant Bit rate : 384 kb/s Channel(s) : 6 channels Channel positions : Front: L C R, Side: L R, LFE Sampling rate : 48.0 kHz Frame rate : 31.250 FPS (1536 spf) Compression mode : Lossy Stream size : 267 MiB (14%) Title : iTunes Language : Russian Default : Yes Forced : No

Audio #2 ID : 3 Format : AC-3 Format/Info : Audio Coding 3 Mode extension : CM (complete main) Format settings, Endianness : Big Codec ID : A_AC3 Duration : 1 h 37 min Bit rate mode : Constant Bit rate : 448 kb/s Channel(s) : 6 channels Channel positions : Front: L C R, Side: L R, LFE Sampling rate : 48.0 kHz Frame rate : 31.250 FPS (1536 spf) Compression mode : Lossy Stream size : 312 MiB (16%) Language : English Default : No Forced : No

Text #1 ID : 4 Format : UTF-8 Codec ID : S_TEXT/UTF8 Codec ID/Info : UTF-8 Plain Text Title : Full Language : Russian Default : No Forced : No

Text #2 ID : 5 Format : UTF-8 Codec ID : S_TEXT/UTF8 Codec ID/Info : UTF-8 Plain Text Title : Full Language : English Default : No Forced : No

Text #3 ID : 6 Format : UTF-8 Codec ID : S_TEXT/UTF8 Codec ID/Info : UTF-8 Plain Text Title : SDH Language : English Default : No Forced : No

Text #4 ID : 7 Format : UTF-8 Codec ID : S_TEXT/UTF8 Codec ID/Info : UTF-8 Plain Text Title : Colored Language : English Default : No Forced : No

Menu 00:00:00.000 : :Chapter 01 00:01:57.491 : :Chapter 02 00:11:47.623 : :Chapter 03 00:17:51.944 : :Chapter 04 00:25:12.259 : :Chapter 05 00:31:00.567 : :Chapter 06 00:36:43.117 : :Chapter 07 00:42:49.817 : :Chapter 08 00:48:20.980 : :Chapter 09 00:53:50.850 : :Chapter 10 00:58:51.027 : :Chapter 11 01:06:58.597 : :Chapter 12 01:11:38.836 : :Chapter 13 01:15:13.050 : :Chapter 14 01:21:41.688 : :Chapter 15 01:29:38.747 : :Chapter 16

Релиз от:

Автор релиза:

krutor.org

Скачать торрент Обитель зла: Вендетта / Resident Evil: Vendetta (2017) BDRip 1080p

Информация о фильмеНазвание: Обитель зла: Вендетта Оригинальное название: Resident Evil: VendettaГод выхода: 2017Жанр: Мультфильм, ужасы, фантастика, боевик, детектив, приключенияРежиссер: Таканори ЦудзимотоРоли озвучивают: Кевин Дорман, Мэттью Мерсер, Эрин Кехилл, Кари Уолгрен, Ариф С. Кинчен, Арни Пантойя, Джон ДеМита, Кристина Валенсуела, Фред Татаскьор, Александр Полински

О фильме: Специалист B.S.A.A. Крис Редфилд помогает правительственному агенту Леону С. Кеннеди и профессору Ребекке Чемберс из Института биотехнологий. Троице придётся противостоять безумному учёному Эриасу и его армии ходячих мертвецов.

Страна: ЯпонияСтудия: Marza Animation PlanetПродолжительность: 01:37:14

Перевод: Профессиональный (полное дублирование) | Blu-ray CEE

ФайлКачество: BDRip 1080pФормат: MKVКодек: MPEG-4 AVCВидео: 1920x1080 (16:9), 23,976 fps, MPEG-4 AVC ~ 16,9 Мbps avg, 0.340 bit/pixelАудио: АС3, 48,0 kHz, 6 ch, ~640.00 kbps avg | русский | Профессиональный (полное дублирование) | Blu-ray CEEАудио: DTS, 48,0 kHz, 6 ch, ~1509.00 kbps avg | английский | Аудио: АС3, 48,0 kHz, 6 ch, ~192.00 kbps avg | японский | Filmmaker Audio Commentary with Director Takanori Tsujimoto, Executive Producer Takashi Shimizu and Writer Makoto Fukami Субтитры: Русские, английские

Инфо-файл

Общее Уникальный идентификатор : 195260197243640685315350181018489459827 (0x92E5BEFF3853B543ABE2A1C990521473) Полное имя : D:TorrentsЗавершенныеResident.Evil.Vendetta.2017.1080p.BluRay.Rus.Eng.Jpn.HDCLUB.mkv Формат : Matroska Версия формата : Version 2 Размер файла : 13,3 Гбайт Продолжительность : 1 ч. 37 м. Общий поток : 19,6 Мбит/сек Название фильма : Resident Evil: Vendetta (2017) - Release for HDCLUB Дата кодирования : UTC 2017-08-13 08:54:52 Программа кодирования : mkvmerge v3.4.0 ('Rapunzel') built on May 15 2010 09:38:20 Библиотека кодирования : libebml v0.8.0 + libmatroska v0.9.0

Видео Идентификатор : 1 Формат : AVC Формат/Информация : Advanced Video Codec Профиль формата : [email protected] Параметр CABAC формата : Да Параметр ReFrames формата : 4 кадра Идентификатор кодека : V_MPEG4/ISO/AVC Продолжительность : 1 ч. 37 м. Битрейт : 16,9 Мбит/сек Ширина : 1920 пикселей Высота : 1080 пикселей Соотношение сторон : 16:9 Режим частоты кадров : Постоянный Частота кадров : 23,976 (24000/1001) кадра/сек Цветовое пространство : YUV Субдискретизация насыщенности : 4:2:0 Битовая глубина : 8 бит Тип развёртки : Прогрессивная Бит/(Пиксели*Кадры) : 0.340 Размер потока : 11,5 Гбайт (86%) Заголовок : Resident Evil: Vendetta (2017) - Release for HDCLUB Библиотека кодирования : x264 core 150 r2833+58 090e24f t_mod_Custom [[email protected] X86_64] Настройки программы : cabac=1 / ref=4 / deblock=1:-3:-3 / analyse=0x3:0x133 / me=umh / subme=11 / psy=1 / fade_compensate=0.00 / psy_rd=0.60:0.00 / mixed_ref=1 / me_range=32 / chroma_me=1 / trellis=2 / 8x8dct=1 / cqm=0 / deadzone=21,11 / fast_pskip=0 / chroma_qp_offset=-2 / threads=36 / lookahead_threads=8 / sliced_threads=0 / nr=0 / decimate=1 / interlaced=0 / bluray_compat=0 / constrained_intra=0 / fgo=0 / bframes=11 / b_pyramid=2 / b_adapt=2 / b_bias=0 / direct=3 / weightb=0 / open_gop=0 / weightp=2 / keyint=250 / keyint_min=23 / scenecut=40 / intra_refresh=0 / rc_lookahead=70 / rc=crf / mbtree=1 / crf=15.1000 / qcomp=0.65 / qpmin=0:0:0 / qpmax=36:36:36 / qpstep=4 / vbv_maxrate=62500 / vbv_bufsize=78125 / crf_max=0.0 / nal_hrd=none / filler=0 / ip_ratio=1.30 / aq=3:0.65 / aq-sensitivity=10.00 / aq-factor=1.00:1.00:1.00 / aq2=0 / aq3=0 / zones=51,325,crf=11.0/664,738,crf=11.0/1131,1507,crf=11.0/2645,2816,crf=11.5/3414,4906,crf=11.0/11019,11580,crf=11.0/11674,11728,crf=11.5/11783,11973,crf=11.0/14749,14786,crf=11.0/15456,15510,crf=10.0/15728,15748,crf=10.0/15832,15860,crf=10.5/16336,16398,crf=10.5/17450,17770,crf=12.0/23255,23376,crf=10.0/36937,37282,crf=11.0/37811,37941,crf=11.0/37942,38417,crf=11.0/39414,39546,crf=11.0/40096,40202,crf=11.0/41136,41217,crf=11.0/52374,52493,crf=11.5/55328,55535,crf=10.5/56819,56919,crf=11.0/70153,70163,crf=11.0/81230,81610,crf=11.5/81686,81791,crf=11.5/82954,83227,crf=11.5/101907,102081,crf=11.0/121285,121365,crf=11.0/132593,132658,crf=11.0 Язык : English Default : Да Forced : Нет Цветовой диапазон : Limited Основные цвета : BT.709 Коэффициенты матрицы : BT.709

Аудио #1 Идентификатор : 2 Формат : AC-3 Формат/Информация : Audio Coding 3 Параметр Endianness формата : Big Идентификатор кодека : A_AC3 Продолжительность : 1 ч. 37 м. Вид битрейта : Постоянный Битрейт : 640 Кбит/сек Каналы : 6 каналов Расположение каналов : Front: L C R, Side: L R, LFE Частота : 48,0 КГц Частота кадров : 31,250 кадров/сек (1536 spf) Битовая глубина : 16 бит Метод сжатия : С потерями Размер потока : 445 Мбайт (3%) Заголовок : AC3 5.1 @ 640 kbps - DUB, Blu-ray CEE Язык : Russian Default : Да Forced : Нет

Аудио #2 Идентификатор : 3 Формат : DTS Формат/Информация : Digital Theater Systems Режим : 16 Параметр Endianness формата : Big Идентификатор кодека : A_DTS Продолжительность : 1 ч. 37 м. Вид битрейта : Постоянный Битрейт : 1509 Кбит/сек Каналы : 6 каналов Расположение каналов : Front: L C R, Side: L R, LFE Частота : 48,0 КГц Частота кадров : 93,750 кадра/сек (512 spf) Битовая глубина : 24 бит Метод сжатия : С потерями Задержка видео : 11 мс. Размер потока : 1,03 Гбайт (8%) Заголовок : DTS 5.1 @ 1536 kbps Язык : English Default : Нет Forced : Нет

Аудио #3 Идентификатор : 4 Формат : AC-3 Формат/Информация : Audio Coding 3 Параметр Endianness формата : Big Идентификатор кодека : A_AC3 Продолжительность : 1 ч. 37 м. Вид битрейта : Постоянный Битрейт : 192 Кбит/сек Каналы : 2 канала Расположение каналов : Front: L R Частота : 48,0 КГц Частота кадров : 31,250 кадров/сек (1536 spf) Битовая глубина : 16 бит Метод сжатия : С потерями Размер потока : 134 Мбайт (1%) Заголовок : AC3 2.0 @ 192 kbps - Filmmaker Audio Commentary with Director Takanori Tsujimoto, Executive Producer Takashi Shimizu and Writer Makoto Fukami Язык : Japanese Default : Нет Forced : Нет

Текст #1 Идентификатор : 5 Формат : UTF-8 Идентификатор кодека : S_TEXT/UTF8 Идентификатор кодека/Информация : UTF-8 Plain Text Заголовок : iTunes Язык : Russian Default : Нет Forced : Нет

Текст #2 Идентификатор : 6 Формат : UTF-8 Идентификатор кодека : S_TEXT/UTF8 Идентификатор кодека/Информация : UTF-8 Plain Text Заголовок : iTunes Язык : English Default : Нет Forced : Нет

Текст #3 Идентификатор : 7 Формат : UTF-8 Идентификатор кодека : S_TEXT/UTF8 Идентификатор кодека/Информация : UTF-8 Plain Text Заголовок : Commentary Язык : English Default : Нет Forced : Нет

Меню 00:00:00.000 : en:Chapter 1 00:01:57.492 : en:Chapter 2 00:11:47.623 : en:Chapter 3 00:17:51.945 : en:Chapter 4 00:25:12.260 : en:Chapter 5 00:31:00.567 : en:Chapter 6 00:36:43.117 : en:Chapter 7 00:42:49.817 : en:Chapter 8 00:48:20.981 : en:Chapter 9 00:53:50.852 : en:Chapter 10 00:58:51.027 : en:Chapter 11 01:06:58.597 : en:Chapter 12 01:11:38.836 : en:Chapter 13 01:15:13.050 : en:Chapter 14 01:21:41.688 : en:Chapter 15 01:29:38.748 : en:Chapter 16

krutor.org

Скачать торрент Обитель зла: Вендетта / Resident Evil: Vendetta (2017) BDRemux 1080p от ExKinoRay

Информация о фильмеНазвание: Обитель зла: ВендеттаОригинальное название: Resident Evil: VendettaГод выхода: 2017Жанр: Мультфильм, ужасы, фантастика, боевик, детектив, приключенияРежиссер: Таканори ЦудзимотоВ ролях: Кевин Дорман, Мэттью Мерсер, Эрин Кехилл, Кари Уолгрен, Ариф С. Кинчен, Арни Пантойя, Джон ДеМита, Кристина Валенсуела, Фред Татаскьор, Александр Полински

О фильме:Сотрудник организации по борьбе с биотерроризмом B.S.A.A. Крис Редфилд проникает в таинственный особняк, который, согласно информации, является базой контрабандистов оружием. В ходе расследования Крис сталкивается с Гленом Ариасом, преступником объявленным в международный розыск, и становится свидетелем странной картины, в результате которой упускает Ариаса.

Страна: Япония Продолжительность: 01:37:14Перевод: Дублированный | iTunes

ФайлКачество: BDRemux 1080pВидео: MPEG-4 AVC, 1920x1080, 25.5 Мbit/s, 23.976 fpsЗвук: Аудио #01: 48 kHz, AC3, 5.1, 384 Kbps | Дублированный | iTunes | RUS |Аудио #02: 48 kHz, DTS-HD MA, 5.1, 4137 Kbps | Оригинал | ENG |Субтитры: Русские, английские

MI

General Unique ID : 226751591439343154783514088312300938225 (0xAA96C49AEE29BCAE9551FA31DBFCA3F1) Complete name : F:VideoResident.Evil.Vendetta.2017.BDREMUX.1080p.ExKinoRay.mkv Format : Matroska Format version : Version 4 / Version 2 File size : 20.4 GiB Duration : 1 h 37 min Overall bit rate mode : Variable Overall bit rate : 30.0 Mb/s Encoded date : UTC 2017-07-04 12:19:28 Writing application : mkvmerge v13.0.0 ('The Juggler') 64bit Writing library : libebml v1.3.4 + libmatroska v1.4.5

Video ID : 1 Format : AVC Format/Info : Advanced Video Codec Format profile : [email protected] Format settings, CABAC : Yes Format settings, ReFrames : 2 frames Format settings, GOP : M=1, N=10 Codec ID : V_MPEG4/ISO/AVC Duration : 1 h 37 min Bit rate mode : Variable Bit rate : 25.5 Mb/s Width : 1 920 pixels Height : 1 080 pixels Display aspect ratio : 16:9 Frame rate mode : Constant Frame rate : 23.976 (24000/1001) FPS Color space : YUV Chroma subsampling : 4:2:0 Bit depth : 8 bits Scan type : Progressive Bits/(Pixel*Frame) : 0.512 Stream size : 17.3 GiB (85%) Language : English Default : Yes Forced : No

Audio #1 ID : 2 Format : AC-3 Format/Info : Audio Coding 3 Format settings, Endianness : Big Codec ID : A_AC3 Duration : 1 h 37 min Bit rate mode : Constant Bit rate : 384 kb/s Channel(s) : 6 channels Channel positions : Front: L C R, Side: L R, LFE Sampling rate : 48.0 kHz Frame rate : 31.250 FPS (1536 spf) Bit depth : 16 bits Compression mode : Lossy Stream size : 267 MiB (1%) Title : Dub [iTunes] Language : Russian Service kind : Complete Main Default : Yes Forced : No

Audio #2 ID : 3 Format : DTS Format/Info : Digital Theater Systems Format profile : MA / Core Mode : 16 Format settings, Endianness : Big Codec ID : A_DTS Duration : 1 h 37 min Bit rate mode : Variable / Constant Bit rate : 4 137 kb/s / 1 509 kb/s Channel(s) : 6 channels Channel positions : Front: L C R, Side: L R, LFE Sampling rate : 48.0 kHz Frame rate : 93.750 FPS (512 spf) Bit depth : 24 bits Compression mode : Lossless / Lossy Stream size : 2.81 GiB (14%) Title : Original Language : English Default : No Forced : No

Text #1 ID : 4 Format : UTF-8 Codec ID : S_TEXT/UTF8 Codec ID/Info : UTF-8 Plain Text Duration : 1 h 35 min Bit rate : 48 b/s Count of elements : 600 Stream size : 33.9 KiB (0%) Title : Full Language : Russian Default : No Forced : No

Text #2 ID : 5 Format : UTF-8 Codec ID : S_TEXT/UTF8 Codec ID/Info : UTF-8 Plain Text Duration : 1 h 35 min Bit rate : 28 b/s Count of elements : 587 Stream size : 19.9 KiB (0%) Title : Full Language : English Default : No Forced : No

Menu 00:00:00.000 : en:00:00:00.000 00:01:57.492 : en:00:01:57.492 00:11:47.624 : en:00:11:47.624 00:17:51.946 : en:00:17:51.946 00:25:12.261 : en:00:25:12.261 00:31:00.567 : en:00:31:00.567 00:36:43.118 : en:00:36:43.118 00:42:49.817 : en:00:42:49.817 00:48:20.981 : en:00:48:20.981 00:53:50.853 : en:00:53:50.853 00:58:51.027 : en:00:58:51.027 01:06:58.598 : en:01:06:58.598 01:11:38.836 : en:01:11:38.836 01:15:13.050 : en:01:15:13.050 01:21:41.688 : en:01:21:41.688 01:29:38.748 : en:01:29:38.748

Релиз от: Автор релиза: Подпишись на меня, кликни по картинке > :

krutor.org


Смотрите также