Resident evil the final chapter торрент


Скачать торрент Обитель зла: Последняя глава / Resident Evil: The Final Chapter (2016) BDRip 720p от ExKinoRay

Информация о фильмеНазвание: Обитель зла: Последняя главаОригинальное название: Resident Evil: The Final ChapterГод выхода: 2016Жанр: Ужасы, фантастика, боевик, триллерРежиссер: Пол У. С. АндерсонВ ролях: Милла Йовович, Иэн Глен, Эли Лартер, Шон Робертс, Оуэн Мэкен, Фрайзер Джеймс, Руби Роуз, Уильям Леви, Рола, Эвер Андерсон

О фильме:Действия фильма разворачиваются с того момента, на котором закончилась предыдущая часть. После того как Вескер предал Элис в Вашингтоне, конец истории человечества стал еще ближе. Элис — последняя надежда на спасение мира. Она должна вернуться к точке отсчета, туда, где все и началось — город Раккун-Сити, где корпорация «Амбрелла» готовится к финальной атаке по тем, кому удалось выжить. В гонке со временем Элис вооружится до зубов и объединится с друзьями и теми, кого не ожидала увидеть в роли своих союзников. Вместе они будут биться против армии мертвецов и новых чудовищных мутантов. Находясь под угрозой потери своих способностей и готовясь к неминуемой атаке корпорации, Элис столкнется с еще более трудными проблемами, а человечество тем временем будет находиться на грани гибели.

Страна: Франция, Германия, Канада, АвстралияСтудия: apcom Entertainment, Impact Pictures, Screen GemsПродолжительность: 01:47:02Перевод: Дублированный | Чистый звук

ФайлКачество: BDRip 720pВидео: MPEG-4 AVC, 1280x534, 5500 Кbit/s, 23.976 fpsЗвук: Аудио #01: 48 kHz, AC3, 2.0, 448 Kbps | Line | RUS |Аудио #02: 48 kHz, DTS, 5.1, 1510 Kbps | Оригинал | ENG |Субтитры: Английские

MI

General Unique ID : 248877576688651900141009899579601110986 (0xBB3C13E6F92033249BE8C3FD4520C7CA) Complete name : C:UsersbattiDesktopResident.Evil.The.Final.Chapter.2017.BDRip.720p.ExKinoRay.mkv Format : Matroska Format version : Version 4 / Version 2 File size : 5.56 GiB Duration : 1 h 46 min Overall bit rate : 7 463 kb/s Encoded date : UTC 2017-03-24 11:39:47 Writing application : mkvmerge v8.3.0 ('Over the Horizon') 64bit Writing library : libebml v1.3.1 + libmatroska v1.4.2

Video ID : 1 Format : AVC Format/Info : Advanced Video Codec Format profile : [email protected] Format settings, CABAC : Yes Format settings, ReFrames : 5 frames Codec ID : V_MPEG4/ISO/AVC Duration : 1 h 46 min Bit rate : 5 500 kb/s Width : 1 280 pixels Height : 534 pixels Display aspect ratio : 2.40:1 Frame rate mode : Constant Frame rate : 23.976 (24000/1001) FPS Color space : YUV Chroma subsampling : 4:2:0 Bit depth : 8 bits Scan type : Progressive Bits/(Pixel*Frame) : 0.336 Stream size : 4.10 GiB (74%) Writing library : x264 core 148 r2665kMod a01e339 Encoding settings : cabac=1 / ref=5 / deblock=1:-3:-3 / analyse=0x3:0x133 / me=umh / subme=11 / psy=1 / fade_compensate=0.00 / psy_rd=1.05:0.00 / mixed_ref=1 / me_range=32 / chroma_me=1 / trellis=2 / 8x8dct=1 / cqm=0 / deadzone=21,11 / fast_pskip=0 / chroma_qp_offset=-2 / threads=6 / lookahead_threads=1 / sliced_threads=0 / nr=0 / decimate=0 / interlaced=0 / bluray_compat=0 / constrained_intra=0 / fgo=0 / bframes=8 / b_pyramid=2 / b_adapt=2 / b_bias=0 / direct=3 / weightb=1 / open_gop=0 / weightp=2 / keyint=240 / keyint_min=24 / scenecut=40 / intra_refresh=0 / rc=2pass / mbtree=0 / bitrate=5500 / ratetol=1.0 / qcomp=0.70 / qpmin=0 / qpmax=69 / qpstep=4 / cplxblur=20.0 / qblur=0.5 / ip_ratio=1.20 / pb_ratio=1.20 / aq=3:0.85 Language : English Default : Yes Forced : No

Audio #1 ID : 2 Format : AC-3 Format/Info : Audio Coding 3 Mode extension : CM (complete main) Format settings, Endianness : Big Codec ID : A_AC3 Duration : 1 h 46 min Bit rate mode : Constant Bit rate : 448 kb/s Channel(s) : 2 channels Channel positions : Front: L R Sampling rate : 48.0 kHz Frame rate : 31.250 FPS (1536 spf) Bit depth : 16 bits Compression mode : Lossy Stream size : 342 MiB (6%) Title : Line Language : Russian Default : Yes Forced : No

Audio #2 ID : 3 Format : DTS Format/Info : Digital Theater Systems Mode : 16 Format settings, Endianness : Big Codec ID : A_DTS Duration : 1 h 46 min Bit rate mode : Constant Bit rate : 1 509 kb/s Channel(s) : 6 channels Channel positions : Front: L C R, Side: L R, LFE Sampling rate : 48.0 kHz Frame rate : 93.750 FPS (512 spf) Bit depth : 24 bits Compression mode : Lossy Stream size : 1.12 GiB (20%) Title : Original Language : English Default : No Forced : No

Text ID : 4 Format : UTF-8 Codec ID : S_TEXT/UTF8 Codec ID/Info : UTF-8 Plain Text Duration : 1 h 45 min Bit rate : 31 b/s Count of elements : 818 Stream size : 24.3 KiB (0%) Title : Full Language : English Default : No Forced : No

Menu 00:00:00.000 : en:00:00:00.000 00:05:39.673 : en:00:05:39.673 00:11:18.177 : en:00:11:18.177 00:17:00.102 : en:00:17:00.102 00:22:36.146 : en:00:22:36.146 00:27:21.932 : en:00:27:21.932 00:33:38.475 : en:00:33:38.475 00:40:47.612 : en:00:40:47.612 00:46:36.127 : en:00:46:36.127 00:53:18.779 : en:00:53:18.779 01:03:18.670 : en:01:03:18.670 01:10:47.869 : en:01:10:47.869 01:15:37.575 : en:01:15:37.575 01:22:57.806 : en:01:22:57.806 01:28:32.891 : en:01:28:32.891 01:35:07.452 : en:01:35:07.452

Релиз от: Автор релиза:

krutor.org

Скачать торрент Обитель зла: Последняя глава / Resident Evil: The Final Chapter (2016) BDRip-HEVC 1080p от TURG

Название: Обитель зла: Последняя главаОригинальное название: Resident Evil: The Final ChapterСтрана: Франция, Германия, Канада, АвстралияСтудия: apcom Entertainment, Impact Pictures, Screen GemsГод выхода: 2016Жанр: Ужасы, фантастика, боевик, триллерРежиссер: Пол У. С. АндерсонВ ролях: Милла Йовович, Иэн Глен, Эли Лартер, Шон Робертс, Оуэн Мэкен, Фрайзер Джеймс, Руби Роуз, Уильям Леви, Рола, Эвер Андерсон

О фильме:Действия фильма разворачиваются с того момента, на котором закончилась предыдущая часть. После того как Вескер предал Элис в Вашингтоне, конец истории человечества стал еще ближе. Элис — последняя надежда на спасение мира. Она должна вернуться к точке отсчета, туда, где все и началось — город Раккун-Сити, где корпорация «Амбрелла» готовится к финальной атаке по тем, кому удалось выжить. В гонке со временем Элис вооружится до зубов и объединится с друзьями и теми, кого не ожидала увидеть в роли своих союзников. Вместе они будут биться против армии мертвецов и новых чудовищных мутантов. Находясь под угрозой потери своих способностей и готовясь к неминуемой атаке корпорации, Элис столкнется с еще более трудными проблемами, а человечество тем временем будет находиться на грани гибели.

Продолжительность: 01:47:02Перевод: Дублированный | Чистый звук | LİNEИсточник: Resident Evil The Final Chapter 2016 BluRay 1080p AVC DTS-HD MA7.1Качество: BDRip 1080pВидео: HEVC/[email protected] at 6700 kb/s, 1920 x 800 (2.400) at 23.976 fpsАудио #01: 48 kHz, AC3, 2.0, 384 Kbps | RUS |Аудио #02: 48 kHz, AC3, 5.1, 640 Kbps | ENG |Субтитры: нет

ENCODER GROUP: TURG (TurkTorrent Realese Group)

Внимание! HEVC/x265

H.265/HEVC (High Efficiency Video Coding) - это новый стандарт кодирования видео. *Рипы в фомате HEVC, в настоящее время не поддерживается большинством аппаратных проигрывателей. *Для корректного воспроизведения может потребоваться обновление ПО. *Стандарт H.265/HEVC является логическим продолжением стандарта H.264/AVC (Advanced Video Coding), и характеризуется более эффективными алгоритмами сжатия, а также поддержкой высокого разрешения вплоть до 8K UHD (8192x4320). Первая версия стандарта H.265 была опубликована в начале 2013 года.

Любителям решения из коробки - установить последнюю версию на выбор: Media Player Classic - Black Edition (MPC-BE) VLC media player Daum Pot Player GOM Media Player

Любителям WMP и других плееров, использующих по умолчанию для воспроизведения системные кодеки+сплитеры - установить K-Lite Codec Pack версии 10.1.0 и выше. Любимые плееры, не использующии по умолчанию для воспроизведения системные кодеки+сплитеры, нужно перенастроить на испоьзование оных.

MediaInfo

General Unique ID : 182438688524844975112511751150040724822 (0x894069CFA1F84995ADED384B72B33556) Complete name : C:UsersAdministratorVideosResident.Evil.The.Final.Chapter.2016.DemuxОбитель зла Последняя глава Resident Evil The Final Chapter (2016) BDRip-HEVC 1080p от TURG Line.mkv Format : Matroska Format version : Version 4 / Version 2 File size : 5.76 GiB Duration : 1 h 46 min Overall bit rate : 7 726 kb/s Movie name : TURKTORRENT / TURG Encoded date : UTC 2017-03-25 08:45:42 Writing application : mkvmerge v9.6.0 ('Slave To Your Mind') 32bit Writing library : libebml v1.3.4 + libmatroska v1.4.5

Video ID : 1 Format : HEVC Format/Info : High Efficiency Video Coding Format profile : [email protected]@Main Codec ID : V_MPEGH/ISO/HEVC Duration : 1 h 46 min Bit rate : 6 700 kb/s Width : 1 920 pixels Height : 800 pixels Display aspect ratio : 2.40:1 Frame rate mode : Constant Frame rate : 23.976 (24000/1001) FPS Color space : YUV Chroma subsampling : 4:2:0 Bit depth : 8 bits Bits/(Pixel*Frame) : 0.182 Stream size : 4.99 GiB (87%) Title : TURKTORRENT / TURG Writing library : x265 2.1+2-c0d91c2b4048:[Windows][GCC 6.2.0][64 bit] 8bit+10bit+12bit Encoding settings : wpp / ctu=64 / min-cu-size=8 / max-tu-size=32 / tu-intra-depth=1 / tu-inter-depth=1 / me=1 / subme=6 / merange=57 / no-rect / no-amp / max-merge=2 / temporal-mvp / no-early-skip / rskip / rdpenalty=0 / no-tskip / no-tskip-fast / strong-intra-smoothing / no-lossless / no-cu-lossless / no-constrained-intra / no-fast-intra / open-gop / no-temporal-layers / interlace=0 / keyint=250 / min-keyint=23 / scenecut=40 / rc-lookahead=40 / lookahead-slices=5 / bframes=10 / bframe-bias=0 / b-adapt=2 / ref=5 / limit-refs=3 / no-limit-modes / weightp / no-weightb / aq-mode=1 / qg-size=32 / aq-strength=1.00 / cbqpoffs=0 / crqpoffs=0 / rd=3 / psy-rd=2.00 / rdoq-level=0 / psy-rdoq=0.00 / log2-max-poc-lsb=8 / no-rd-refine / signhide / deblock=-3:-3 / sao / no-sao-non-deblock / b-pyramid / cutree / no-intra-refresh / rc=2 / pass / bitrate=6700 / qcomp=0.60 / qpmin=0 / qpmax=69 / qpstep=4 / cplxblur=20.0 / qblur=0.5 / ipratio=1.40 / pbratio=1.30 Default : Yes Forced : No Color range : Limited Color primaries : BT.709 Transfer characteristics : BT.709 Matrix coefficients : BT.709

Audio #1 ID : 2 Format : AC-3 Format/Info : Audio Coding 3 Mode extension : CM (complete main) Format settings, Endianness : Big Codec ID : A_AC3 Duration : 1 h 46 min Bit rate mode : Constant Bit rate : 384 kb/s Channel(s) : 2 channels Channel positions : Front: L R Sampling rate : 48.0 kHz Frame rate : 31.250 FPS (1536 spf) Bit depth : 16 bits Compression mode : Lossy Delay relative to video : 1 s 0 ms Stream size : 293 MiB (5%) Title : TURKTORRENT / TURG Language : Russian Default : Yes Forced : No

Audio #2 ID : 3 Format : AC-3 Format/Info : Audio Coding 3 Mode extension : CM (complete main) Format settings, Endianness : Big Codec ID : A_AC3 Duration : 1 h 46 min Bit rate mode : Constant Bit rate : 640 kb/s Channel(s) : 6 channels Channel positions : Front: L C R, Side: L R, LFE Sampling rate : 48.0 kHz Frame rate : 31.250 FPS (1536 spf) Bit depth : 16 bits Compression mode : Lossy Stream size : 488 MiB (8%) Title : TURKTORRENT / TURG Language : English Default : No Forced : No

krutor.org

Скачать торрент Обитель зла: Последняя глава / Resident Evil: The Final Chapter (2016) BDRip-AVC от OlLanDGroup

Обитель зла: Последняя глава / Resident Evil: The Final Chapter«The beginning of the end»

Год выпуска: 2016Страна: США, Франция, Германия, Канада, Япония, Австралия, ЮАР, ВеликобританияПроизводство: Capcom Entertainment, Impact Pictures, Screen GemsЖанр: Ужасы, фантастика, боевик, триллер

Режиссёр: Пол У. С. АндерсонВ ролях: Милла Йовович, Иэн Глен, Эли Лартер, Шон Робертс, Оуэн Мэкен, Фрайзер Джеймс, Руби Роуз, Уильям Леви, Рола, Эвер Андерсон, Джун Ки Ли

Перевод: Перевод: Дублированный | Лицензия Субтитры: Русские (Форс, полные), английские (полные) вшитые отключаемые UTF-8

Описание: Действия фильма разворачиваются с того момента, на котором закончилась предыдущая часть. После того как Вескер предал Элис в Вашингтоне, конец истории человечества стал еще ближе. Элис — последняя надежда на спасение мира. Она должна вернуться к точке отсчета, туда, где все и началось — город Раккун-Сити, где корпорация «Амбрелла» готовится к финальной атаке по тем, кому удалось выжить. В гонке со временем Элис вооружится до зубов и объединится с друзьями и теми, кого не ожидала увидеть в роли своих союзников. Вместе они будут биться против армии мертвецов и новых чудовищных мутантов. Находясь под угрозой потери своих способностей и готовясь к неминуемой атаке корпорации, Элис столкнется с еще более трудными проблемами, а человечество тем временем будет находиться на грани гибели.

Релиз от: Rip by:

Качество: BDRip-AVCПродолжительность: 01:46:40

Формат: MKVВидео кодек: MPEG-4 AVCАудио кодек: AC3Видео: 720x300(2.40:1), 23,976 fps, x264 ~ 903 kbps avg, 0.174 bit/pixelАудио: 48 kHz, Advanced Audio Codec, 2.0 ch, ~72.00 kbps avg | RUS (Blu-Ray CEE)

Дата премьеры (мир): 13 декабря 2016Дата премьеры (РФ): 10 февраля 2017, «WDSSPR»

MediaInfo

----------------------------------------------------------------------------- x264 [info]: profile High, level 4.1 x264 [info]: frame I:1721 Avg QP:13.95 size: 26375 x264 [info]: frame P:42325 Avg QP:18.33 size: 8425 x264 [info]: frame B:109411 Avg QP:19.99 size: 2906 ---------------------------------------------------------------------------Общее Уникальный идентификатор : 177424571682379263317465617968531419999 (0x857ABAC39CED0C0782DF69FD778EB35F) Полное имя : D:ВидеоResident.Evil.The.Final.Chapter.2017 BDRip-AVC.OlLanDGroup.mkv Формат : Matroska Версия формата : Version 4 / Version 2 Размер файла : 743 Мбайт Продолжительность : 1 ч. 46 м. Общий поток : 974 Кбит/сек Название фильма : Resident.Evil.The.Final.Chapter.2017 BDRip.(AVC).OlLanDGroup Дата кодирования : UTC 2017-04-30 04:53:58 Программа кодирования : mkvmerge v11.0.0 ('Alive') 64bit Библиотека кодирования : libebml v1.3.4 + libmatroska v1.4.5 DURATION : 01:46:40.427000000 NUMBER_OF_FRAMES : 150010 NUMBER_OF_BYTES : 57603840 _STATISTICS_WRITING_APP : mkvmerge v11.0.0 ('Alive') 64bit _STATISTICS_WRITING_DATE_UTC : 2017-04-30 04:53:58 _STATISTICS_TAGS : BPS DURATION NUMBER_OF_FRAMES NUMBER_OF_BYTES

Видео Идентификатор : 1 Формат : AVC Формат/Информация : Advanced Video Codec Профиль формата : [email protected] Параметр CABAC формата : Да Параметр ReFrames формата : 10 кадров Идентификатор кодека : V_MPEG4/ISO/AVC Продолжительность : 1 ч. 46 м. Номинальный битрейт : 903 Кбит/сек Ширина : 720 пикселей Высота : 300 пикселей Соотношение сторон : 2,40:1 Режим частоты кадров : Постоянный Частота кадров : 23,976 кадра/сек Цветовое пространство : YUV Субдискретизация насыщенности : 4:2:0 Битовая глубина : 8 бит Тип развёртки : Прогрессивная Бит/(Пиксели*Кадры) : 0.174 Библиотека кодирования : x264 core 146 r2538 121396c Настройки программы : cabac=1 / ref=10 / deblock=1:-3:-3 / analyse=0x3:0x113 / me=umh / subme=11 / psy=1 / psy_rd=1.00:0.07 / mixed_ref=1 / me_range=48 / chroma_me=1 / trellis=2 / 8x8dct=1 / cqm=0 / deadzone=21,11 / fast_pskip=0 / chroma_qp_offset=-3 / threads=6 / lookahead_threads=1 / sliced_threads=0 / nr=0 / decimate=0 / interlaced=0 / bluray_compat=0 / constrained_intra=0 / bframes=10 / b_pyramid=2 / b_adapt=2 / b_bias=0 / direct=3 / weightb=1 / open_gop=0 / weightp=2 / keyint=240 / keyint_min=23 / scenecut=40 / intra_refresh=0 / rc_lookahead=40 / rc=2pass / mbtree=0 / bitrate=903 / ratetol=1.0 / qcomp=0.60 / qpmin=0 / qpmax=69 / qpstep=4 / cplxblur=20.0 / qblur=0.5 / vbv_maxrate=14000 / vbv_bufsize=14000 / nal_hrd=none / filler=0 / ip_ratio=1.40 / pb_ratio=1.30 / aq=1:1.00 Язык : English Default : Да Forced : Нет Основные цвета : BT.709 Характеристики трансфера : BT.709 Коэффициенты матрицы : BT.709

Аудио Идентификатор : 2 Формат : AAC Формат/Информация : Advanced Audio Codec Профиль формата : HE-AAC / LC Идентификатор кодека : A_AAC Продолжительность : 1 ч. 46 м. Каналы : 2 канала Расположение каналов : Front: L R Частота : 48,0 КГц / 24,0 КГц Метод сжатия : С потерями Задержка видео : 31 мс. Язык : Russian Default : Да Forced : Нет

Текст #1 Идентификатор : 3 Формат : UTF-8 Идентификатор кодека : S_TEXT/UTF8 Идентификатор кодека/Информация : UTF-8 Plain Text Заголовок : Forced Язык : Russian Default : Да Forced : Нет

Текст #2 Идентификатор : 4 Формат : UTF-8 Идентификатор кодека : S_TEXT/UTF8 Идентификатор кодека/Информация : UTF-8 Plain Text Заголовок : Full Язык : Russian Default : Нет Forced : Нет

Текст #3 Идентификатор : 5 Формат : UTF-8 Идентификатор кодека : S_TEXT/UTF8 Идентификатор кодека/Информация : UTF-8 Plain Text Язык : English Default : Нет Forced : Нет

Меню #1 00:00:00.000 : en:Chapter 01 00:05:39.339 : en:Chapter 02 00:11:18.177 : en:Chapter 03 00:17:00.102 : en:Chapter 04 00:22:36.146 : en:Chapter 05 00:27:21.640 : en:Chapter 06 00:33:38.474 : en:Chapter 07 00:40:47.820 : en:Chapter 08 00:46:36.126 : en:Chapter 09 00:53:18.778 : en:Chapter 10 01:03:18.669 : en:Chapter 11 01:10:47.826 : en:Chapter 12 01:15:37.574 : en:Chapter 13 01:22:57.806 : en:Chapter 14 01:28:32.765 : en:Chapter 15 01:35:07.159 : en:Chapter 16

Меню #2 00:00:00.097 : en:00:00:00.097

mrutor.org

Скачать торрент Обитель зла: Последняя глава / Resident Evil: The Final Chapter (2016) BDRip-HEVC 1080p от HEVC CLUB

Название: Обитель зла: Последняя главаОригинальное название: Resident Evil: The Final ChapterГод выпуска: 2016Страна: США, Германия, Франция, Великобритания, Япония, Канада, ЮАР, АвстралияЖанр: Ужасы, фантастика, боевик, триллерПродолжительность: 01:46:33Перевод: Дублированный [Лицензия]Субтитры: русские, английскиеВ ролях: Милла Йовович, Иэн Глен, Эли Лартер, Шон Робертс, Оуэн Мэкен, Фрайзер Джеймс, Руби Роуз, Уильям Леви, Рола, Эвер Андерсон, Джун Ки ЛиРежиссёр: Пол У. С. АндерсонОписание: На обломках цитадели демократии Элис вместе с группой выживших дает решающий бой остаткам недобитых буржуев из корпорации "Амбрелла". Преодолевая сопротивление орд чумных мертвецов и разумных крыс-мутантов со светящимися глазами и страдая от полного отсутствия горячего душа, они должны вернуться к источнику местной заразы - городу Раккун-Сити. Там их поджидают отборные участники цирка уродцев и таймер, отсчитывающий последние часы существования человечества.Качество: BDRip 1080pФормат: MKVВидео кодек: [email protected]Аудио кодек: AC3, DTSВидео: 1920x800, 23,976 fps, HEVC, ~5304 kbps, 10bitАудио: Rus, 48 kHz/16-bit, AC3 5.1, ~640 kbps | ДубляжАудио: Eng, 48 kHz/16-bit, DTS 5.1, ~1509 kbps | ОригиналНавигация по главам: ПрисутствуетАвтор рипа: Alex_A

Внимание!

- H.265/HEVC (High Efficiency Video Coding) - это новый стандарт кодирования видео. - Стандарт H.265/HEVC является логическим продолжением стандарта H.264/AVC (Advanced Video Coding), и характеризуется более эффективными алгоритмами сжатия, а также поддержкой высокого разрешения вплоть до 8K UHD (8192x4320). Первая версия стандарта H.265 была опубликована в начале 2013 года. - Рипы в фомате HEVC поддерживается не всеми аппаратными проигрывателями. - Для корректного воспроизведения может потребоваться обновление ПО. - Владельцам несовместимого железа просьба не беспокоить, есть альтернативные релизы.

Медиаинфо

Общее Уникальный идентификатор : 222893979020189054082532799582171223298 (0xA7AFD1A0EE4DAE5ABD19B874F892D502) Полное имя : E:HEVCResident Evil The Final Chapter (2016)Resident.Evil.The.Final.Chapter.2016.1080p_HEVCCLUB.mkv Формат : Matroska Версия формата : Version 4 / Version 2 Размер файла : 5,55 Гбайт Продолжительность : 1 ч. 46 м. Общий поток : 7456 Кбит/сек Название фильма : Resident Evil: The Final Chapter (2016) - HEVC.CLUB Дата кодирования : UTC 2017-05-03 16:13:02 Программа кодирования : mkvmerge v10.0.0 ('To Drown In You') 64bit Библиотека кодирования : libebml v1.3.4 + libmatroska v1.4.5 Обложка : Yes Attachments : cover.jpg

Видео Идентификатор : 1 Формат : HEVC Формат/Информация : High Efficiency Video Coding Идентификатор кодека : V_MPEGH/ISO/HEVC Продолжительность : 1 ч. 46 м. Битрейт : 5304 Кбит/сек Ширина : 1920 пикселей Высота : 800 пикселей Соотношение сторон : 2,40:1 Режим частоты кадров : Постоянный Частота кадров : 23,976 (24000/1001) кадра/сек Бит/(Пиксели*Кадры) : 0.144 Размер потока : 3,95 Гбайт (71%) Заголовок : HEVC.CLUB Default : Да Forced : Да

Аудио #1 Идентификатор : 2 Формат : AC-3 Формат/Информация : Audio Coding 3 Расширение режима : CM (complete main) Параметр Endianness формата : Big Идентификатор кодека : A_AC3 Продолжительность : 1 ч. 46 м. Вид битрейта : Постоянный Битрейт : 640 Кбит/сек Каналы : 6 каналов Расположение каналов : Front: L C R, Side: L R, LFE Частота : 48,0 КГц Частота кадров : 31,250 кадров/сек (1536 spf) Битовая глубина : 16 бит Метод сжатия : С потерями Размер потока : 488 Мбайт (9%) Заголовок : Dub [licence] Язык : Russian Default : Да Forced : Нет

Аудио #2 Идентификатор : 3 Формат : DTS Формат/Информация : Digital Theater Systems Режим : 16 Параметр Endianness формата : Big Идентификатор кодека : A_DTS Продолжительность : 1 ч. 46 м. Вид битрейта : Постоянный Битрейт : 1509 Кбит/сек Каналы : 6 каналов Расположение каналов : Front: L C R, Side: L R, LFE Частота : 48,0 КГц Частота кадров : 93,750 кадра/сек (512 spf) Битовая глубина : 16 бит Метод сжатия : С потерями Размер потока : 1,12 Гбайт (20%) Заголовок : Original Язык : English Default : Нет Forced : Нет

Текст #1 Идентификатор : 4 Формат : UTF-8 Идентификатор кодека : S_TEXT/UTF8 Идентификатор кодека/Информация : UTF-8 Plain Text Продолжительность : 1 ч. 45 м. Битрейт : 41 бит/сек Count of elements : 846 Размер потока : 31,7 Кбайт (0%) Заголовок : Full Язык : Russian Default : Нет Forced : Нет

Текст #2 Идентификатор : 5 Формат : UTF-8 Идентификатор кодека : S_TEXT/UTF8 Идентификатор кодека/Информация : UTF-8 Plain Text Продолжительность : 1 ч. 45 м. Битрейт : 29 бит/сек Count of elements : 806 Размер потока : 22,7 Кбайт (0%) Заголовок : Full Язык : English Default : Нет Forced : Нет

Меню 00:00:00.000 : en:Chapter 01 00:05:39.672 : en:Chapter 02 00:11:18.177 : en:Chapter 03 00:17:00.102 : en:Chapter 04 00:22:36.146 : en:Chapter 05 00:27:21.931 : en:Chapter 06 00:33:35.888 : en:Chapter 07 00:40:43.816 : en:Chapter 08 00:46:29.328 : en:Chapter 09 00:53:11.980 : en:Chapter 10 01:03:11.871 : en:Chapter 11 01:10:41.070 : en:Chapter 12 01:15:30.776 : en:Chapter 13 01:22:51.007 : en:Chapter 14 01:28:26.092 : en:Chapter 15 01:35:00.653 : en:Chapter 16

krutor.org

Скачать торрент Обитель зла: Последняя глава / Resident Evil: The Final Chapter (2016) BDRip 1080p от ExKinoRay

Информация о фильмеНазвание: Обитель зла: Последняя главаОригинальное название: Resident Evil: The Final ChapterГод выхода: 2016Жанр: Ужасы, фантастика, боевик, триллерРежиссер: Пол У. С. АндерсонВ ролях: Милла Йовович, Иэн Глен, Эли Лартер, Шон Робертс, Оуэн Мэкен, Фрайзер Джеймс, Руби Роуз, Уильям Леви, Рола, Эвер Андерсон

О фильме:Действия фильма разворачиваются с того момента, на котором закончилась предыдущая часть. После того как Вескер предал Элис в Вашингтоне, конец истории человечества стал еще ближе. Элис — последняя надежда на спасение мира. Она должна вернуться к точке отсчета, туда, где все и началось — город Раккун-Сити, где корпорация «Амбрелла» готовится к финальной атаке по тем, кому удалось выжить. В гонке со временем Элис вооружится до зубов и объединится с друзьями и теми, кого не ожидала увидеть в роли своих союзников. Вместе они будут биться против армии мертвецов и новых чудовищных мутантов. Находясь под угрозой потери своих способностей и готовясь к неминуемой атаке корпорации, Элис столкнется с еще более трудными проблемами, а человечество тем временем будет находиться на грани гибели.

Страна: Франция, Германия, Канада, АвстралияСтудия: apcom Entertainment, Impact Pictures, Screen GemsПродолжительность: 01:47:02Перевод: Дублированный | Лицензия

ФайлКачество: BDRip 1080pВидео: MPEG-4 AVC, 1920x800, 10 000 Kbit/s, 23.976 fpsЗвук: Аудио #01: 48 kHz, AC3, 5.1, 640 Kbps | Дублированный | RUS |Аудио #02: 48 kHz, AC3, 5.1, 640 Kbps | Оригинал | ENG |Субтитры: Русские (forced, full), английские

MI

General Unique ID : 210029264162998099830522658456004140514 (0x9E022A37355A6E7C87789AD6FD131DE2) Complete name : C:UsersbattiDesktopResident.Evil.The.Final.Chapter.2017.Lic.BDRip.1080.ExKinoRay.mkv Format : Matroska Format version : Version 4 / Version 2 File size : 8.41 GiB Duration : 1 h 46 min Overall bit rate : 11.3 Mb/s Encoded date : UTC 2017-04-29 18:13:50 Writing application : mkvmerge v11.0.0 ('Alive') 64bit Writing library : libebml v1.3.4 + libmatroska v1.4.5 Cover : Yes Attachments : cover.jpg

Video ID : 1 Format : AVC Format/Info : Advanced Video Codec Format profile : [email protected] Format settings, CABAC : Yes Format settings, ReFrames : 5 frames Codec ID : V_MPEG4/ISO/AVC Duration : 1 h 46 min Bit rate : 10 000 kb/s Width : 1 920 pixels Height : 800 pixels Display aspect ratio : 2.40:1 Frame rate mode : Constant Frame rate : 23.976 (23976/1000) FPS Color space : YUV Chroma subsampling : 4:2:0 Bit depth : 8 bits Scan type : Progressive Bits/(Pixel*Frame) : 0.272 Stream size : 7.45 GiB (89%) Writing library : x264 core 146 r2538 121396c Encoding settings : cabac=1 / ref=5 / deblock=1:-3:-3 / analyse=0x3:0x133 / me=umh / subme=11 / psy=1 / psy_rd=1.05:0.05 / mixed_ref=1 / me_range=32 / chroma_me=1 / trellis=2 / 8x8dct=1 / cqm=0 / deadzone=21,11 / fast_pskip=0 / chroma_qp_offset=-3 / threads=6 / lookahead_threads=1 / sliced_threads=0 / nr=0 / decimate=0 / interlaced=0 / bluray_compat=0 / constrained_intra=0 / bframes=8 / b_pyramid=2 / b_adapt=2 / b_bias=0 / direct=3 / weightb=1 / open_gop=0 / weightp=2 / keyint=240 / keyint_min=23 / scenecut=40 / intra_refresh=0 / rc_lookahead=50 / rc=2pass / mbtree=0 / bitrate=10000 / ratetol=1.0 / qcomp=0.60 / qpmin=0 / qpmax=69 / qpstep=4 / cplxblur=20.0 / qblur=0.5 / vbv_maxrate=50000 / vbv_bufsize=62500 / nal_hrd=none / filler=0 / ip_ratio=1.40 / pb_ratio=1.30 / aq=1:0.80 Language : English Default : Yes Forced : No

Audio #1 ID : 2 Format : AC-3 Format/Info : Audio Coding 3 Format settings, Endianness : Big Codec ID : A_AC3 Duration : 1 h 46 min Bit rate mode : Constant Bit rate : 640 kb/s Channel(s) : 6 channels Channel positions : Front: L C R, Side: L R, LFE Sampling rate : 48.0 kHz Frame rate : 31.250 FPS (1536 spf) Bit depth : 16 bits Compression mode : Lossy Stream size : 488 MiB (6%) Title : Dub [License] Language : Russian Service kind : Complete Main Default : Yes Forced : No

Audio #2 ID : 3 Format : AC-3 Format/Info : Audio Coding 3 Format settings, Endianness : Big Codec ID : A_AC3 Duration : 1 h 46 min Bit rate mode : Constant Bit rate : 640 kb/s Channel(s) : 6 channels Channel positions : Front: L C R, Side: L R, LFE Sampling rate : 48.0 kHz Frame rate : 31.250 FPS (1536 spf) Bit depth : 16 bits Compression mode : Lossy Stream size : 488 MiB (6%) Title : Original Language : English Service kind : Complete Main Default : No Forced : No

Text #1 ID : 4 Format : UTF-8 Codec ID : S_TEXT/UTF8 Codec ID/Info : UTF-8 Plain Text Duration : 1 h 45 min Bit rate : 1 b/s Count of elements : 15 Stream size : 926 Bytes (0%) Title : Forced Language : Russian Default : Yes Forced : No

Text #2 ID : 5 Format : UTF-8 Codec ID : S_TEXT/UTF8 Codec ID/Info : UTF-8 Plain Text Duration : 1 h 38 min Bit rate : 50 b/s Count of elements : 735 Stream size : 36.4 KiB (0%) Title : Full Language : Russian Default : No Forced : No

Text #3 ID : 6 Format : UTF-8 Codec ID : S_TEXT/UTF8 Codec ID/Info : UTF-8 Plain Text Duration : 1 h 45 min Bit rate : 31 b/s Count of elements : 818 Stream size : 24.3 KiB (0%) Title : Full Language : English Default : No Forced : No

Menu 00:00:00.000 : en:Chapter 01 00:05:39.339 : en:Chapter 02 00:11:18.177 : en:Chapter 03 00:17:00.102 : en:Chapter 04 00:22:36.146 : en:Chapter 05 00:27:21.640 : en:Chapter 06 00:33:38.474 : en:Chapter 07 00:40:47.820 : en:Chapter 08 00:46:36.126 : en:Chapter 09 00:53:18.778 : en:Chapter 10 01:03:18.669 : en:Chapter 11 01:10:47.826 : en:Chapter 12 01:15:37.574 : en:Chapter 13 01:22:57.806 : en:Chapter 14 01:28:32.765 : en:Chapter 15 01:35:07.159 : en:Chapter 16

Релиз от: Автор релиза: Подпишись на меня:

krutor.org

Скачать торрент Обитель зла: Последняя глава / Resident Evil: The Final Chapter (2016) BDRip 720p от ExKinoRay

Информация о фильмеНазвание: Обитель зла: Последняя главаОригинальное название: Resident Evil: The Final ChapterГод выхода: 2016Жанр: Ужасы, фантастика, боевик, триллерРежиссер: Пол У. С. АндерсонВ ролях: Милла Йовович, Иэн Глен, Эли Лартер, Шон Робертс, Оуэн Мэкен, Фрайзер Джеймс, Руби Роуз, Уильям Леви, Рола, Эвер Андерсон

О фильме:Действия фильма разворачиваются с того момента, на котором закончилась предыдущая часть. После того как Вескер предал Элис в Вашингтоне, конец истории человечества стал еще ближе. Элис — последняя надежда на спасение мира. Она должна вернуться к точке отсчета, туда, где все и началось — город Раккун-Сити, где корпорация «Амбрелла» готовится к финальной атаке по тем, кому удалось выжить. В гонке со временем Элис вооружится до зубов и объединится с друзьями и теми, кого не ожидала увидеть в роли своих союзников. Вместе они будут биться против армии мертвецов и новых чудовищных мутантов. Находясь под угрозой потери своих способностей и готовясь к неминуемой атаке корпорации, Элис столкнется с еще более трудными проблемами, а человечество тем временем будет находиться на грани гибели.

Страна: Франция, Германия, Канада, АвстралияСтудия: apcom Entertainment, Impact Pictures, Screen GemsПродолжительность: 01:47:02Перевод: Дублированный | Лицензия

ФайлКачество: BDRip 720pВидео: MPEG-4 AVC, 1280x534, 3999 Кbit/s, 23.976 fpsЗвук: Аудио #01: 48 kHz, AC3, 5.1, 640 Kbps | Дублированный | RUS |Аудио #02: 48 kHz, AC3, 5.1, 640 Kbps | Оригинал | ENG |Субтитры: Русские (forced, full), английские

MI

General Unique ID : 196827980439143096506912429315032744264 (0x9413B0AD2719BC5693A9EA66D3D60148) Complete name : C:UsersbattiDesktopResident.Evil.The.Final.Chapter.2017.Lic.BDRip.720.ExKinoRay.mkv Format : Matroska Format version : Version 4 / Version 2 File size : 3.93 GiB Duration : 1 h 46 min Overall bit rate : 5 281 kb/s Encoded date : UTC 2017-04-29 18:09:24 Writing application : mkvmerge v11.0.0 ('Alive') 64bit Writing library : libebml v1.3.4 + libmatroska v1.4.5 Cover : Yes Attachments : cover.jpg

Video ID : 1 Format : AVC Format/Info : Advanced Video Codec Format profile : [email protected] Format settings, CABAC : Yes Format settings, ReFrames : 12 frames Codec ID : V_MPEG4/ISO/AVC Duration : 1 h 46 min Bit rate : 3 999 kb/s Width : 1 280 pixels Height : 534 pixels Display aspect ratio : 2.40:1 Frame rate mode : Constant Frame rate : 23.976 (24000/1001) FPS Color space : YUV Chroma subsampling : 4:2:0 Bit depth : 8 bits Scan type : Progressive Bits/(Pixel*Frame) : 0.244 Stream size : 2.98 GiB (76%) Writing library : x264 core 146 r2538 121396c Encoding settings : cabac=1 / ref=12 / deblock=1:-3:-3 / analyse=0x3:0x133 / me=umh / subme=11 / psy=1 / psy_rd=1.05:0.05 / mixed_ref=1 / me_range=32 / chroma_me=1 / trellis=2 / 8x8dct=1 / cqm=0 / deadzone=21,11 / fast_pskip=0 / chroma_qp_offset=-3 / threads=6 / lookahead_threads=1 / sliced_threads=0 / nr=0 / decimate=0 / interlaced=0 / bluray_compat=0 / constrained_intra=0 / bframes=8 / b_pyramid=2 / b_adapt=2 / b_bias=0 / direct=3 / weightb=1 / open_gop=0 / weightp=2 / keyint=240 / keyint_min=23 / scenecut=40 / intra_refresh=0 / rc_lookahead=50 / rc=2pass / mbtree=0 / bitrate=3999 / ratetol=1.0 / qcomp=0.60 / qpmin=0 / qpmax=69 / qpstep=4 / cplxblur=20.0 / qblur=0.5 / vbv_maxrate=50000 / vbv_bufsize=62500 / nal_hrd=none / filler=0 / ip_ratio=1.40 / pb_ratio=1.30 / aq=1:0.80 Language : English Default : Yes Forced : No

Audio #1 ID : 2 Format : AC-3 Format/Info : Audio Coding 3 Format settings, Endianness : Big Codec ID : A_AC3 Duration : 1 h 46 min Bit rate mode : Constant Bit rate : 640 kb/s Channel(s) : 6 channels Channel positions : Front: L C R, Side: L R, LFE Sampling rate : 48.0 kHz Frame rate : 31.250 FPS (1536 spf) Bit depth : 16 bits Compression mode : Lossy Stream size : 488 MiB (12%) Title : Dub [License] Language : Russian Service kind : Complete Main Default : Yes Forced : No

Audio #2 ID : 3 Format : AC-3 Format/Info : Audio Coding 3 Format settings, Endianness : Big Codec ID : A_AC3 Duration : 1 h 46 min Bit rate mode : Constant Bit rate : 640 kb/s Channel(s) : 6 channels Channel positions : Front: L C R, Side: L R, LFE Sampling rate : 48.0 kHz Frame rate : 31.250 FPS (1536 spf) Bit depth : 16 bits Compression mode : Lossy Stream size : 488 MiB (12%) Title : Original Language : English Service kind : Complete Main Default : No Forced : No

Text #1 ID : 4 Format : UTF-8 Codec ID : S_TEXT/UTF8 Codec ID/Info : UTF-8 Plain Text Duration : 1 h 45 min Bit rate : 1 b/s Count of elements : 15 Stream size : 926 Bytes (0%) Title : Forced Language : Russian Default : Yes Forced : No

Text #2 ID : 5 Format : UTF-8 Codec ID : S_TEXT/UTF8 Codec ID/Info : UTF-8 Plain Text Duration : 1 h 38 min Bit rate : 50 b/s Count of elements : 735 Stream size : 36.4 KiB (0%) Title : Full Language : Russian Default : No Forced : No

Text #3 ID : 6 Format : UTF-8 Codec ID : S_TEXT/UTF8 Codec ID/Info : UTF-8 Plain Text Duration : 1 h 45 min Bit rate : 31 b/s Count of elements : 818 Stream size : 24.3 KiB (0%) Title : Full Language : English Default : No Forced : No

Menu 00:00:00.000 : en:Chapter 01 00:05:39.339 : en:Chapter 02 00:11:18.177 : en:Chapter 03 00:17:00.102 : en:Chapter 04 00:22:36.146 : en:Chapter 05 00:27:21.640 : en:Chapter 06 00:33:38.474 : en:Chapter 07 00:40:47.820 : en:Chapter 08 00:46:36.126 : en:Chapter 09 00:53:18.778 : en:Chapter 10 01:03:18.669 : en:Chapter 11 01:10:47.826 : en:Chapter 12 01:15:37.574 : en:Chapter 13 01:22:57.806 : en:Chapter 14 01:28:32.765 : en:Chapter 15 01:35:07.159 : en:Chapter 16

Релиз от: Автор релиза: Подпишись на меня:

krutor.org

Скачать торрент Обитель зла: Последняя глава / Resident Evil: The Final Chapter (2016) BDRip 1080p

Информация о фильмеНазвание: Обитель зла: Последняя главаОригинальное название: Resident Evil: The Final ChapterГод выхода: 2016Жанр: Ужасы, Фантастика, Боевик, ТриллерРежиссер: Пол У. С. АндерсонВ ролях: Милла Йовович, Иэн Глен, Эли Лартер, Шон Робертс, Оуэн Мэкен, Фрайзер Джеймс, Руби Роуз, Уильям Леви, Рола, Эвер Андерсон

О фильме: Действия фильма разворачиваются с того момента, на котором закончилась предыдущая часть. После того как Вескер предал Элис в Вашингтоне, конец истории человечества стал еще ближе. Элис — последняя надежда на спасение мира. Она должна вернуться к точке отсчета, туда, где все и началось — город Раккун-Сити, где корпорация «Амбрелла» готовится к финальной атаке по тем, кому удалось выжить. В гонке со временем Элис вооружится до зубов и объединится с друзьями и теми, кого не ожидала увидеть в роли своих союзников. Вместе они будут биться против армии мертвецов и новых чудовищных мутантов. Находясь под угрозой потери своих способностей и готовясь к неминуемой атаке корпорации, Элис столкнется с еще более трудными проблемами, а человечество тем временем будет находиться на грани гибели.

Страна: Франция, Германия, Канада, АвстралияСтудия: Capcom Entertainment, Impact Pictures, Screen GemsПродолжительность: 01:46:40Перевод: Многоголосый закадровый (AMS), дублированный (Line-5.1)

ФайлКодек: MPEG4 Video (h364)Качество: DRip 1080p " target="_blank">BDRip 1080p \| P, DВидео: 1920x800, 5230 Kbps, 23.976fpsЗвук: Аудио 1: AC3, 6 ch, 640 Kbps - Русский (AMS) Аудио 2: AC3, 6 ch, 640 Kbps - Русский (Line-5.1)(монтаж в 5.1 - Ash61) Аудио 3: AC3, 6 ch, 640 kbps - АнглийскийСубтитры: Русские (форс, полные), Английские (полные)

Семпл

Доп. инфо

Дублированная русская дорога 5.1 получена вставкой блоков фраз с дороги Line, английская речь во всех каналах убрана (могут встречаться отголоски).

Mediainfo

x264 [info]: frame I:1288 Avg QP:13.93 size:131191 x264 [info]: frame P:53242 Avg QP:18.35 size: 42189 x264 [info]: frame B:98926 Avg QP:19.77 size: 17874

Общее Уникальный идентификатор : 242007603733000682896944875854193580207 (0xB610F8159E71E4518316B5114A4D58AF) Полное имя : Resident Evil.2016.BDRip.1080p.mkv Формат : Matroska Версия формата : Version 2 Размер файла : 5,33 Гбайт Продолжительность : 1 ч. 46 м. Общий поток : 7150 Кбит/сек Название фильма : Resident Evil_The Final Chapter.2016.BDRip.1080p Дата кодирования : UTC 2017-03-30 23:07:29 Программа кодирования : mkvmerge v4.0.0 ('The Stars were mine') сборка от Jun 6 2010 16:18:42 Библиотека кодирования : libebml v1.0.0 + libmatroska v1.0.0

Видео Идентификатор : 1 Формат : AVC Формат/Информация : Advanced Video Codec Профиль формата : [email protected] Параметр CABAC формата : Да Параметр ReFrames формата : 5 кадров Идентификатор кодека : V_MPEG4/ISO/AVC Продолжительность : 1 ч. 46 м. Битрейт : 5230 Кбит/сек Ширина : 1920 пикселей Высота : 800 пикселей Соотношение сторон : 2,40:1 Режим частоты кадров : Постоянный Частота кадров : 23,976 (23976/1000) кадра/сек Цветовое пространство : YUV Субдискретизация насыщенности : 4:2:0 Битовая глубина : 8 бит Тип развёртки : Прогрессивная Бит/(Пиксели*Кадры) : 0.142 Размер потока : 3,79 Гбайт (71%) Заголовок : rip by -=walledol=- Библиотека кодирования : x264 core 148 r2744 b97ae06 Настройки программы : cabac=1 / ref=5 / deblock=1:-2:-2 / analyse=0x3:0x133 / me=umh / subme=11 / psy=1 / psy_rd=1.05:0.01 / mixed_ref=1 / me_range=32 / chroma_me=1 / trellis=2 / 8x8dct=1 / cqm=0 / deadzone=21,11 / fast_pskip=0 / chroma_qp_offset=-3 / threads=6 / lookahead_threads=1 / sliced_threads=0 / nr=0 / decimate=1 / interlaced=0 / bluray_compat=0 / constrained_intra=0 / bframes=8 / b_pyramid=2 / b_adapt=2 / b_bias=0 / direct=3 / weightb=1 / open_gop=0 / weightp=2 / keyint=240 / keyint_min=23 / scenecut=40 / intra_refresh=0 / rc_lookahead=60 / rc=2pass / mbtree=1 / bitrate=5230 / ratetol=1.0 / qcomp=0.60 / qpmin=0 / qpmax=69 / qpstep=4 / cplxblur=20.0 / qblur=0.5 / ip_ratio=1.40 / aq=3:0.95 Язык : English Default : Нет Forced : Нет

Аудио #1 Идентификатор : 2 Формат : AC-3 Формат/Информация : Audio Coding 3 Параметр Endianness формата : Big Идентификатор кодека : A_AC3 Продолжительность : 1 ч. 46 м. Вид битрейта : Постоянный Битрейт : 640 Кбит/сек Каналы : 6 каналов Расположение каналов : Front: L C R, Side: L R, LFE Частота : 48,0 КГц Частота кадров : 31,250 кадров/сек (1536 spf) Битовая глубина : 16 бит Метод сжатия : С потерями Размер потока : 488 Мбайт (9%) Заголовок : MVO [AMS] Язык : Russian ServiceKind : Complete Main Default : Да Forced : Нет

Аудио #2 Идентификатор : 3 Формат : AC-3 Формат/Информация : Audio Coding 3 Параметр Endianness формата : Big Идентификатор кодека : A_AC3 Продолжительность : 1 ч. 46 м. Вид битрейта : Постоянный Битрейт : 640 Кбит/сек Каналы : 6 каналов Расположение каналов : Front: L C R, Side: L R, LFE Частота : 48,0 КГц Частота кадров : 31,250 кадров/сек (1536 spf) Битовая глубина : 16 бит Метод сжатия : С потерями Размер потока : 488 Мбайт (9%) Заголовок : Line Язык : Russian ServiceKind : Complete Main Default : Нет Forced : Нет

Аудио #3 Идентификатор : 4 Формат : AC-3 Формат/Информация : Audio Coding 3 Параметр Endianness формата : Big Идентификатор кодека : A_AC3 Продолжительность : 1 ч. 46 м. Вид битрейта : Постоянный Битрейт : 640 Кбит/сек Каналы : 6 каналов Расположение каналов : Front: L C R, Side: L R, LFE Частота : 48,0 КГц Частота кадров : 31,250 кадров/сек (1536 spf) Битовая глубина : 16 бит Метод сжатия : С потерями Размер потока : 488 Мбайт (9%) Язык : English ServiceKind : Complete Main Default : Нет Forced : Нет

Текст #1 Идентификатор : 5 Формат : UTF-8 Идентификатор кодека : S_TEXT/UTF8 Идентификатор кодека/Информация : UTF-8 Plain Text Заголовок : Forced Язык : Russian Default : Да Forced : Нет

Текст #2 Идентификатор : 6 Формат : UTF-8 Идентификатор кодека : S_TEXT/UTF8 Идентификатор кодека/Информация : UTF-8 Plain Text Заголовок : Full Язык : Russian Default : Нет Forced : Нет

Текст #3 Идентификатор : 7 Формат : UTF-8 Идентификатор кодека : S_TEXT/UTF8 Идентификатор кодека/Информация : UTF-8 Plain Text Заголовок : Full Язык : English Default : Нет Forced : Нет

Меню 00:00:00.000 : en:Chapter 01 00:05:39.339 : en:Chapter 02 00:11:18.177 : en:Chapter 03 00:17:00.102 : en:Chapter 04 00:22:36.146 : en:Chapter 05 00:27:21.640 : en:Chapter 06 00:33:38.474 : en:Chapter 07 00:40:47.820 : en:Chapter 08 00:46:36.126 : en:Chapter 09 00:53:18.778 : en:Chapter 10 01:03:18.669 : en:Chapter 11 01:10:47.826 : en:Chapter 12 01:15:37.574 : en:Chapter 13 01:22:57.806 : en:Chapter 14 01:28:32.765 : en:Chapter 15 01:35:07.159 : en:Chapter 16

krutor.org


Смотрите также