Resident evil damnation скачать торрент


rutor.org :: Обитель Зла: Проклятие / Resident Evil: Damnation (2012) BDRemux 1080p ::: Скачать торрент

Страна: ЯпонияЖанр: мультфильм, ужасы, фантастика, боевик, триллерГод выпуска: 2012Продолжительность: 01:40:01

Перевод: Профессиональный (многоголосый, закадровый)Cубтитры: Русские, английские

Оригинальная аудиодорожка: английский

Режиссер: Макото Камия / Makoto Kamiya

В ролях: Кортни Тейлор (Ada Wong, озвучка), Робин Сакс (Ataman, озвучка), Кэролин Лоуренс (Ashley Graham, озвучка), Мэттью Мерсер (Leon S. Kennedy, озвучка), Уэнди Ли (Svetlana Belikova, озвучка), Салли Саффиоти (Ingrid Hunnigan, озвучка), Дейв Уиттенберг (Buddy, озвучка), Вэл Тассо (JD, озвучка), Патрик Хэрлан (Ark Thompson), Dave Wittenburg (Buddy, озвучка, слухи), Элисон Корт (озвучка), Дэвид Уэбстер (озвучка)

Описание: Продолжение популярной компьютерной анимации «Обитель зла: Вырождение». Леон Кеннеди отправляется в Восточную Европу на борьбу с монстрами - порождениями корпорации Амбрела. Больше монстров, больше пушек, больше экшена.

Качество видео:BDRemux 1080pФормат видео: Matroska

Video: MPEG-4 AVC Video / 28048 kbps / 1920х1080p / 23,976 fps / 16:9 / High Profile 4.1Audio: Russian / DTS-HD Master Audio / 5.1 / 48 kHz / 2302 kbps / 16-bit (DTS Core: 5.1 / 48 kHz / 1509 kbps / 16-bit)Audio: English / DTS-HD Master Audio / 5.1 / 48 kHz / 2298 kbps / 16-bit (DTS Core: 5.1 / 48 kHz / 1509 kbps / 16-bit)Subtitle: English / 15,836 kbpsSubtitle: Russian / 11,185 kbpsSubtitle: Ukrainian / 11,802 kbps

MediaInfo:

General Unique ID : 188342854523623677342337068348316975063 (0x8DB183AB61F4D013805EEF6E222DFFD7) Complete name : D:Biohazard. Damnation.2012.BDRemux 1080p.mkv Format : Matroska Format version : Version 2 File size : 22.8 GiB Duration : 1h 40mn Overall bit rate mode : Variable Overall bit rate : 32.7 Mbps Encoded date : UTC 2012-09-25 14:28:48 Writing application : mkvmerge v5.7.0 ('The Whirlwind') built on Jul 8 2012 20:08:51 Writing library : libebml v1.2.3 + libmatroska v1.3.0

Video ID : 1 Format : AVC Format/Info : Advanced Video Codec Format profile : [email protected] Format settings, CABAC : Yes Format settings, ReFrames : 2 frames Codec ID : V_MPEG4/ISO/AVC Duration : 1h 40mn Bit rate mode : Variable Bit rate : 28.4 Mbps Width : 1 920 pixels Height : 1 080 pixels Display aspect ratio : 16:9 Frame rate mode : Constant Frame rate : 23.976 fps Color space : YUV Chroma subsampling : 4:2:0 Bit depth : 8 bits Scan type : Progressive Bits/(Pixel*Frame) : 0.571 Stream size : 19.8 GiB (87%) Default : Yes Forced : No

Audio #1 ID : 2 Format : DTS Format/Info : Digital Theater Systems Format profile : MA / Core Codec ID : A_DTS Duration : 1h 40mn Bit rate mode : Variable Bit rate : 1 561 Kbps / 1 510 Kbps Channel(s) : 6 channels Channel positions : Front: L C R, Side: L R, LFE Sampling rate : 48.0 KHz Bit depth : 16 bits Compression mode : Lossless / Lossy Language : Russian Default : Yes Forced : No

Audio #2 ID : 3 Format : DTS Format/Info : Digital Theater Systems Format profile : MA / Core Codec ID : A_DTS Duration : 1h 40mn Bit rate mode : Variable Bit rate : 2 053 Kbps / 1 510 Kbps Channel(s) : 6 channels Channel positions : Front: L C R, Side: L R, LFE Sampling rate : 48.0 KHz Bit depth : 16 bits Compression mode : Lossless / Lossy Language : English Default : No Forced : No

Text #1 ID : 4 Format : UTF-8 Codec ID : S_TEXT/UTF8 Codec ID/Info : UTF-8 Plain Text Language : Russian Default : Yes Forced : No

Text #2 ID : 5 Format : UTF-8 Codec ID : S_TEXT/UTF8 Codec ID/Info : UTF-8 Plain Text Language : Ukrainian Default : No Forced : No

Text #3 ID : 6 Format : UTF-8 Codec ID : S_TEXT/UTF8 Codec ID/Info : UTF-8 Plain Text Language : English Default : No Forced : No

Menu 00:00:00.000 : en:Chapter 1 00:05:32.999 : en:Chapter 2 00:12:53.480 : en:Chapter 3 00:18:27.897 : en:Chapter 4 00:23:51.972 : en:Chapter 5 00:30:03.885 : en:Chapter 6 00:36:00.992 : en:Chapter 7 00:41:54.303 : en:Chapter 8 00:49:30.007 : en:Chapter 9 00:53:57.859 : en:Chapter 10 00:58:38.805 : en:Chapter 11 01:04:52.595 : en:Chapter 12 01:13:41.082 : en:Chapter 13 01:17:42.282 : en:Chapter 14 01:23:17.200 : en:Chapter 15 01:28:18.376 : en:Chapter 16

main-rutor.org

rutor.org :: Обитель зла: Проклятие / Resident Evil: Damnation / Biohazard: Damnation (2012) BDRip 1080p ::: Скачать торрент

Информация о фильмеНазвание: Обитель зла: ПроклятиеОригинальное название: Resident Evil: Damnation / Biohazard: DamnationГод выхода: 2012Жанр: Мультфильм, ужасы, фантастика, боевик, триллерРежиссер: Макото КамияВ ролях: Мэттью Мерсер, Дейв Уиттенберг, Уэнди Ли, Вэл Тассо, Робин Сакс, Кортни Тейлор, Салли Саффиоти, Дэвид Эрнест, Патрик Сэйтц, Майкл МакКоннохи, Патрик Хэрлан, Кэролин Лоуренс

О фильме: Продолжение популярной компьютерной анимации «Обитель зла: Вырождение». Леон Кеннеди отправляется в Восточную Европу на борьбу с монстрами — порождениями корпорации Амбрела. Больше монстров, больше пушек, больше экшена.

Официальный сайт

Страна: ЯпонияСтудия: Capcom Company, Digital Frontier, Sony Pictures EntertainmentПродолжительность: 01:40:02Перевод: Профессиональный (многоголосый, закадровый) |Blu-ray CEE| + Английская звуковая дорожка

ФайлКодек: x264Качество: BDRip 1080p (источник: Mont Blu-ray disc 1080p CEE)Видео: 1920х1080 (16:9), 8000 Kbps, 23.976 fps, 0.161 bit/pixelАудио #1: 48.0 kHz, AC3 Dolby Digital, 3/2 (L,C,R,l,r) + LFE ch, 640 kbps avg [Rus]Аудио #2: 48.0 kHz, AC3 Dolby Digital, 3/2 (L,C,R,l,r) + LFE ch, 640 kbps avg [Eng]Субтитры: Русские, украинские, английские

Семпл

x264

x264 [info]: frame I:939 Avg QP:16.45 size:199767 x264 [info]: frame P:40375 Avg QP:20.37 size: 63776 x264 [info]: frame B:102590 Avg QP:21.86 size: 31548

MediaInfo

Enable slow first pass Включен "медленный" первый проход. Только при первом проходе и если нужно получить максимальное качество. Очень замедляет кодирование. Отключает следующие, ускоряющие первый проход, ключи: --no-8x8dct --me dia --partitions none --ref 1 --subme 2 --trellis 0 В MediaInfo не отображается.

General Unique ID : 222721962284254614508734998845901723025 (0xA78EB08C7B860F168FDD8B481C7B5591) Complete name : D:Resident.Evil.Damnation.2012.x264.BDRip.1080p.mkv Format : Matroska Format version : Version 2 File size : 6.48 GiB Duration : 1h 40mn Overall bit rate : 9 278 Kbps Movie name : Resident Evil: Damnation (2012) BDRip 1080p Encoded date : UTC 2012-11-01 05:01:55 Writing application : mkvmerge v5.8.0 ('No Sleep / Pillow') built on Sep 2 2012 15:37:04 Writing library : libebml v1.2.3 + libmatroska v1.3.0

Video ID : 1 Format : AVC Format/Info : Advanced Video Codec Format profile : [email protected] Format settings, CABAC : Yes Format settings, ReFrames : 4 frames Codec ID : V_MPEG4/ISO/AVC Duration : 1h 40mn Bit rate : 8 000 Kbps Width : 1 920 pixels Height : 1 080 pixels Display aspect ratio : 16:9 Frame rate mode : Constant Frame rate : 23.976 fps Color space : YUV Chroma subsampling : 4:2:0 Bit depth : 8 bits Scan type : Progressive Bits/(Pixel*Frame) : 0.161 Stream size : 5.46 GiB (84%) Writing library : x264 core 128 r2216 198a7ea Encoding settings : cabac=1 / ref=4 / deblock=1:-3:-3 / analyse=0x3:0x133 / me=umh / subme=11 / psy=1 / psy_rd=1.00:0.12 / mixed_ref=1 / me_range=64 / chroma_me=1 / trellis=2 / 8x8dct=1 / cqm=0 / deadzone=21,11 / fast_pskip=0 / chroma_qp_offset=-3 / threads=6 / lookahead_threads=1 / sliced_threads=0 / nr=0 / decimate=0 / interlaced=0 / bluray_compat=0 / constrained_intra=0 / bframes=5 / b_pyramid=2 / b_adapt=2 / b_bias=0 / direct=3 / weightb=1 / open_gop=0 / weightp=2 / keyint=240 / keyint_min=23 / scenecut=40 / intra_refresh=0 / rc_lookahead=60 / rc=2pass / mbtree=1 / bitrate=8000 / ratetol=1.0 / qcomp=0.60 / qpmin=0 / qpmax=69 / qpstep=4 / cplxblur=20.0 / qblur=0.5 / ip_ratio=1.40 / aq=1:0.80 Language : Japanese Default : Yes Forced : No

Audio #1 ID : 2 Format : AC-3 Format/Info : Audio Coding 3 Mode extension : CM (complete main) Format settings, Endianness : Big Codec ID : A_AC3 Duration : 1h 40mn Bit rate mode : Constant Bit rate : 640 Kbps Channel(s) : 6 channels Channel positions : Front: L C R, Side: L R, LFE Sampling rate : 48.0 KHz Bit depth : 16 bits Compression mode : Lossy Stream size : 458 MiB (7%) Title : AC3 5.1ch 640 kbps - многоголосый, закадровый |Blu-ray CEE| Language : Russian Default : Yes Forced : No

Audio #2 ID : 3 Format : AC-3 Format/Info : Audio Coding 3 Mode extension : CM (complete main) Format settings, Endianness : Big Codec ID : A_AC3 Duration : 1h 40mn Bit rate mode : Constant Bit rate : 640 Kbps Channel(s) : 6 channels Channel positions : Front: L C R, Side: L R, LFE Sampling rate : 48.0 KHz Bit depth : 16 bits Compression mode : Lossy Stream size : 458 MiB (7%) Title : AC3 5.1ch 640 kbps - Английский Language : English Default : No Forced : No

Text #1 ID : 4 Format : UTF-8 Codec ID : S_TEXT/UTF8 Codec ID/Info : UTF-8 Plain Text Title : Русские Language : Russian Default : No Forced : No

Text #2 ID : 5 Format : UTF-8 Codec ID : S_TEXT/UTF8 Codec ID/Info : UTF-8 Plain Text Title : Украинские Language : Ukrainian Default : No Forced : No

Text #3 ID : 6 Format : UTF-8 Codec ID : S_TEXT/UTF8 Codec ID/Info : UTF-8 Plain Text Title : Английские Language : English Default : No Forced : No

Menu 00:00:00.000 : en:Chapter 1 00:05:32.999 : en:Chapter 2 00:12:53.481 : en:Chapter 3 00:18:27.898 : en:Chapter 4 00:23:51.972 : en:Chapter 5 00:30:03.885 : en:Chapter 6 00:36:00.992 : en:Chapter 7 00:41:54.303 : en:Chapter 8 00:49:30.008 : en:Chapter 9 00:53:57.859 : en:Chapter 10 00:58:38.806 : en:Chapter 11 01:04:52.596 : en:Chapter 12 01:13:41.083 : en:Chapter 13 01:17:42.282 : en:Chapter 14 01:23:17.200 : en:Chapter 15 01:28:18.376 : en:Chapter 16

main-rutor.org

rutor.org :: Обитель зла: Проклятие / Resident Evil: Damnation / Biohazard: Damnation (2012) BDRip 720p от Leonardo and Scarabey

Обитель зла: Проклятие / Biohazard: Damnation

Страна: ЯпонияГод выпуска: 2012Жанр: мультфильм, ужасы, фантастика, боевик, триллерПродолжительность: 01:40:02Перевод: Профессиональный (многоголосый, закадровый) Лицензия

Режиссер: Макото Камия / Makoto Kamiya

Актеры: Мэттью Мерсер, Дейв Уиттенберг, Уэнди Ли, Вэл Тассо, Робин Сакс, Кортни Тейлор, Салли Саффиоти, Дэвид Эрнест, Патрик Сэйтц, Майкл МакКоннохи

Описание фильма: Продолжение популярной компьютерной анимации «Обитель зла: Вырождение». Леон Кеннеди отправляется в Восточную Европу на борьбу с монстрами — порождениями корпорации Амбрела. Больше монстров, больше пушек, больше экшена.

ФайлКачество видео: BDRip 720p Исходник: Blu-rayФормат: MKV Видео кодек: MPEG-4 AVC Аудио кодек: AC3Видео: AVC, 1280x720 (16:9) at 23.976 fps, AVC at 4075 kbps avg, 0.181 bit/pixelАудио: 48 kHz, AC3 Dolby Digital, 3/2 (L,C,R,l,r) + LFE ch, 384.00 kbps - профессиональный, многоголосый закадровыйСубтитры: Русские, английские

Автор рипа:

Релиз от:

АНОНСЫ МОИХ РАЗДАЧ!

MediaInfo

* * * MediaInfo Mac 0.7.33.4 file analysis report. * * * MediaInfo Mac is ©2010 by Diego Massanti - http://mediainfo.massanti.com * * * MediaInfoLib by Jerome Martinez - http://mediainfo.sourceforge.net Created on: 03.03.2014 12:42:09 Московское стандартное время Report for file: Biohazard Damnation.2012.720p.BluRay.x264-LEONARDO_[scarabey.org].mkv

General / Container Stream #1 Total Video Streams for this File.................1 Total Audio Streams for this File.................1 Total Subtitle Streams for this File..............3 Video Codecs Used.................................AVC Audio Codecs Used.................................AC3 SubTitle Codecs Used..............................UTF-8 / UTF-8 / UTF-8 Available Sutbitle Languages......................Russian / Ukrainian / File Format.......................................Matroska Play Time.........................................1h 40mn Total File Size...................................3.12 GiB Total Stream BitRate..............................4 461 Kbps Title (Tag).......................................-=LEONARDO=- Encoded with......................................mkvmerge v5.0.1 ('Es ist Sommer') built on Oct 23 2011 00:46:40 Encoding Library..................................libebml v1.2.2 + libmatroska v1.3.0 Video Stream #1 Codec (Human Name)................................AVC Codec (FourCC)....................................V_MPEG4/ISO/AVC Codec [email protected] Frame Width.......................................1 280 pixels Frame Height......................................720 pixels Frame Rate........................................23.976 fps Total Frames......................................143904 Display Aspect Ratio..............................16:9 Scan Type.........................................Progressive Color Space.......................................YUV Codec Settings (Summary)..........................CABAC / 8 Ref Frames QF (like Gordian Knot)............................0.181 Codec Settings (CABAC)............................Yes Codec Settings (Reference Frames).................8 Video Stream Length...............................1h 40mn 2s 2ms Video Stream BitRate..............................3 989 Kbps Bit Depth.........................................8 bits Video Stream Size.................................2.79 GiB (89%) Video Encoder.....................................x264 - core 125 r2208 d9d2288 Video Encoder (Settings)..........................cabac=1 / ref=8 / deblock=1:-3:-3 / analyse=0x3:0x133 / me=umh / subme=11 / psy=1 / psy_rd=1.00:0.20 / mixed_ref=1 / me_range=32 / chroma_me=1 / trellis=2 / 8x8dct=1 / cqm=0 / deadzone=21,11 / fast_pskip=0 / chroma_qp_offset=-3 / threads=12 / lookahead_threads=2 / sliced_threads=0 / nr=0 / decimate=1 / interlaced=0 / bluray_compat=0 / constrained_intra=0 / bframes=8 / b_pyramid=2 / b_adapt=2 / b_bias=0 / direct=1 / weightb=1 / open_gop=0 / weightp=2 / keyint=250 / keyint_min=23 / scenecut=40 / intra_refresh=0 / rc=crf / mbtree=0 / crf=18.0 / qcomp=0.60 / qpmin=0 / qpmax=69 / qpstep=4 / ip_ratio=1.40 / pb_ratio=1.30 / aq=2:1.00 Audio Stream #1 Codec.............................................AC-3 Codec (FourCC)....................................A_AC3 Audio Stream Length...............................1h 40mn 1s 996ms Audio Stream BitRate..............................384 Kbps Audio Stream BitRate Mode.........................CBR Number of Audio Channels..........................6 Audio Channel's Positions.........................Front: L C R, Side: L R, LFE Sampling Rate.....................................48.0 KHz Audio Stream Size.................................275 MiB (9%) Audio Stream Language.............................Russian Subtitle Stream #1 Language..........................................Russian Format............................................UTF-8 Codec ID..........................................S_TEXT/UTF8 Codec Info........................................UTF-8 Plain Text Subtitle Stream #2 Language..........................................Ukrainian Format............................................UTF-8 Codec ID..........................................S_TEXT/UTF8 Codec Info........................................UTF-8 Plain Text Subtitle Stream #3 Format............................................UTF-8 Codec ID..........................................S_TEXT/UTF8 Codec Info........................................UTF-8 Plain Text Menu / Chapters Stream #1

x264

x264 [info]: frame I:947 Avg QP:14.88 size:117384 x264 [info]: frame P:37092 Avg QP:16.67 size: 42568 x264 [info]: frame B:105865 Avg QP:19.01 size: 12917 x264 [info]: consecutive B-frames: 5.2% 3.9% 13.5% 13.3% 26.1% 36.4% 1.3% 0.2% 0.2% x264 [info]: mb I I16..4: 15.1% 65.6% 19.4% x264 [info]: mb P I16..4: 1.6% 11.3% 1.6% P16..4: 30.0% 36.5% 10.8% 2.5% 0.3% skip: 5.5% x264 [info]: mb B I16..4: 0.1% 1.0% 0.1% B16..8: 38.3% 18.9% 2.3% direct: 4.7% skip:34.6% L0:40.5% L1:47.2% BI:12.4% x264 [info]: 8x8 transform intra:76.9% inter:44.7% x264 [info]: coded y,uvDC,uvAC intra: 89.7% 77.1% 52.8% inter: 22.8% 12.0% 1.9% x264 [info]: i16 v,h,dc,p: 6% 6% 15% 73% x264 [info]: i8 v,h,dc,ddl,ddr,vr,hd,vl,hu: 8% 8% 7% 10% 14% 13% 14% 13% 14% x264 [info]: i4 v,h,dc,ddl,ddr,vr,hd,vl,hu: 9% 9% 4% 9% 17% 14% 15% 11% 13% x264 [info]: i8c dc,h,v,p: 38% 28% 18% 16% x264 [info]: Weighted P-Frames: Y:12.0% UV:7.9% x264 [info]: ref P L0: 47.7% 8.1% 19.4% 7.0% 6.1% 4.3% 4.1% 2.5% 0.7% 0.1% x264 [info]: ref B L0: 82.9% 9.1% 3.4% 1.9% 1.3% 0.9% 0.5% x264 [info]: ref B L1: 96.4% 3.6% x264 [info]: kb/s:4075.42

main-rutor.org

rutor.org :: Обитель зла: Проклятие / Resident Evil: Damnation / Biohazard: Damnation (2012) BDRip-AVC

Информация о фильмеНазвание: Обитель зла: ПроклятиеОригинальное название: Resident Evil DamnationГод выхода: 2012Жанр: мультфильм, ужасы, фантастика, боевик, триллерРежиссер: Макото КамияВ ролях: Мэттью Мерсер, Дейв Уиттенберг, Уэнди Ли, Вэл Тассо, Робин Сакс, Кортни Тейлор, Салли Саффиоти, Дэвид Эрнест, Патрик Сэйтц, Майкл МакКоннохи

О фильме: Спецагент Соединенных Штатов Леон С. Кеннеди инкогнито проникает в маленькое восточноевропейское государство, чтобы проверить, действительно ли в ходе войны используется биоорганическое оружие. Однако вскоре после его приезда правительство внезапно дает задний ход: Кеннеди получает приказ немедленно покинуть страну. Полный решимости во что бы то ни стало узнать правду, Леон игнорирует указания свыше и ступает на кровавое поле битвы, чтобы оборвать цепь трагических смертей.

"Обитель зла: Проклятие" - взрывной, будоражащий экшен в жанре аниме, настолько же пугающий, насколько завораживающий высококлассной графикой и захватывающим сюжетом.

Официальный сайт

Страна: ЯпонияСтудия: CAPCOMПродолжительность: 01:40:01Перевод: Профессиональный многоголосый (лицензия)

ФайлКодек: x264Качество: BDRip-AVCВидео: AVC; x264; 720х400 (16:9), 23.976 fps ~ 1 000 KbpsЗвук: Русский: MPEG-1 Audio Layer 3; 48.0 KHz; 128 Kbps; CBR; 2 ch Английский: MPEG-1 Audio Layer 3; 48.0 KHz; 128 Kbps; CBR; 2 chСубтитры: Русские, английские

Семпл

MI

Format: Matroska Format version: Version 2 File size: 899 MiB Duration: 1h 40mn Overall bit rate: 1 257 Kbps Movie name: Resident Evil: Damnation – Blu-ray™ Encoded date: UTC 2012-12-02 13:53:01 Writing application: mkvmerge v5.8.0 ('No Sleep / Pillow') built on Sep 2 2012 15:37:04 Writing library: XviD4PSP 6.0 / 54.29.105

Video ID: 1 Format: AVC Format/Info: Advanced Video Codec Format profile: [email protected] Format settings, CABAC: Yes Format settings, ReFrames: 5 frames Muxing mode: Header stripping Codec ID: V_MPEG4/ISO/AVC Duration: 1h 40mn Bit rate: 1 000 Kbps Width: 720 pixels Height: 400 pixels Display aspect ratio: 16:9 Frame rate mode: Constant Frame rate: 23.976 fps Color space: YUV Chroma subsampling: 4:2:0 Bit depth: 8 bits Scan type: Progressive Bits/(Pixel*Frame): 0.145 Stream size: 698 MiB (78%) Title: Resident Evil Damnation rip by Heroman2011 Writing library: x264 core 128 r2216M 198a7ea Encoding settings: cabac=1 / ref=6 / deblock=1:0:0 / analyse=0x3:0x133 / me=umh / subme=11 / psy=1 / psy_rd=1.00:0.20 / mixed_ref=1 / me_range=32 / chroma_me=1 / trellis=2 / 8x8dct=1 / cqm=0 / deadzone=21,11 / fast_pskip=1 / chroma_qp_offset=-3 / threads=6 / lookahead_threads=1 / sliced_threads=0 / nr=0 / decimate=1 / interlaced=0 / bluray_compat=0 / constrained_intra=0 / bframes=6 / b_pyramid=1 / b_adapt=2 / b_bias=0 / direct=3 / weightb=1 / open_gop=0 / weightp=2 / keyint=230 / keyint_min=23 / scenecut=40 / intra_refresh=0 / rc_lookahead=40 / rc=2pass / mbtree=1 / bitrate=1000 / ratetol=1.0 / qcomp=0.60 / qpmin=10 / qpmax=51 / qpstep=4 / cplxblur=20.0 / qblur=0.5 / ip_ratio=1.40 / aq=1:1.00 Language: English Default: Yes Forced: No

Audio #1 ID: 2 Format: MPEG Audio Format version: Version 1 Format profile: Layer 3 Mode: Joint stereo Mode extension: MS Stereo Muxing mode: Header stripping Codec ID: A_MPEG/L3 Codec ID/Hint: MP3 Duration: 1h 40mn Bit rate mode: Constant Bit rate: 128 Kbps Channel(s): 2 channels Sampling rate: 48.0 KHz Compression mode: Lossy Stream size: 91.6 MiB (10%) Title: Русский @ 128 kbps Writing library: LAME3.99.4 Language: Russian Default: Yes Forced: Yes

Audio #2 ID: 3 Format: MPEG Audio Format version: Version 1 Format profile: Layer 3 Mode: Joint stereo Mode extension: MS Stereo Muxing mode: Header stripping Codec ID: A_MPEG/L3 Codec ID/Hint: MP3 Duration: 1h 40mn Bit rate mode: Constant Bit rate : 128 Kbps Channel(s): 2 channels Sampling rate: 48.0 KHz Compression mode: Lossy Stream size: 91.6 MiB (10%) Title: Английский @ 128 kbps Writing library: LAME3.99.Іi¤v[nµ Г*H Language: English Default: No

ForText #1 ID: 4 Format: UTF-8 Codec ID: S_TEXT/UTF8 Codec ID/Info: UTF-8 Plain Text Title: Русский Language: Russian Default: Yes Forced: No

Text #2 ID: 5 Format: UTF-8 Codec ID: S_TEXT/UTF8 Codec ID/Info: UTF-8 Plain Text Title: Английский Language: English Default: No Forced: No

main-rutor.org


Смотрите также