Рутор как я встретил вашу маму


rutor.org :: Как я встретил вашу маму / How I Met Your Mother [S01-09] (2005-2014) HDTVRip, WEB-DLRip, DVDRip

Как я встретил вашу маму / How I Met Your Mother / Сезоны: 1 – 9 / Серии: 1 – 208 из 208

Годы выпуска: 2005 – 2014Страна: СШАЖанр: мелодрама, комедияПродолжительность: 00:25:00Перевод: Профессиональный одноголосый закадровый (Кураж-Бамбей)Русские субтитры: нетСубтитры: отсутствуют

Режиссёр: Картер Бэйс / Carter Bays, Памела Фрайман / Pamela Fryman, Крейг Томас / Craig Thomas

В ролях: Джош Рэднор, Джейсон Сигел, Коби Смолдерс, Нил Патрик Харрис, Элисон Хэннигэн

Описание: «Как я встретил вашу маму» — комедия про Теда и про то, как он влюбился. Все неприятности начинаются с того, что лучший друг Теда, Маршалл, вдруг неожиданно сообщил, что он хочет сделать предложение своей давней подруге, Лили, воспитательнице детского сада. К тому времени Тед понимает, что ему нужно прилагать больше усилий, если он действительно надеется найти свою настоящую любовь. Помогает ему в этих поисках его друг Барни, убежденный холостяк, вечно со своим, иногда чересчур, мнением на все происходящее, со склонностью к костюмам и верным способом познакомиться с девушками. Когда Тед встречает Робин, он решает, что это любовь с первого взгляда, но у судьбы в запасе есть кое-что еще.

Сэмпл: http://multi-up.com/817196Качество: HDTVRip, WEB-DLRip, DVDRipФормат: AVI

Видео: 624x352 (16/9), 23.976 fps, XViD ~1 024 Kbps (0.209 bit/pixel) – Сезон 1: 22 серии – HDTVRip 640x352 (16/9), 23.976 fps, XViD ~978 Kbps (0.181 bit/pixel) – Сезон 2: 22 серии – HDTVRip 624x352 (16/9), 23.976 fps, XViD ~1 030 Kbps (0.196 bit/pixel) – Сезон 3: 20 серий – DVDRip 640x352 (16/9), 23.976 fps, XViD ~975 Kbps (0.181 bit/pixel) – Сезон 4: 24 серии – HDTVRip 720x400 (16/9), 23.976 fps, XViD ~1 107 Kbps (0.160 bit/pixel) – Сезон 5: 24 серии – HDTVRip 624x352 (16/9), 23.976 fps, XViD ~1 009 Kbps (0.192 bit/pixel) – Сезон 6: 24 серии – WEB-DLRip 624x352 (16/9), 23.976 fps, XViD ~1 001 Kbps (0.190 bit/pixel) – Сезон 7: 24 серии – HDTVRip 656x368 (16/9), 23.976 fps, XViD ~1 031 Kbps (0.178 bit/pixel) – Сезон 8: 24 серии – HDTVRip 720x400 (16/9), 23.976 fps, XViD ~1 295 Kbps (0.188 bit/pixel) – Сезон 9: 24 серии – WEB-DLRipАудио: Русский: 48 kHz, MPEG Layer 3, 2 ch, ~160.00 kbps avg

Знаете ли вы, что...

» В одной из серий к Барни приезжает его брат, Джеймс, который является геем. В реальной жизни исполнитель роли Барни, Нил Патрик Харрис — представитель секс-меньшинств. » Вступительную песню под названием «Hey Beautiful» исполняет группа «The Solids», основателями которой являются создатели сериала Томас Крейг и Картер Бейз. » Братский кодекс (англ. The Bro Code), про который так часто упоминает Барни на протяжении всего сериала, был выпущен издательством «Simon & Schuster» в 2008 году. » Прообразом бара «MacLaren`s» — любимого бара главных героев, является реально существующий в Нью-Йорке бар «McGee`s». В сериале бар назван так в честь помощника Картера Бейза — Карла МакЛарена, бармена в сериале также зовут Карл. » В квартире Маршала и Теда, как и в известном фильме «Криминальное чтиво», часы всегда показывают 4:20.

Внимание! Раздача ведётся путём добавления новых серий.

При каждом добавлении создётся новый торрент. Чтобы начать докачку новой серии, пользователям необходимо сделать следующее: 1) остановить скачивание, 2) удалить старый торрент у себя из клиента (старые серии удалять не надо), 3) скачать новый торрент и запустить его у себя в клиенте вместо старого, при этом указать клиенту путь в старую папку куда и должно происходить скачивание новых серий. Ваш клиент при этом должен произвести хеширование (проверку) старой папки (если не производит сам - помогите ему сделать это), и будет докачивать только те серии которых у вас ещё нет. Старые серии при этом не удаляются, а продолжают раздаваться! Eсли вы уже удалили старые серии, то предотвратить повторную закачку старых серий можно, отжав галочку в соответсвующих местах при запуске нового торрента.

Отчёт MediaInfo

General Complete name : ..How I Met Your MotherSeason 11 – Pilot.avi Format : AVI Format/Info : Audio Video Interleave File size : 181 MiB Duration : 22mn 4s Overall bit rate : 1 146 Kbps Writing application : Nandub v1.0rc2 Writing library : VirtualDub-MPEG2 build 24586/release

Video ID : 0 Format : MPEG-4 Visual Format profile : [email protected] Format settings, BVOP : 2 Format settings, QPel : No Format settings, GMC : No warppoints Format settings, Matrix : Default (MPEG) Codec ID : XVID Codec ID/Hint : XviD Duration : 22mn 4s Bit rate : 977 Kbps Width : 624 pixels Height : 352 pixels Display aspect ratio : 16:9 Frame rate : 23.976 fps Color space : YUV Chroma subsampling : 4:2:0 Bit depth : 8 bits Scan type : Progressive Compression mode : Lossy Bits/(Pixel*Frame) : 0.185 Stream size : 154 MiB (85%) Writing library : XviD 1.1.0 Beta2 (UTC 2005-04-04)

Audio ID : 1 Format : MPEG Audio Format version : Version 1 Format profile : Layer 3 Codec ID : 55 Codec ID/Hint : MP3 Duration : 22mn 4s Bit rate mode : Constant Bit rate : 160 Kbps Channel(s) : 2 channels Sampling rate : 48.0 KHz Compression mode : Lossy Stream size : 25.3 MiB (14%) Alignment : Aligned on interleaves Interleave, duration : 42 ms (1.00 video frame) Interleave, preload duration : 504 ms

Скриншот с названием

main-rutor.org

rutor.org :: Как Я Встретил Вашу Маму / How I Met Your Mother [S09] (2013) WEB-DLRip

Как Я Встретил Вашу Маму / How I Met Your Mother

Год выпуска: 2013Страна: СШАЖанр: комедия, мелодрамаПродолжительность: 00:22:00Перевод: Профессиональный (одноголосый, закадровый) - Кураж-Бамбей

Режиссёр: Памела Фрайман, Роб Гринберг, Майкл ШиВ ролях: Джош Рэднор, Джейсон Сегел, Коби Смалдерс, Нил Патрик Хэррис, Эллисон Хэнниган и др.

Описание: Как я встретил вашу маму — комедия про Теда и про то, как он влюбился. Все неприятности начинаются с того, что лучший друг Теда, Маршалл вдруг неожиданно сообщил, что он хочет сделать предложение своей давней подруге, Лили, воспитательнице детского сада. К тому времени Тед понимает, что ему нужно прилагать больше усилий, если он действительно надеется найти свою настоящую любовь. Помогает ему в этих поисках его друг Барни, убежденный холостяк, вечно со своим, иногда чересчур, мнением на все происходящее, со склонностью к костюмам и верным способом познакомиться с девушками. Когда Тед встречает Робин, он решает, что это любовь с первого взгляда, но у судьбы в запасе есть кое-что еще.

Дополнительная информация:Озвучка: Кураж-БамбейПодготовка видео: TaLi4Постер: TaLi4

Сэмпл: http://multi-up.com/907619 | http://files.neolabs.kz/fl/?id=61000

Тех. данные:Качество: WEB-DLRipФормат: AVIВидео кодек: XviDАудио кодек: MP3Видео: 720x400 (1.80:1), 23.976 fps, XviD build 64 ~1248 kbps avg, 0.18 bit/pixelАудио #1: 48 kHz, MPEG Layer 3, 2 ch, ~128.00 kbps avg | Кураж-Бамбей |Аудио #2: 48 kHz, MPEG Layer 3, 2 ch, ~128.00 kbps avg | Оригинал |

01. The Locket 02. Coming Back 03. Last Time in New York 04. The Broken Code 05. The Poker Game 06. Knight Vision 07. No Questions Asked 08. The Lighthouse 09. Platonish 10. Mom and Dad 11. Bedtime Stories 12. The Rehearsal Dinner 13. Bass Player Wanted 14. Slapsgiving 3: Slappointment in Slapmarra 15. Unpause 16. How Your Mother Met Me 17. Sunrise 18. Rally 19. Vesuvius 20. Daisy 21. Gary Blauman 22. The End of the Aisle 23. Last Forever: Part One 24. Last Forever: Part Two

MediaInfo

General Complete name : C:UsersАдминистраторDesktopРаздачиHow I Met You Mother Season 9 Kuraj-Bambeyhow.i.met.your.mother.s09e01.web-dlrip.rus.eng.Kuraj-Bambey.avi Format : AVI Format/Info : Audio Video Interleave File size : 235 MiB Duration : 21mn 36s Overall bit rate : 1 520 Kbps Writing application : VirtualDubMod 1.5.10.3 (build 2550/release) Writing library : VirtualDubMod build 2550/release

Video ID : 0 Format : MPEG-4 Visual Format profile : Advanced [email protected] Format settings, BVOP : 2 Format settings, QPel : No Format settings, GMC : No warppoints Format settings, Matrix : Default (H.263) Codec ID : XVID Codec ID/Hint : XviD Duration : 21mn 36s Bit rate : 1 250 Kbps Width : 720 pixels Height : 400 pixels Display aspect ratio : 16:9 Frame rate : 23.976 fps Color space : YUV Chroma subsampling : 4:2:0 Bit depth : 8 bits Scan type : Progressive Compression mode : Lossy Bits/(Pixel*Frame) : 0.181 Stream size : 193 MiB (82%) Writing library : XviD 64

Audio #1 ID : 1 Format : MPEG Audio Format version : Version 1 Format profile : Layer 3 Mode : Joint stereo Mode extension : MS Stereo Codec ID : 55 Codec ID/Hint : MP3 Duration : 21mn 36s Bit rate mode : Constant Bit rate : 128 Kbps Channel(s) : 2 channels Sampling rate : 48.0 KHz Compression mode : Lossy Stream size : 19.8 MiB (8%) Alignment : Aligned on interleaves Interleave, duration : 42 ms (1.00 video frame) Interleave, preload duration : 504 ms Writing library : LAME3.99r Encoding settings : -m j -V 4 -q 3 -lowpass 17 -b 128

Audio #2 ID : 2 Format : MPEG Audio Format version : Version 1 Format profile : Layer 3 Mode : Joint stereo Mode extension : MS Stereo Codec ID : 55 Codec ID/Hint : MP3 Duration : 21mn 36s Bit rate mode : Constant Bit rate : 128 Kbps Channel(s) : 2 channels Sampling rate : 48.0 KHz Compression mode : Lossy Stream size : 19.8 MiB (8%) Alignment : Aligned on interleaves Interleave, duration : 42 ms (1.00 video frame) Interleave, preload duration : 504 ms Writing library : LAME3.99r Encoding settings : -m j -V 4 -q 0 -lowpass 17 -b 128

Внимание! Раздача ведётся путём добавления новых серий

Внимание! Раздача ведётся путём добавления новых серий; при каждом добавлении создётся новый торрент. Чтобы начать докачку новой серии, пользователям необходимо сделать следующее: (1) остановить скачивание, (2) удалить старый торрент у себя из клиента (старые серии удалять не надо), (3) скачать новый торрент и запустить его у себя в клиенте вместо старого, при этом указать клиенту путь в старую папку куда и должно происходить скачивание новых серий.

Ваш клиент при этом должен произвести хеширование (проверку) старой папки (если не производит сам - помогите ему сделать это), и будет докачивать только те серии которых у вас ещё нет. Старые серии при этом не удаляются, а продолжают раздаваться!

Eсли вы уже удалили старые серии, то предотвратить повторную закачку старых серий можно, отжав галочку в соответсвующих местах при запуске нового торрента. По возможности, желательно не удалять старые серии как можно дольше чтобы релизёр не столько продолжал раздавать старые серии, а смог сконцентрироваться на новых.

main-rutor.org

rutor.org :: Как я встретил вашу маму / How I Met Your Mother [S06] (2010-2011) WEB-DL 720p

Информация о сериалеНазвание: Как я встретил вашу мамуОригинальное название: How I Met Your MotherГоды выхода: 2010-2011Жанр: комедия, мелодрамаАвторы идеи: Картер Бэйс /Carter Bays/, Крейг Томас /Craig Thomas/Режиссеры: Памела Фрайман /Pamela Fryman/, Роб Гринберг /Rob Greenberg/, Майкл Дж. Ши /Michael J. Shea/ и др.В ролях: Джош Рэднор /Josh Radnor/, Нил Патрик Харрис /Neil Patrick Harris/, Коби Смолдерс /Cobie Smulders/, Джейсон Сигел /Jason Segel/, Элисон Хэннигэн /Alyson Hannigan/, Боб Сагет /Bob Saget/, Линдси Фонсека /Lyndsy Fonseca/, Дэвид Генри /David Henrie/, Дженнифер Моррисон /Jennifer Morrison/, Боб Оденкёрк /Bob Odenkirk/ и др.

О сериале: «Как я встретил вашу маму» — комедия про Теда и про то, как он влюбился. Все неприятности начинаются с того, что лучший друг Теда, Маршалл, вдруг неожиданно сообщил, что он хочет сделать предложение своей давней подруге, Лили, воспитательнице детского сада. К тому времени Тед понимает, что ему нужно прилагать больше усилий, если он действительно надеется найти свою настоящую любовь. Помогает ему в этих поисках его друг Барни, убежденный холостяк, вечно со своим, иногда чересчур, мнением на все происходящее, со склонностью к костюмам и верным способом познакомиться с девушками. Когда Тед встречает Робин, он решает, что это любовь с первого взгляда, но у судьбы в запасе есть кое-что еще.

Страна: СШАСтудии: 20th Century Fox Television / Bays Thomas ProductionsПродолжительность: 24 x ~ 00:22:00Перевод:

  • Профессиональный (одноголосый, закадровый) - Кураж-Бамбей
  • Профессиональный (двухголосый, закадровый) - Кураж-Бамбей по заказу Paramount Comedy
  • Профессиональный (многоголосый, закадровый) - Кравец по заказу MTV /кроме 5-й серии - в ней перевод SDI Media/

    ФайлКодек: H.264Качество: WEB-DL 720p Видео: 1280x720 at 23.976 fps, MPEG-4 AVC, ~4000 kbps avgАудио#1: Russian: 48 kHz, AC3, 3/2 (L,C,R,l,r) + LFE ch, ~384.00 kbps avg |Одноголосый закадровый, Кураж-Бамбей|Аудио#2: Russian: 48 kHz, AC3, 2/0 (L,R) ch, ~192.00 kbps avg |Двухголосый закадровый, Paramount Comedy|Аудио#3: Russian: 48 kHz, AC3, 2/0 (L,R) ch, ~192.00 kbps avg |Многоголосый закадровый, MTV|Аудио#4: English: 48 kHz, AC3, 3/2 (L,C,R,l,r) + LFE ch, ~384.00 kbps avg |Оригинал|Субтитры: Russian (Full), English (Full)

    MediaInfo

    General Complete name : HIMYM.S06E01.720p.WEB-DL.3xRus.Eng.mkv Format : Matroska Format version : Version 4 / Version 2 File size : 784 MiB Duration : 21mn 36s Overall bit rate : 5 069 Kbps Movie name : How I Met Your Mother - Season 6 Episode 1 - Big Days / Особенные дни Encoded date : UTC 2015-07-31 21:50:28 Writing application : mkvmerge v7.7.0 ('Six Voices') 32bit built on Feb 28 2015 23:23:00 Writing library : libebml v1.3.1 + libmatroska v1.4.2 DURATION : 00:21:36.800000000 NUMBER_OF_FRAMES : 40525 NUMBER_OF_BYTES : 31123200 _STATISTICS_WRITING_APP : mkvmerge v7.7.0 ('Six Voices') 32bit built on Feb 28 2015 23:23:00 _STATISTICS_WRITING_DATE_UTC : 2015-07-31 21:50:28 _STATISTICS_TAGS : BPS DURATION NUMBER_OF_FRAMES NUMBER_OF_BYTES

    Video ID : 1 Format : AVC Format/Info : Advanced Video Codec Format profile : [email protected] Format settings, CABAC : No Format settings, ReFrames : 2 frames Codec ID : V_MPEG4/ISO/AVC Duration : 21mn 37s Bit rate : 3 816 Kbps Width : 1 280 pixels Height : 720 pixels Display aspect ratio : 16:9 Frame rate mode : Constant Frame rate : 23.976 fps Color space : YUV Chroma subsampling : 4:2:0 Bit depth : 8 bits Scan type : Progressive Bits/(Pixel*Frame) : 0.173 Stream size : 590 MiB (75%) Title : HIMYM - S06E01 - Big Days Language : English Default : Yes Forced : No Color range : Limited Color primaries : BT.709 Transfer characteristics : BT.709 Matrix coefficients : BT.709

    Audio #1 ID : 2 Format : AC-3 Format/Info : Audio Coding 3 Mode extension : CM (complete main) Format settings, Endianness : Big Codec ID : A_AC3 Duration : 21mn 36s Bit rate mode : Constant Bit rate : 384 Kbps Channel(s) : 6 channels Channel positions : Front: L C R, Side: L R, LFE Sampling rate : 48.0 KHz Compression mode : Lossy Stream size : 59.4 MiB (8%) Title : VO Кураж-Бамбей Language : Russian Default : Yes Forced : No

    Audio #2 ID : 3 Format : AC-3 Format/Info : Audio Coding 3 Mode extension : CM (complete main) Format settings, Endianness : Big Codec ID : A_AC3 Duration : 21mn 36s Bit rate mode : Constant Bit rate : 192 Kbps Channel(s) : 2 channels Channel positions : Front: L R Sampling rate : 48.0 KHz Compression mode : Lossy Stream size : 29.7 MiB (4%) Title : DVO Paramount Comedy / Кураж-Бамбей 2015 Language : Russian Default : No Forced : No

    Audio #3 ID : 4 Format : AC-3 Format/Info : Audio Coding 3 Mode extension : CM (complete main) Format settings, Endianness : Big Codec ID : A_AC3 Duration : 21mn 36s Bit rate mode : Constant Bit rate : 192 Kbps Channel(s) : 2 channels Channel positions : Front: L R Sampling rate : 48.0 KHz Compression mode : Lossy Stream size : 29.7 MiB (4%) Title : MVO Кравец Language : Russian Default : No Forced : No

    Audio #4 ID : 5 Format : AC-3 Format/Info : Audio Coding 3 Mode extension : CM (complete main) Format settings, Endianness : Big Codec ID : A_AC3 Duration : 21mn 36s Bit rate mode : Constant Bit rate : 384 Kbps Channel(s) : 6 channels Channel positions : Front: L C R, Side: L R, LFE Sampling rate : 48.0 KHz Compression mode : Lossy Stream size : 59.4 MiB (8%) Title : Original Language : English Default : No Forced : No

    Text #1 ID : 6 Format : UTF-8 Codec ID : S_TEXT/UTF8 Codec ID/Info : UTF-8 Plain Text Language : Russian Default : No Forced : No

    Text #2 ID : 7 Format : UTF-8 Codec ID : S_TEXT/UTF8 Codec ID/Info : UTF-8 Plain Text Language : English Default : No Forced : No

    Список серий

    01. Big Days / Особенные дни 02. Cleaning House / Уборка дома 03. Unfinished / Незавершённые дела 04. Subway Wars / Войны в подземке 05. Architect of Destruction / Архитектор разрушения 06. Baby Talk / Детский лепет 07. Canning Randy / Увольнение Рэнди 08. Natural History / Естественная история 09. Glitter / Блестяшка 10. Blitzgiving / День Блитцедарения 11. The Mermaid Theory / Теория русалок 12. False Positive / Ложноположительный 13. Bad News / Плохие новости 14. Last Words / Последние слова 15. Oh Honey / Ох, милочка 16. Desperation Day / День отчаяния 17. Garbage Island / Остров мусора 18. A Change of Heart / Изменение сердца 19. Legendaddy / Легенпапочка 20. The Exploding Meatball Sub / Взрываюшийся бутерброд с фрикадельками 21. Hopeless / Безнадёга 22. The Perfect Cocktail / Идеальный коктейль 23. Landmarks / Достопримечательности 24. Challenge Accepted / Вызов принят

    Дополнительная информация

    ЦитатаКто-то писал:
  • В связи с тем, что на MTV не была показала 5-я серию, в ней вместо перевода MTV перевод SDI Media (запись с телеканала Беларусь 2).
  • main-rutor.org

    rutor.org :: Как я встретил вашу маму / How I Met Your Mother [S01] (2005-2006) WEB-DL 720p

    Информация о сериалеНазвание: Как я встретил вашу мамуОригинальное название: How I Met Your MotherГоды выхода: 2005-2006Жанр: комедия, мелодрамаАвторы идеи: Картер Бэйс /Carter Bays/, Крейг Томас /Craig Thomas/Режиссеры: Памела Фрайман /Pamela Fryman/, Роб Гринберг /Rob Greenberg/, Майкл Дж. Ши /Michael J. Shea/ и др.В ролях: Джош Рэднор /Josh Radnor/, Нил Патрик Харрис /Neil Patrick Harris/, Коби Смолдерс /Cobie Smulders/, Джейсон Сигел /Jason Segel/, Элисон Хэннигэн /Alyson Hannigan/, Линдси Фонсека /Lyndsy Fonseca/, Дэвид Генри /David Henrie/, Эшли Уильямс /Ashley Williams/ и др.

    О сериале: «Как я встретил вашу маму» — комедия про Теда и про то, как он влюбился. Все неприятности начинаются с того, что лучший друг Теда, Маршалл, вдруг неожиданно сообщил, что он хочет сделать предложение своей давней подруге, Лили, воспитательнице детского сада. К тому времени Тед понимает, что ему нужно прилагать больше усилий, если он действительно надеется найти свою настоящую любовь. Помогает ему в этих поисках его друг Барни, убежденный холостяк, вечно со своим, иногда чересчур, мнением на все происходящее, со склонностью к костюмам и верным способом познакомиться с девушками. Когда Тед встречает Робин, он решает, что это любовь с первого взгляда, но у судьбы в запасе есть кое-что еще.

    Страна: СШАСтудии: 20th Century Fox Television / Bays Thomas ProductionsПродолжительность: 22 x ~ 00:43:00Перевод:

  • Профессиональный (одноголосый, закадровый) - Кураж-Бамбей
  • Профессиональный (двухголосый, закадровый) - Кураж-Бамбей по заказу Paramount Comedy
  • Профессиональный (многоголосый, закадровый) - студия "Kravec" по заказу MTV

    ФайлКодек: H.264Качество: WEB-DL 720p Видео: 1280x720 at 23.976 fps, MPEG-4 AVC, ~4000 kbps avgАудио#1: Russian: 48 kHz, AC3, 2/0 (L,R) ch, ~192.00 kbps avg |Одноголосый закадровый, Кураж-Бамбей|Аудио#2: Russian: 48 kHz, AC3, 3/2 (L,C,R,l,r) + LFE ch, ~384.00 kbps avg |Двухголосый закадровый, Кураж-Бамбей по заказу Paramount Comedy|Аудио#3: Russian: 48 kHz, AC3, 2/0 (L,R) ch, ~192.00 kbps avg |Многоголосый закадровый, студия "Kravec" по заказу MTV|Аудио#4: English: 48 kHz, AC3, 3/2 (L,C,R,l,r) + LFE ch, ~384.00 kbps avg |Оригинал|Субтитры: Russian (Full - Vers), English (SDH)

    MediaInfo

    General Complete name : HIMYM.S01E01.720p.WEB-DL.3xRus.Eng.mkv Format : Matroska Format version : Version 4 / Version 2 File size : 842 MiB Duration : 22mn 7s Overall bit rate : 5 322 Kbps Movie name : How I Met Your Mother - Season 1 Episode 1 - Pilot / Пилот Encoded date : UTC 2014-10-26 12:19:05 Writing application : mkvmerge v7.0.0 ('Where We Going') 32bit built on Jun 9 2014 15:08:34 Writing library : libebml v1.3.0 + libmatroska v1.4.1 _STATISTICS_WRITING_APP : mkvmerge v7.0.0 ('Where We Going') 32bit built on Jun 9 2014 15:08:34 _STATISTICS_WRITING_DATE_UT : 2014-10-26 12:19:05 _STATISTICS_TAGS : BPS DURATION NUMBER_OF_FRAMES NUMBER_OF_BYTES DURATION : 00:22:07.104000000 NUMBER_OF_FRAMES : 41472 NUMBER_OF_BYTES : 31850496

    Video ID : 1 Format : AVC Format/Info : Advanced Video Codec Format profile : [email protected] Format settings, CABAC : No Format settings, ReFrames : 2 frames Codec ID : V_MPEG4/ISO/AVC Duration : 22mn 7s Bit rate : 4 064 Kbps Width : 1 280 pixels Height : 720 pixels Display aspect ratio : 16:9 Frame rate mode : Constant Frame rate : 23.976 fps Color space : YUV Chroma subsampling : 4:2:0 Bit depth : 8 bits Scan type : Progressive Bits/(Pixel*Frame) : 0.184 Stream size : 643 MiB (76%) Title : HIMYM - S01E01 - Pilot Language : English Default : Yes Forced : No Color range : Limited Color primaries : BT.709 Transfer characteristics : BT.709 Matrix coefficients : BT.709

    Audio #1 ID : 2 Format : AC-3 Format/Info : Audio Coding 3 Mode extension : CM (complete main) Format settings, Endianness : Big Codec ID : A_AC3 Duration : 22mn 7s Bit rate mode : Constant Bit rate : 192 Kbps Channel(s) : 2 channels Channel positions : Front: L R Sampling rate : 48.0 KHz Compression mode : Lossy Stream size : 30.4 MiB (4%) Title : VO Кураж-Бамбей Language : Russian Default : Yes Forced : No

    Audio #2 ID : 3 Format : AC-3 Format/Info : Audio Coding 3 Mode extension : CM (complete main) Format settings, Endianness : Big Codec ID : A_AC3 Duration : 22mn 7s Bit rate mode : Constant Bit rate : 384 Kbps Channel(s) : 6 channels Channel positions : Front: L C R, Side: L R, LFE Sampling rate : 48.0 KHz Compression mode : Lossy Stream size : 60.8 MiB (7%) Title : DVO Paramount Comedy / Кураж-Бамбей 2014 Language : Russian Default : No Forced : No

    Audio #3 ID : 4 Format : AC-3 Format/Info : Audio Coding 3 Mode extension : CM (complete main) Format settings, Endianness : Big Codec ID : A_AC3 Duration : 22mn 7s Bit rate mode : Constant Bit rate : 192 Kbps Channel(s) : 2 channels Channel positions : Front: L R Sampling rate : 48.0 KHz Compression mode : Lossy Stream size : 30.4 MiB (4%) Title : MVO MTV / Кравец Language : Russian Default : No Forced : No

    Audio #4 ID : 5 Format : AC-3 Format/Info : Audio Coding 3 Mode extension : CM (complete main) Format settings, Endianness : Big Codec ID : A_AC3 Duration : 22mn 7s Bit rate mode : Constant Bit rate : 384 Kbps Channel(s) : 6 channels Channel positions : Front: L C R, Side: L R, LFE Sampling rate : 48.0 KHz Compression mode : Lossy Stream size : 60.8 MiB (7%) Title : Original Language : English Default : No Forced : No

    Text #1 ID : 6 Format : UTF-8 Codec ID : S_TEXT/UTF8 Codec ID/Info : UTF-8 Plain Text Title : Vers Language : Russian Default : No Forced : No

    Text #2 ID : 7 Format : UTF-8 Codec ID : S_TEXT/UTF8 Codec ID/Info : UTF-8 Plain Text Title : Original Language : English Default : No Forced : No

    Список серий

    01. Pilot / Пилотная серия 02. Purple Giraffe / Фиолетовый жираф 03. Sweet Taste of Liberty / Сладкий вкус свободы 04. Return of the Shirt / Возвращение рубашки 05. Okay Awesome / Клёвый 'Окей' 06. Slutty Pumpkin / Шлюшка-тыква 07. Matchmaker / Сваха 08. The Duel / Дуэль 09. Belly Full of Turkey / Полный живот индейки 10. The Pineapple Incident / Случай с ананасом 11. The Limo / Лимузин 12. The Wedding / Свадьба 13. Drumroll, Please / Барабанную дробь, пожалуйста 14. Zip, Zip, Zip / Застегивание молнии 15. Game Night / Ночь игр 16. Cupcake / Кекс 17. Life Among the Gorillas / Жизнь среди горилл 18. Nothing Good Happens After 2 A.M. / Ничего хорошего не происходит после двух часов ночи 19. Mary the Paralegal / Помощник юриста Мэри 20. Best Prom Ever / Самый лучший выпускной 21. Milk / Молоко 22. Come On / Ну же
  • main-rutor.org

    rutor.org :: Как я встретил вашу маму / How I Met Your Mother [S02] (2006-2007) WEB-DL 720p

    Информация о сериалеНазвание: Как я встретил вашу мамуОригинальное название: How I Met Your MotherГоды выхода: 2006-2007Жанр: комедия, мелодрамаАвторы идеи: Картер Бэйс /Carter Bays/, Крейг Томас /Craig Thomas/Режиссеры: Памела Фрайман /Pamela Fryman/, Роб Гринберг /Rob Greenberg/, Майкл Дж. Ши /Michael J. Shea/ и др.В ролях: Джош Рэднор /Josh Radnor/, Нил Патрик Харрис /Neil Patrick Harris/, Коби Смолдерс /Cobie Smulders/, Джейсон Сигел /Jason Segel/, Элисон Хэннигэн /Alyson Hannigan/, Боб Сагет /Bob Saget/, Линдси Фонсека /Lyndsy Fonseca/, Дэвид Генри /David Henrie/, Джо Ниевес /Joe Nieves/ и др.

    О сериале: «Как я встретил вашу маму» — комедия про Теда и про то, как он влюбился. Все неприятности начинаются с того, что лучший друг Теда, Маршалл, вдруг неожиданно сообщил, что он хочет сделать предложение своей давней подруге, Лили, воспитательнице детского сада. К тому времени Тед понимает, что ему нужно прилагать больше усилий, если он действительно надеется найти свою настоящую любовь. Помогает ему в этих поисках его друг Барни, убежденный холостяк, вечно со своим, иногда чересчур, мнением на все происходящее, со склонностью к костюмам и верным способом познакомиться с девушками. Когда Тед встречает Робин, он решает, что это любовь с первого взгляда, но у судьбы в запасе есть кое-что еще.

    Страна: СШАСтудии: 20th Century Fox Television / Bays Thomas ProductionsПродолжительность: 22 x ~ 00:22:00Перевод:

  • Профессиональный (одноголосый, закадровый) - Кураж-Бамбей
  • Профессиональный (двухголосый, закадровый) - Кураж-Бамбей по заказу Paramount Comedy
  • Профессиональный (многоголосый, закадровый) - Кравец по заказу MTV

    ФайлКодек: H.264Качество: WEB-DL 720p Видео: 1280x720 at 23.976 fps, MPEG-4 AVC, ~4000 kbps avgАудио#1: Russian: 48 kHz, AC3, 2/0 (L,R) ch, ~192.00 kbps avg |Одноголосый закадровый, Кураж-Бамбей|Аудио#2: Russian: 48 kHz, AC3, 3/2 (L,C,R,l,r) + LFE ch, ~384.00 kbps avg |Двухголосый закадровый, Paramount Comedy|Аудио#3: Russian: 48 kHz, AC3, 2/0 (L,R) ch, ~192.00 kbps avg |Многоголосый закадровый, MTV|Аудио#4: English: 48 kHz, AC3, 3/2 (L,C,R,l,r) + LFE ch, ~384.00 kbps avg |Оригинал|Субтитры: Russian (Full - Vers), English (SDH)

    MediaInfo

    General Complete name : HIMYM.S02E01.720p.WEB-DL.3xRus.Eng.mkv Format : Matroska Format version : Version 4 / Version 2 File size : 793 MiB Duration : 21mn 21s Overall bit rate : 5 191 Kbps Movie name : How I Met Your Mother - Season 2 Episode 1 - Where Were We? / На чём мы остановились? Encoded date : UTC 2014-11-17 16:44:07 Writing application : mkvmerge v7.0.0 ('Where We Going') 32bit built on Jun 9 2014 15:08:34 Writing library : libebml v1.3.0 + libmatroska v1.4.1 DURATION : 00:20:49.929000000 NUMBER_OF_FRAMES : 424 NUMBER_OF_BYTES : 31185 _STATISTICS_WRITING_APP : mkvmerge v7.0.0 ('Where We Going') 32bit built on Jun 9 2014 15:08:34 _STATISTICS_WRITING_DATE_UTC : 2014-11-17 16:44:07 _STATISTICS_TAGS : BPS DURATION NUMBER_OF_FRAMES NUMBER_OF_BYTES

    Video ID : 1 Format : AVC Format/Info : Advanced Video Codec Format profile : [email protected] Format settings, CABAC : No Format settings, ReFrames : 2 frames Codec ID : V_MPEG4/ISO/AVC Duration : 21mn 21s Bit rate : 3 936 Kbps Width : 1 280 pixels Height : 720 pixels Display aspect ratio : 16:9 Frame rate mode : Constant Frame rate : 23.976 fps Color space : YUV Chroma subsampling : 4:2:0 Bit depth : 8 bits Scan type : Progressive Bits/(Pixel*Frame) : 0.178 Stream size : 601 MiB (76%) Title : HIMYM - S02E01 - Where Were We? Language : English Default : Yes Forced : No Color range : Limited Color primaries : BT.709 Transfer characteristics : BT.709 Matrix coefficients : BT.709

    Audio #1 ID : 2 Format : AC-3 Format/Info : Audio Coding 3 Mode extension : CM (complete main) Format settings, Endianness : Big Codec ID : A_AC3 Duration : 21mn 21s Bit rate mode : Constant Bit rate : 192 Kbps Channel(s) : 2 channels Channel positions : Front: L R Sampling rate : 48.0 KHz Compression mode : Lossy Stream size : 29.3 MiB (4%) Title : VO Кураж-Бамбей Language : Russian Default : Yes Forced : No

    Audio #2 ID : 3 Format : AC-3 Format/Info : Audio Coding 3 Mode extension : CM (complete main) Format settings, Endianness : Big Codec ID : A_AC3 Duration : 21mn 21s Bit rate mode : Constant Bit rate : 384 Kbps Channel(s) : 6 channels Channel positions : Front: L C R, Side: L R, LFE Sampling rate : 48.0 KHz Compression mode : Lossy Stream size : 58.6 MiB (7%) Title : DVO Paramount Comedy / Кураж-Бамбей 2014 Language : Russian Default : No Forced : No

    Audio #3 ID : 4 Format : AC-3 Format/Info : Audio Coding 3 Mode extension : CM (complete main) Format settings, Endianness : Big Codec ID : A_AC3 Duration : 21mn 21s Bit rate mode : Constant Bit rate : 192 Kbps Channel(s) : 2 channels Channel positions : Front: L R Sampling rate : 48.0 KHz Compression mode : Lossy Stream size : 29.3 MiB (4%) Title : MVO MTV / Кравец Language : Russian Default : No Forced : No

    Audio #4 ID : 5 Format : AC-3 Format/Info : Audio Coding 3 Mode extension : CM (complete main) Format settings, Endianness : Big Codec ID : A_AC3 Duration : 21mn 21s Bit rate mode : Constant Bit rate : 384 Kbps Channel(s) : 6 channels Channel positions : Front: L C R, Side: L R, LFE Sampling rate : 48.0 KHz Compression mode : Lossy Stream size : 58.6 MiB (7%) Title : Original Language : English Default : No Forced : No

    Text #1 ID : 6 Format : UTF-8 Codec ID : S_TEXT/UTF8 Codec ID/Info : UTF-8 Plain Text Title : Vers Language : Russian Default : No Forced : No

    Text #2 ID : 7 Format : UTF-8 Codec ID : S_TEXT/UTF8 Codec ID/Info : UTF-8 Plain Text Title : Original Language : English Default : No Forced : No

    Список серий

    01. Where Were We? / На чём мы остановились? 02. The Scorpion and the Toad / Скорпион и жаба 03. Brunch / Завтрак 04. Ted Mosby, Architect / Тед Мосби: Архитектор 05. World's Greatest Couple / Самая лучшая в мире пара 06. Aldrin Justice / Правосудие Олдрин 07. Swarley / Сварли 08. Atlantic City / Атлантик-сити 09. Slap Bet / Спор на пощёчины 10. Single Stamina / Жизненная сила холостяка 11. How Lily Stole Christmas / Как Лили украла Рождество 12. First Time in New York / Первый раз в Нью-Йорке 13. Columns / Колонны 14. Monday Night Football / Футбол в понедельник вечером 15. Lucky Penny / Счастливый пенни 16. Stuff / Вещи 17. Arrivederci, Fiero / Аривидерчи, Фиеро 18. Moving Day / День переезда 19. Bachelor Party / Мальчишник 20. Showdown / Поединок 21. Something Borrowed / Кое-что позаимствованное 22. Something Blue / Кое-что синее
  • main-rutor.org


    Смотрите также