Кровавый спорт все части скачать торрент


Скачать фильм Кровавый спорт (1988) через торрент

12 августа 2016 06:48 Кровавый спорт / Bloodsport (1988) BDRemux 1080p | P, P2, A .torrent   [Информация о файле (нажмите для просмотра)] Перевод: Перевод (1): Профессиональный (многоголосый закадровый) Перевод (2): Профессиональный (многоголосый закадровый) ICTV Перевод (3): Профессиональный (двухголосый закадровый) НТВ Перевод (4): Профессиональный (двухголосый закадровый) Лицензия (хотя очень смахивает на любительский) Перевод (5): Профессиональный (одноголосый закадровый) Володарский Перевод (6): Профессиональный (одноголосый закадровый) Горчаков Перевод (7): Профессиональный (одноголосый закадровый) ДохаловКодек: VC-1Качество: BDRemux 1080pВидео: 18524 Кбит/с, 1920x1080, 23.976 кадр/сЗвук: Аудио 1: Russian: 48 kHz/24-bit, DTS-HD MA 2.0, ~1716 kbps (DTS Core: 2.0 / 48 kHz / 768 kbps / 24-bit) [Многоголосый] Аудио 2: Ukrainian: 48 kHz, AC3, 2/0 (L,R) ch, ~192 kbps [Многоголосый, ICTV] Аудио 3: Russian: 48 kHz, AC3, 2/0 (L,R) ch, ~192kbps [Двухголосый, НТВ] Аудио 4: Russian: 48 kHz, AC3, 2/0 (L,R) ch, ~384 kbps [Двухголосый, R5] Аудио 5: Russian: 48 kHz, AC3, 2/0 (L,R) ch, ~384 kbps [Одноголосый, Л.Володарский] Аудио 6: Russian: 48 kHz, AC3, 2/0 (L,R) ch, ~192 kbps [Одноголосый, В.Горчаков] Аудио 7: Russian: 48 kHz/24-bit, DTS-HD MA 2.0, ~1707 kbps (DTS Core: 2.0 / 48 kHz / 768 kbps / 24-bit) [Одноголосый, В.Дохалов] Аудио 8: English: 48 kHz/24-bit, DTS-HD MA 2.0, ~1692 kbps (DTS Core: 2.0 / 48 kHz / 768 kbps / 24-bit)Субтитры: Russian, English, French, Spanish 17,28 Gb 3 3 12 августа 2016 06:48 Кровавый спорт / Bloodsport (1988) BDRip 1080p by msltel | P, P2, A .torrent   [Информация о файле (нажмите для просмотра)] Качество: BDRip 1080pСравнение с исходникомВидео: MPEG-4 AVC, 15.7 Mбит/с, 1920х1080, 23,976 кадра/с, 0.316 bppАудио 1: русский, DTS, 768 kbps, 2 ch, 48 kHz [профессиональный многоголосый]Аудио 2: русский, AC3, 192 kbps, 2 ch, 48 kHz [профессиональный двухголосый, HTB]Аудио 3: русский, AC3, 384 kbps, 2 ch, 48 kHz [авторский, Леонид Володарский]Аудио 4: русский, AC3, 192 kbps, 2 ch, 48 kHz [авторский, Василий Горчаков]Аудио 5: русский, DTS, 768 kbps, 2 ch, 48 kHz [авторский, Вартан Дохалов]Аудио: русский, AC3, 192 kbps, 2 ch, 48 kHz [профессиональный многоголосый]Аудио: русский, AC3, 192 kbps, 2 ch, 48 kHz [авторский, Вартан Дохалов]Аудио: английский, DTS, 768 kbps, 2 ch, 48 kHz [оригинал]Субтитры: русскиеСубтитры: английскиеАудио: Формат : AC-3 Формат/Информация : Audio Coding 3 Расширение режима : CM (complete main) Параметр Endianness формата : Big Продолжительность : 1 ч. 32 м. Вид битрейта : Постоянный Битрейт : 192 Кбит/сек Каналы : 2 канала Расположение каналов : Front: L R Частота : 48,0 КГц Битовая глубина : 16 бит Метод сжатия : С потерями Размер потока : 127 Мбайт (100%)Видео: Идентификатор : 1 Формат : AVC Формат/Информация : Advanced Video Codec Профиль формата : [email protected] Параметр CABAC формата : Да Параметр ReFrames формата : 4 кадра Идентификатор кодека : V_MPEG4/ISO/AVC Продолжительность : 1 ч. 32 м. Битрейт : 15,7 Мбит/сек Ширина : 1920 пикселей Высота : 1080 пикселей Соотношение сторон : 16:9 Режим частоты кадров : Постоянный Частота кадров : 23,976 кадра/сек Цветовое пространство : YUV Субдискретизация насыщенности : 4:2:0 Битовая глубина : 8 бит Тип развёртки : Прогрессивная Бит/(Пиксели*Кадры) : 0.316 Размер потока : 10,1 Гбайт (85%) Заголовок : BDRip -- STarankov Библиотека кодирования : x264 core 142 r2431 ac76440 Настройки программы : cabac=1 / ref=4 / deblock=1:-1:-1 / analyse=0x3:0x113 / me=umh / subme=10 / psy=1 / psy_rd=1.00:0.15 / mixed_ref=1 / me_range=32 / chroma_me=1 / trellis=2 / 8x8dct=1 / cqm=0 / deadzone=21,11 / fast_pskip=0 / chroma_qp_offset=-3 / threads=6 / lookahead_threads=1 / sliced_threads=0 / nr=0 / decimate=1 / interlaced=0 / bluray_compat=0 / constrained_intra=0 / bframes=8 / b_pyramid=2 / b_adapt=2 / b_bias=0 / direct=1 / weightb=1 / open_gop=0 / weightp=2 / keyint=230 / keyint_min=23 / scenecut=40 / intra_refresh=0 / rc_lookahead=40 / rc=crf / mbtree=0 / crf=19.5 / qcomp=0.60 / qpmin=0 / qpmax=69 / qpstep=4 / vbv_maxrate=40000 / vbv_bufsize=50000 / crf_max=0.0 / nal_hrd=none / filler=0 / ip_ratio=1.40 / pb_ratio=1.30 / aq=1:1.00 Язык : English Default : Да Forced : НетАудио #1: Идентификатор : 2 Формат : DTS Формат/Информация : Digital Theater Systems Режим : 16 Параметр Endianness формата : Big Идентификатор кодека : A_DTS Продолжительность : 1 ч. 32 м. Вид битрейта : Постоянный Битрейт : 768 Кбит/сек Каналы : 2 канала Расположение каналов : Front: L R Частота : 48,0 КГц Битовая глубина : 24 бит Метод сжатия : С потерями Размер потока : 507 Мбайт (4%) Заголовок : MVO Язык : Russian Default : Да Forced : НетАудио #2: Идентификатор : 3 Формат : AC-3 Формат/Информация : Audio Coding 3 Расширение режима : CM (complete main) Параметр Endianness формата : Big Идентификатор кодека : A_AC3 Продолжительность : 1 ч. 32 м. Вид битрейта : Постоянный Битрейт : 192 Кбит/сек Каналы : 2 канала Расположение каналов : Front: L R Частота : 48,0 КГц Битовая глубина : 16 бит Метод сжатия : С потерями Размер потока : 127 Мбайт (1%) Заголовок : DVO (HTB) Язык : Russian Default : Нет Forced : НетАудио #3: Идентификатор : 4 Формат : AC-3 Формат/Информация : Audio Coding 3 Расширение режима : CM (complete main) Параметр Endianness формата : Big Идентификатор кодека : A_AC3 Продолжительность : 1 ч. 32 м. Вид битрейта : Постоянный Битрейт : 384 Кбит/сек Каналы : 2 канала Расположение каналов : Front: L R Частота : 48,0 КГц Битовая глубина : 16 бит Метод сжатия : С потерями Размер потока : 253 Мбайт (2%) Заголовок : AVO (Леонид Володарский) Язык : Russian Default : Нет Forced : НетАудио #4: Идентификатор : 5 Формат : AC-3 Формат/Информация : Audio Coding 3 Расширение режима : CM (complete main) Параметр Endianness формата : Big Идентификатор кодека : A_AC3 Продолжительность : 1 ч. 32 м. Вид битрейта : Постоянный Битрейт : 192 Кбит/сек Каналы : 2 канала Расположение каналов : Front: L R Частота : 48,0 КГц Битовая глубина : 16 бит Метод сжатия : С потерями Размер потока : 127 Мбайт (1%) Заголовок : AVO (Василий Горчаков) Язык : Russian Default : Нет Forced : НетАудио #5: Идентификатор : 6 Формат : DTS Формат/Информация : Digital Theater Systems Режим : 16 Параметр Endianness формата : Big Идентификатор кодека : A_DTS Продолжительность : 1 ч. 32 м. Вид битрейта : Постоянный Битрейт : 768 Кбит/сек Каналы : 2 канала Расположение каналов : Front: L R Частота : 48,0 КГц Битовая глубина : 24 бит Метод сжатия : С потерями Размер потока : 507 Мбайт (4%) Заголовок : AVO (Вартан Дохалов) Язык : Russian Default : Нет Forced : НетАудио: Формат : AC-3 Формат/Информация : Audio Coding 3 Расширение режима : CM (complete main) Параметр Endianness формата : Big Продолжительность : 1 ч. 32 м. Вид битрейта : Постоянный Битрейт : 192 Кбит/сек Каналы : 2 канала Расположение каналов : Front: L R Частота : 48,0 КГц Битовая глубина : 16 бит Метод сжатия : С потерями Размер потока : 127 Мбайт (100%)Аудио: Формат : DTS Формат/Информация : Digital Theater Systems Режим : 16 Параметр Endianness формата : Big Продолжительность : 1 ч. 32 м. Вид битрейта : Постоянный Битрейт : 768 Кбит/сек Каналы : 2 канала Расположение каналов : Front: L R Частота : 48,0 КГц Битовая глубина : 24 бит Метод сжатия : С потерями Размер потока : 507 Мбайт (100%) 12,59 Gb 1 3 12 августа 2016 06:48 Кровавый спорт / Bloodsport (1988) BDRip 720p by msltel | P, P2, A .torrent   [Информация о файле (нажмите для просмотра)] Качество: BDRip 720pСравнение с исходникомВидео: MPEG-4 AVC, 6231 Кбит/с, 1280х720, 23,976 кадра/с, 0.282 bppАудио 1: русский, AC3, 192 kbps, 2 ch, 48 kHz [профессиональный многоголосый]Аудио 2: русский, AC3, 192 kbps, 2 ch, 48 kHz [профессиональный двухголосый, HTB]Аудио 3: русский, AC3, 384 kbps, 2 ch, 48 kHz [авторский, Леонид Володарский]Аудио 4: русский, AC3, 192 kbps, 2 ch, 48 kHz [авторский, Василий Горчаков]Аудио 5: русский, AC3, 192 kbps, 2 ch, 48 kHz [авторский, Вартан Дохалов]Аудио: русский, DTS, 768 kbps, 2 ch, 48 kHz [профессиональный многоголосый]Аудио: русский, DTS, 768 kbps, 2 ch, 48 kHz [авторский, Вартан Дохалов]Аудио: английский, AC3, 192 kbps, 2 ch, 48 kHz [оригинал]Субтитры: русскиеСубтитры: английскиеАудио: Формат : DTS Формат/Информация : Digital Theater Systems Режим : 16 Параметр Endianness формата : Big Продолжительность : 1 ч. 32 м. Вид битрейта : Постоянный Битрейт : 768 Кбит/сек Каналы : 2 канала Расположение каналов : Front: L R Частота : 48,0 КГц Битовая глубина : 24 бит Метод сжатия : С потерями Размер потока : 507 Мбайт (100%)Видео: Идентификатор : 1 Формат : AVC Формат/Информация : Advanced Video Codec Профиль формата : [email protected] Параметр CABAC формата : Да Параметр ReFrames формата : 9 кадров Идентификатор кодека : V_MPEG4/ISO/AVC Продолжительность : 1 ч. 32 м. Битрейт : 6231 Кбит/сек Ширина : 1280 пикселей Высота : 720 пикселей Соотношение сторон : 16:9 Режим частоты кадров : Постоянный Частота кадров : 23,976 кадра/сек Цветовое пространство : YUV Субдискретизация насыщенности : 4:2:0 Битовая глубина : 8 бит Тип развёртки : Прогрессивная Бит/(Пиксели*Кадры) : 0.282 Размер потока : 4,01 Гбайт (83%) Заголовок : BDRip -- STarankov Библиотека кодирования : x264 core 142 r2431 ac76440 Настройки программы : cabac=1 / ref=9 / deblock=1:-1:-1 / analyse=0x3:0x113 / me=umh / subme=10 / psy=1 / psy_rd=1.00:0.15 / mixed_ref=1 / me_range=32 / chroma_me=1 / trellis=2 / 8x8dct=1 / cqm=0 / deadzone=21,11 / fast_pskip=0 / chroma_qp_offset=-3 / threads=6 / lookahead_threads=1 / sliced_threads=0 / nr=0 / decimate=1 / interlaced=0 / bluray_compat=0 / constrained_intra=0 / bframes=8 / b_pyramid=2 / b_adapt=2 / b_bias=0 / direct=1 / weightb=1 / open_gop=0 / weightp=2 / keyint=230 / keyint_min=23 / scenecut=40 / intra_refresh=0 / rc_lookahead=40 / rc=crf / mbtree=0 / crf=19.5 / qcomp=0.60 / qpmin=0 / qpmax=69 / qpstep=4 / vbv_maxrate=40000 / vbv_bufsize=50000 / crf_max=0.0 / nal_hrd=none / filler=0 / ip_ratio=1.40 / pb_ratio=1.30 / aq=1:1.00 Язык : English Default : Да Forced : НетАудио #1: Идентификатор : 2 Формат : AC-3 Формат/Информация : Audio Coding 3 Расширение режима : CM (complete main) Параметр Endianness формата : Big Идентификатор кодека : A_AC3 Продолжительность : 1 ч. 32 м. Вид битрейта : Постоянный Битрейт : 192 Кбит/сек Каналы : 2 канала Расположение каналов : Front: L R Частота : 48,0 КГц Битовая глубина : 16 бит Метод сжатия : С потерями Размер потока : 127 Мбайт (3%) Заголовок : MVO Язык : Russian Default : Да Forced : НетАудио #2: Идентификатор : 3 Формат : AC-3 Формат/Информация : Audio Coding 3 Расширение режима : CM (complete main) Параметр Endianness формата : Big Идентификатор кодека : A_AC3 Продолжительность : 1 ч. 32 м. Вид битрейта : Постоянный Битрейт : 192 Кбит/сек Каналы : 2 канала Расположение каналов : Front: L R Частота : 48,0 КГц Битовая глубина : 16 бит Метод сжатия : С потерями Размер потока : 127 Мбайт (3%) Заголовок : DVO (HTB) Язык : Russian Default : Нет Forced : НетАудио #3: Идентификатор : 4 Формат : AC-3 Формат/Информация : Audio Coding 3 Расширение режима : CM (complete main) Параметр Endianness формата : Big Идентификатор кодека : A_AC3 Продолжительность : 1 ч. 32 м. Вид битрейта : Постоянный Битрейт : 384 Кбит/сек Каналы : 2 канала Расположение каналов : Front: L R Частота : 48,0 КГц Битовая глубина : 16 бит Метод сжатия : С потерями Размер потока : 253 Мбайт (5%) Заголовок : AVO (Леонид Володарский) Язык : Russian Default : Нет Forced : НетАудио #4: Идентификатор : 5 Формат : AC-3 Формат/Информация : Audio Coding 3 Расширение режима : CM (complete main) Параметр Endianness формата : Big Идентификатор кодека : A_AC3 Продолжительность : 1 ч. 32 м. Вид битрейта : Постоянный Битрейт : 192 Кбит/сек Каналы : 2 канала Расположение каналов : Front: L R Частота : 48,0 КГц Битовая глубина : 16 бит Метод сжатия : С потерями Размер потока : 127 Мбайт (3%) Заголовок : AVO (Василий Горчаков) Язык : Russian Default : Нет Forced : НетАудио #5: Идентификатор : 6 Формат : AC-3 Формат/Информация : Audio Coding 3 Расширение режима : CM (complete main) Параметр Endianness формата : Big Идентификатор кодека : A_AC3 Продолжительность : 1 ч. 32 м. Вид битрейта : Постоянный Битрейт : 192 Кбит/сек Каналы : 2 канала Расположение каналов : Front: L R Частота : 48,0 КГц Битовая глубина : 16 бит Метод сжатия : С потерями Размер потока : 127 Мбайт (3%) Заголовок : AVO (Вартан Дохалов) Язык : Russian Default : Нет Forced : НетАудио: Формат : DTS Формат/Информация : Digital Theater Systems Режим : 16 Параметр Endianness формата : Big Продолжительность : 1 ч. 32 м. Вид битрейта : Постоянный Битрейт : 768 Кбит/сек Каналы : 2 канала Расположение каналов : Front: L R Частота : 48,0 КГц Битовая глубина : 24 бит Метод сжатия : С потерями Размер потока : 507 Мбайт (100%)Аудио: Формат : AC-3 Формат/Информация : Audio Coding 3 Расширение режима : CM (complete main) Параметр Endianness формата : Big Продолжительность : 1 ч. 32 м. Вид битрейта : Постоянный Битрейт : 192 Кбит/сек Каналы : 2 канала Расположение каналов : Front: L R Частота : 48,0 КГц Битовая глубина : 16 бит Метод сжатия : С потерями Размер потока : 127 Мбайт (100%) 5,97 Gb 5 3 12 августа 2016 06:48 Кровавый спорт / Bloodsport (1988) BDRip-AVC от New-Team | P .torrent   [Информация о файле (нажмите для просмотра)] Перевод: Профессиональный (многоголосый, закадровый)Качество: BDRip-AVC [Blu-ray Disc 1080p]Формат: MKVВидео: 704x396 (16:9), 23.976 fps, h364 ~ 1 063 Kbps, 0.159 bit/pixelАудио: 48 KHz / 24 KHz, AAC HE-AAC / LC, 2/0 (L,R) ch, ~64 kbps 744,3 Mb 25 2 12 августа 2016 06:48 Кровавый спорт / Bloodsport (1988) BDRip-AVC от Сотник .torrent   [Информация о файле (нажмите для просмотра)] Перевод: Авторский(В.Дохалов)Субтитры: Русские, АнглийскиеФормат: MKVКачество: BDRip-AVCВидео: MPEG-4,720x390, (1,85:1), 1103 Кбит/сек, 23.976 кадр/сек, AVC, 16/9Аудио: AAC, 48,0 КГц, 192 Кбит/с, 2 КаналыВидео: Идентификатор : 1 Формат : AVC Формат/Информация : Advanced Video Codec Профиль формата : [email protected] Параметр CABAC формата : Да Параметр ReFrames формата : 9 кадров Идентификатор кодека : V_MPEG4/ISO/AVC Продолжительность : 1 ч. 32 м. Номинальный битрейт : 912 Кбит/сек Ширина : 720 пикселей Высота : 390 пикселей Соотношение сторон : 1,85:1 Режим частоты кадров : Постоянный Частота кадров : 23,976 кадра/сек Цветовое пространство : YUV Субдискретизация насыщенности : 4:2:0 Битовая глубина : 8 бит Тип развёртки : Прогрессивная Бит/(Пиксели*Кадры) : 0.135 Библиотека кодирования : x264 core 138 r2358 9e941d1 Настройки программы : cabac=1 / ref=9 / deblock=1:-2:-2 / analyse=0x3:0x113 / me=umh / subme=10 / psy=1 / psy_rd=1.00:0.00 / mixed_ref=1 / me_range=24 / chroma_me=1 / trellis=2 / 8x8dct=1 / cqm=0 / deadzone=21,11 / fast_pskip=0 / chroma_qp_offset=-2 / threads=3 / lookahead_threads=1 / sliced_threads=0 / nr=0 / decimate=1 / interlaced=0 / bluray_compat=0 / constrained_intra=0 / bframes=5 / b_pyramid=2 / b_adapt=1 / b_bias=0 / direct=1 / weightb=1 / open_gop=0 / weightp=2 / keyint=230 / keyint_min=22 / scenecut=40 / intra_refresh=0 / rc=2pass / mbtree=0 / bitrate=912 / ratetol=1.0 / qcomp=0.60 / qpmin=0 / qpmax=69 / qpstep=4 / cplxblur=20.0 / qblur=0.5 / ip_ratio=1.40 / pb_ratio=1.30 / aq=2:0.90 Язык : English Default : Да Forced : НетАудио: Идентификатор : 2 Формат : AAC Формат/Информация : Advanced Audio Codec Профиль формата : LC Идентификатор кодека : A_AAC Продолжительность : 1 ч. 32 м. Каналы : 2 канала Расположение каналов : Front: L R Частота : 48,0 КГц Метод сжатия : С потерями Задержка видео : 9 мс. Default : Да Forced : Нет 729,35 Mb 3 5 12 августа 2016 06:48 Кровавый спорт / Bloodsport (1988) HDRip от Scarabey | P .torrent   [Информация о файле (нажмите для просмотра)] Перевод: Профессиональный (многоголосый, закадровый)Качество: HDRipФормат: AVIВидео: 624x352 (1.77:1), 23.976 fps, XviD build 73 ~994 kbps avg, 0.19 bit/pixelАудио: 48 kHz, MPEG Layer 3, 2 ch, ~128.00 kbps avg 746,55 Mb 15 4 12 августа 2016 06:48 Кровавый спорт / Bloodsport (1988) HDRip от Scarabey | P .torrent   [Информация о файле (нажмите для просмотра)] Перевод: Профессиональный (многоголосый, закадровый)Качество: HDRipФормат: AVIВидео: 688x384 (1.79:1), 23.976 fps, XviD build 73 ~2041 kbps avg, 0.32 bit/pixelАудио: 48 kHz, AC3 Dolby Digital, 2/0 (L,R) ch, ~192 kbps 1,45 Gb 56 5 12 августа 2016 06:48 Кровавый спорт / Bloodsport (1988) BDRip 720p .torrent   [Информация о файле (нажмите для просмотра)] Перевод: Профессиональный (многоголосый, закадровый) + Профессиональный (многоголосый, закадровый)( R5 ) + ОригинальныйКачество: BDRipКонтейнер: MKVВидео: AVC, 1280x692 (1.850), 6077 kbps, 23.976 fps, 0.286 bppАудио №1: русский / AC3 / 2.0 / 48 kHz / 256 kbpsАудио №2: русский / AC3 / 2.0 / 48 kHz / 256 kbpsАудио №3: английский / AC3 / 2.0 / 48 kHz / 192 kbps 4,37 Gb 6 3 12 августа 2016 06:48 Кровавый спорт / Bloodsport (1988) BDRip 1080p от BT-Club .torrent   [Информация о файле (нажмите для просмотра)] Перевод: Профессиональный многоголосый закадровый, профессиональный двухголосый закадровый х 2, авторский х 3Субтитры: Английские, русскиеКачество: BDRipФормат: MKVВидео: MPEG4-AVC, 1920x1080, 23.976, 10000 kbpsАудио: 1. English AC3 448 kbps 2.0 48 kHz 2. Russian AC3 192 kbps 2.0 48 kHz - Закадровый (Многоголосый) 3. Russian AC3 192 kbps 2.0 48 kHz - Закадровый (Двухголосый - НТВ) 4. Russian AC3 192 kbps 2.0 48 kHz - Закадровый (Двухголосый - R5) 5. Russian AC3 192 kbps 2.0 48 kHz - Закадровый (Авторский - Горчаков) 6. Russian AC3 192 kbps 2.0 48 kHz - Закадровый (Авторский - В.Дохалов) 7. Russian AC3 192 kbps 2.0 48 kHz - Закадровый (Авторский - Л.Володарский). 7,48 Gb 3 3 12 августа 2016 06:48 Кровавый спорт / Bloodsport (1988) BDRip 1080p от Hatfield.. .torrent   [Информация о файле (нажмите для просмотра)] Перевод: Профессиональный (многоголосый,закадровый)Кодек: x264Качество: BDRip (Оригинал: Blu-ray Disc)Видео: 1920x1080 (1,78:1), 23.976 fps, 11.4 MbpsЗвук: AC-3, 2 ch, 640 Kbps 7,75 Gb 3 3 12 августа 2016 06:48 Кровавый спорт / Bloodsport (1988) BDRip-AVC от 0ptimus | P, P2, A .torrent   [Информация о файле (нажмите для просмотра)] Перевод: Профессиональный (многоголосый закадровый), профессиональный (двухголосый закадровый), авторский (одноголосый закадровый)Кодек: h.264Качество: BDRip-AVCВидео: MPEG-4 AVC, 2657 Кбит/с, 1024х576Звук: • №1: Русский (АС3, 2 ch, 192 Кбит/с) Профессиональный двухголосый [R5] • №2: Русский (АС3, 2 ch, 192 Кбит/с) Профессиональный многоголосый • №3: Русский (АС3, 2 ch, 192 Кбит/с) Авторский одноголосый [Вартан Дохалов]Субтитры: Русские, английскиеВидео: Идентификатор : 1 Формат : AVC Формат/Информация : Advanced Video Codec Профиль формата : [email protected] Параметр CABAC формата : Да Параметр ReFrames формата : 9 кадров Идентификатор кодека : V_MPEG4/ISO/AVC Продолжительность : 1 ч. 32 м. Битрейт : 2657 Кбит/сек Ширина : 1024 пикселя Высота : 576 пикселей Соотношение сторон : 16:9 Режим частоты кадров : Постоянный Частота кадров : 23,976 кадра/сек Цветовое пространство : YUV Субдискретизация насыщенности : 4:2:0 Битовая глубина : 8 бит Тип развёртки : Прогрессивная Бит/(Пиксели*Кадры) : 0.188 Размер потока : 1,67 Гбайт (80%) Заголовок : Rip by 0ptimus Библиотека кодирования : x264 core 129 r2245 bc13772 Настройки программы : cabac=1 / ref=9 / deblock=1:-3:-3 / analyse=0x3:0x113 / me=umh / subme=11 / psy=1 / psy_rd=1.00:0.20 / mixed_ref=1 / me_range=32 / chroma_me=1 / trellis=2 / 8x8dct=1 / cqm=0 / deadzone=21,11 / fast_pskip=0 / chroma_qp_offset=-3 / threads=4 / lookahead_threads=1 / sliced_threads=0 / nr=0 / decimate=0 / interlaced=0 / bluray_compat=0 / constrained_intra=0 / bframes=12 / b_pyramid=2 / b_adapt=2 / b_bias=0 / direct=3 / weightb=1 / open_gop=0 / weightp=2 / keyint=240 / keyint_min=23 / scenecut=40 / intra_refresh=0 / rc_lookahead=40 / rc=2pass / mbtree=0 / bitrate=2657 / ratetol=1.0 / qcomp=0.60 / qpmin=0 / qpmax=69 / qpstep=4 / cplxblur=20.0 / qblur=0.5 / vbv_maxrate=50000 / vbv_bufsize=50000 / nal_hrd=none / ip_ratio=1.40 / pb_ratio=1.30 / aq=1:1.00 Язык : English Default : Да Forced : ДаАудио #1: Идентификатор : 2 Формат : AC-3 Формат/Информация : Audio Coding 3 Расширение режима : CM (complete main) Параметр Endianness формата : Big Идентификатор кодека : A_AC3 Продолжительность : 1 ч. 32 м. Вид битрейта : Постоянный Битрейт : 192 Кбит/сек Каналы : 2 канала Расположение каналов : Front: L R Частота : 48,0 КГц Битовая глубина : 16 бит Метод сжатия : С потерями Размер потока : 127 Мбайт (6%) Заголовок : Двухголосый закадровый [R5] Язык : Russian Default : Да Forced : ДаАудио #2: Идентификатор : 3 Формат : AC-3 Формат/Информация : Audio Coding 3 Расширение режима : CM (complete main) Параметр Endianness формата : Big Идентификатор кодека : A_AC3 Продолжительность : 1 ч. 32 м. Вид битрейта : Постоянный Битрейт : 192 Кбит/сек Каналы : 2 канала Расположение каналов : Front: L R Частота : 48,0 КГц Битовая глубина : 16 бит Метод сжатия : С потерями Размер потока : 127 Мбайт (6%) Заголовок : Многоголосый закадровый Язык : Russian Default : Нет Forced : НетАудио #3: Идентификатор : 4 Формат : AC-3 Формат/Информация : Audio Coding 3 Расширение режима : CM (complete main) Параметр Endianness формата : Big Идентификатор кодека : A_AC3 Продолжительность : 1 ч. 32 м. Вид битрейта : Постоянный Битрейт : 192 Кбит/сек Каналы : 2 канала Расположение каналов : Front: L R Частота : 48,0 КГц Битовая глубина : 16 бит Метод сжатия : С потерями Размер потока : 127 Мбайт (6%) Заголовок : Авторский [Вартан Дохалов] Язык : Russian Default : Нет Forced : Нет 2,7 Gb 4 5 12 августа 2016 06:48 Кровавый спорт / Bloodsport (1988) DVD5 .torrent   [Информация о файле (нажмите для просмотра)] Перевод: Профессиональный многоголосыйКодек: MPEG2Качество: DVD5Видео: PAL 16:9 ([email protected]) VBR, ~7500KbpsЗвук: Аудио#1 - Английский (Dolby AC3, 2 ch), 48000 Hz, 192 Kbps Аудио#2 - Русский (Dolby AC3, 2 ch), 48000 Hz, 384 Kbps 3,85 Gb 2 5 12 августа 2016 06:47 Кровавый спорт / Bloodsport (1988) BDRip от HQ-ViDEO .torrent   [Информация о файле (нажмите для просмотра)] Субтитры: Русские, Английские 1,46 Gb 3 1 12 августа 2016 06:47 Кровавый спорт / Bloodsport (1988) BDRip от HQCLUB .torrent   [Информация о файле (нажмите для просмотра)] Перевод: Профессиональный (многоголосый, закадровый) + Оригинальная звуковая дорожка +Профессиональный (многоголосый, закадровый) СТССубтитры: Русские (2 вида),английские (внешние *.srt)Формат: AVIКачество: BDRip (источник / Blu-ray Remux / 1080p)Видео: 720x400 (1.80:1), 23.976 fps, XviD build 50 ~1794 kbps avg, 0.26 bit/pixelАудио #01: 48 kHz, AC3 Dolby Digital, 2/0 (L,R), ~256.00 kbps avgАудио #02: 48 kHz, AC3 Dolby Digital, 2/0 (L,R), ~192.00 kbps avgАудио #03: 48 kHz, AC3 Dolby Digital, 2/0 (L,R), ~192.00 kbps avg(отдельно, http)Аудио #04: 48 kHz, AC3 Dolby Digital, 2/0 (L,R), ~256.00 kbps avg(отдельно Narod.Ru)Аудио #05: 48 kHz, AC3 Dolby Digital, 2/0 (L,R), ~192.00 kbps avg(отдельно Narod.Ru)Аудио #06: 48 kHz, AC3 Dolby Digital, 2/0 (L,R), ~256.00 kbps avg(отдельно Narod.Ru)Аудио #07: 48 kHz, AC3 Dolby Digital, 2/0 (L,R), ~256.00 kbps avg(отдельно Narod.Ru)Аудио #08: 48 kHz, AC3 Dolby Digital, 2/0 (L,R), ~192.00 kbps avg(отдельно Narod.Ru)Аудио #09: 48 kHz, AC3 Dolby Digital, 2/0 (L,R), ~192.00 kbps avg(отдельно, http)Аудио #10: 48 kHz, AC3 Dolby Digital, 2/0 (L,R), ~192.00 kbps avg(отдельно Narod.Ru)Аудио #11: 48 kHz, AC3 Dolby Digital, 3/2 (L,C,R,l,r) + LFE ch, ~384.00 kbps avg(отдельно, http) 1,45 Gb 4 3

gig-torrent.net

Кровавый спорт 1988 - скачать бесплатно через торрент в хорошем качестве. Без регистрации

Название: Кровавый спорт / Bloodsport (1988) BDRip 1080p by msltel | P, P2, A
Качество видео: BDRip 1080p Сравнение с исходником
Видео: MPEG-4 AVC, 15.7 Mбит/с, 1920х1080, 23,976 кадра/с, 0.316 bpp
Аудио: русский, AC3, 192 kbps, 2 ch, 48 kHz [авторский, Вартан Дохалов]английский, DTS, 768 kbps, 2 ch, 48 kHz [оригинал]
Скачать

Загрузка начнется в течение 5 сек.

12.59 GB

Название: Кровавый спорт / Bloodsport (1988) BDRip 720p by msltel | P, P2, A
Качество видео: BDRip 720p Сравнение с исходником
Видео: MPEG-4 AVC, 6231 Кбит/с, 1280х720, 23,976 кадра/с, 0.282 bpp
Аудио: русский, DTS, 768 kbps, 2 ch, 48 kHz [авторский, Вартан Дохалов]английский, AC3, 192 kbps, 2 ch, 48 kHz [оригинал]
Скачать

Загрузка начнется в течение 5 сек.

5.97 GB

Название: Кровавый спорт / Bloodsport (1988) BDRip-AVC от Сотник
Качество видео: BDRip-AVC
Перевод: Авторский (В.Дохалов)
Видео: MPEG-4,720x390, (1,85:1), 1103 Кбит/сек, 23.976 кадр/сек, AVC, 16/9
Аудио: AAC, 48,0 КГц, 192 Кбит/с, 2 Каналы
Скачать

Загрузка начнется в течение 5 сек.

729.35 MB

Название: Кровавый спорт / Bloodsport (1988) HDRip от Scarabey | P
Качество видео: HDRip
Перевод: Профессиональный (многоголосый, закадровый)
Формат видео: AVI
Видео: 624x352 (1.77:1), 23.976 fps, XviD build 73 ~994 kbps avg, 0.19 bit/pixel
Аудио: 48 kHz, MPEG Layer 3, 2 ch, ~128.00 kbps avg
Скачать

Загрузка начнется в течение 5 сек.

746.55 MB

Название: Кровавый спорт / Bloodsport (1988) HDRip от Scarabey | P
Качество видео: HDRip
Перевод: Профессиональный (многоголосый, закадровый)
Формат видео: AVI
Видео: 688x384 (1.79:1), 23.976 fps, XviD build 73 ~2041 kbps avg, 0.32 bit/pixel
Аудио: 48 kHz, AC3 Dolby Digital, 2/0 (L,R) ch, ~192 kbps
Скачать

Загрузка начнется в течение 5 сек.

1.45 GB

Название: Кровавый спорт / Bloodsport (1988) BDRip 720p
Качество видео: BDRip
Перевод: Профессиональный (многоголосый, закадровый) + Профессиональный (многоголосый, закадровый) ( R5 ) + Оригинальный
Видео: AVC, 1280x692 (1.850), 6077 kbps, 23.976 fps, 0.286 bpp
Аудио: русский / AC3 / 2.0 / 48 kHz / 256 kbpsрусский / AC3 / 2.0 / 48 kHz / 256 kbpsанглийский / AC3 / 2.0 / 48 kHz / 192 kbps
Скачать

Загрузка начнется в течение 5 сек.

4.37 GB

Название: Кровавый спорт / Bloodsport (1988) BDRip 1080p от BT-Club
Качество видео: BDRip
Перевод: Профессиональный многоголосый закадровый, профессиональный двухголосый закадровый х 2, авторский х 3
Формат видео: MKV
Видео: MPEG4-AVC, 1920x1080, 23.976, 10000 kbps
Скачать

Загрузка начнется в течение 5 сек.

7.48 GB

Название: Кровавый спорт / Bloodsport (1988) BDRip 1080p
Качество видео: BDRip (Оригинал: Blu-ray Disc)
Перевод: Профессиональный (многоголосый,закадровый)
Видео: x264 1920x1080 (1,78:1), 23.976 fps, 11.4 Mbps
Аудио: AC-3, 2 ch, 640 Kbps
Скачать

Загрузка начнется в течение 5 сек.

7.75 GB

Название: Кровавый спорт / Bloodsport (1988) BDRip-AVC от 0ptimus | P, P2, A
Качество видео: BDRip-AVC
Перевод: Профессиональный (многоголосый закадровый), профессиональный (двухголосый закадровый), авторский (одноголосый закадровый)
Видео: h.264 MPEG-4 AVC, 2657 Кбит/с, 1024х576
Аудио: • №1: Русский (АС3, 2 ch, 192 Кбит/с) Профессиональный двухголосый [R5]
Скачать

Загрузка начнется в течение 5 сек.

2.70 GB

Название: Кровавый спорт / Bloodsport (1988) BDRip 720p от olegek70
Качество видео: BDRip 720p (Blu-Ray Remux 1080р))
Перевод: Профессиональный многоголосый, профессиональный двухголосый (НТВ / R5), авторский одноголосый (Л.Володарский / В.Горчаков / В.Дохалов), профессиональный многоголосый (украинский ICTV)
Видео: MKV, H.264 MPEG-4 AVC, 5555 Кбит/с, 1280х720
Аудио: Русский (ПМ / Дохалов) (DTS, 2 ch, 755 Кбит/с), русский (ПД (НТВ) / Горчаков)) (АС3, 2 ch, 192 Кбит/с), русский (ПД (R5) / Володарский)) (АС3, 2 ch, 384 Кбит/с), английский (DTS, 2 ch, 755 Кбит/с), украинский (ПМ) (АС3, 2 ch, 192 Кбит/с)
Скачать

Загрузка начнется в течение 5 сек.

5.93 GB

Название: Кровавый спорт / Bloodsport (1988) DVD5
Качество видео: DVD5
Перевод: Профессиональный многоголосый
Видео: MPEG2 PAL 16:9 ([email protected]) VBR, ~7500Kbps
Скачать

Загрузка начнется в течение 5 сек.

3.85 GB

www.kinovit.net

rutor.org :: Кровавый спорт / Bloodsport (1988) BDRip 720p ::: Скачать торрент

Страна: СШАЖанр: драма, спорт, биография, боевикГод выпуска: 1988Продолжительность: 01:32:19Перевод: Профессиональный (многоголосый, закадровый) + Профессиональный (многоголосый, закадровый) ( R5 ) + Оригинальный

Режиссер: Ньют Арнольд / Newt ArnoldВ ролях: Жан-Клод Ван Дамм (Frank Dux), Боло Йенг (Chong Li), Форест Уитакер (Rawlins), Дональд Гибб (Ray Jackson), Леа Эйрс (Janice Kent), Норман Бёртон (Helmer), Рой Чяо (Senzo Tanaka), Филип Чань (Captain Chen), Пьер Рафини (Young Frank), Кен Сиу (Victor Lin), Кимо Лаи Квок Ки (Hiro), Бернард Мариано (Sadiq Hossein)Описание: В Гонконге должны состояться подпольные соревнования по восточным единоборствам, к которым готовится и один из американских военнослужащих. В свое время, будучи ребенком, он стал приемным сыном японца- учителя каратэ, достиг совершенства путем упорных тренировок и в знак успеха получил священный японский меч.Он самовольно оставляет воинскую часть и отправляется в Гонконг на «Кумите». По следам молодого человека идет ФБР. Несмотря на все преграды, возникающие на пути каратиста, ему удается добиться победы и вступить в Братство Черного Дракона...

MPAA: R - Лицам до 17 лет обязательно присутствие взрослого

Семпл Качество: BDRipКонтейнер: MKV

Видео: AVC, 1280x692 (1.850), 6077 kbps, 23.976 fps, 0.286 bppАудио №1: русский / AC3 / 2.0 / 48 kHz / 256 kbpsАудио №2: русский / AC3 / 2.0 / 48 kHz / 256 kbpsАудио №3: английский / AC3 / 2.0 / 48 kHz / 192 kbpsНавигация по главам: есть

Media Info

----------------------------------------------------

x264 [info]: frame I:1860 Avg QP:18.31 size:109091 x264 [info]: frame P:76938 Avg QP:21.13 size: 42103 x264 [info]: frame B:54018 Avg QP:22.43 size: 14121

---------------------------------------------------- Format : Matroska Format version : Version 2 File size : 4.37 GiB Duration : 1h 32mn Overall bit rate : 6 778 Kbps Movie name : = Кровавый спорт / Bloodsport BDRip by SC Kosmos = Encoded date : UTC 2013-08-23 13:07:02 Writing application : mkvmerge v5.3.0 ('I could have danced') built on Feb 9 2012 10:38:07 Writing library : libebml v1.2.3 + libmatroska v1.3.0

Video ID : 1 Format : AVC Format/Info : Advanced Video Codec Format profile : [email protected] Format settings, CABAC : Yes Format settings, ReFrames : 6 frames Codec ID : V_MPEG4/ISO/AVC Duration : 1h 32mn Bit rate : 6 077 Kbps Width : 1 280 pixels Height : 692 pixels Display aspect ratio : 1.850 Frame rate : 23.976 fps Color space : YUV Chroma subsampling : 4:2:0 Bit depth : 8 bits Scan type : Progressive Bits/(Pixel*Frame) : 0.286 Stream size : 3.83 GiB (88%) Title : Кровавый спорт / Bloodsport BDRip by SC Kosmos Writing library : x264 core 135 r2345 f0c1c53 Encoding settings : cabac=1 / ref=6 / deblock=1:-2:-2 / analyse=0x3:0x113 / me=umh / subme=10 / psy=1 / psy_rd=1.00:0.00 / mixed_ref=1 / me_range=32 / chroma_me=1 / trellis=2 / 8x8dct=1 / cqm=0 / deadzone=21,11 / fast_pskip=0 / chroma_qp_offset=-2 / threads=12 / lookahead_threads=1 / sliced_threads=0 / nr=0 / decimate=1 / interlaced=0 / bluray_compat=0 / constrained_intra=0 / bframes=8 / b_pyramid=2 / b_adapt=1 / b_bias=0 / direct=1 / weightb=1 / open_gop=0 / weightp=2 / keyint=240 / keyint_min=23 / scenecut=40 / intra_refresh=0 / rc_lookahead=40 / rc=2pass / mbtree=1 / bitrate=6077 / ratetol=1.0 / qcomp=0.60 / qpmin=0 / qpmax=69 / qpstep=4 / cplxblur=20.0 / qblur=0.5 / vbv_maxrate=62500 / vbv_bufsize=78125 / nal_hrd=none / ip_ratio=1.40 / aq=1:1.00 / zones=128260,132816,b=0.27 Language : English Default : Yes Forced : No

Audio #1 ID : 2 Format : AC-3 Format/Info : Audio Coding 3 Mode extension : CM (complete main) Codec ID : A_AC3 Duration : 1h 32mn Bit rate mode : Constant Bit rate : 256 Kbps Channel(s) : 2 channels Channel positions : Front: L R Sampling rate : 48.0 KHz Bit depth : 16 bits Compression mode : Lossy Stream size : 169 MiB (4%) Title : MVO Language : Russian Default : Yes Forced : No

Audio #2 ID : 3 Format : AC-3 Format/Info : Audio Coding 3 Mode extension : CM (complete main) Codec ID : A_AC3 Duration : 1h 32mn Bit rate mode : Constant Bit rate : 256 Kbps Channel(s) : 2 channels Channel positions : Front: L R Sampling rate : 48.0 KHz Bit depth : 16 bits Compression mode : Lossy Stream size : 169 MiB (4%) Title : MVO ( R5 ) Language : Russian Default : No Forced : No

Audio #3 ID : 4 Format : AC-3 Format/Info : Audio Coding 3 Mode extension : CM (complete main) Codec ID : A_AC3 Duration : 1h 32mn Bit rate mode : Constant Bit rate : 192 Kbps Channel(s) : 2 channels Channel positions : Front: L R Sampling rate : 48.0 KHz Bit depth : 16 bits Compression mode : Lossy Stream size : 127 MiB (3%) Language : English Default : No Forced : No

Menu 00:00:00.000 : en:00:00:00.000 00:03:06.144 : en:00:03:06.144 00:08:43.690 : en:00:08:43.690 00:17:44.605 : en:00:17:44.605 00:28:09.938 : en:00:28:09.938 00:33:50.612 : en:00:33:50.612 00:44:21.784 : en:00:44:21.784 00:51:08.565 : en:00:51:08.565 01:02:48.098 : en:01:02:48.098 01:07:29.921 : en:01:07:29.921 01:15:23.144 : en:01:15:23.144 01:26:00.572 : en:01:26:00.572

За русские дорожки огрoмное спасибо HQCLUB и kingsize87

main-rutor.org

Кровавый спорт скачать через торрент » Торрент Кино

Далеко уже не каждый зритель помнит или знает, что такое видеомагнитофон, а вот в моём совсем раннем детстве родители брали у знакомых заветный девайс, набирали кассет в видеосалонах и крутили один за другим фильмы с одноголосным переводом, который сейчас откровенно отдаёт ностальгией по тем временам. Видеосалоны - это вообще символ того времени, как и фильмы в жанре боевик. Одним из подразделов боевика были и впечатляющие тогдашние умы и взоры элементы восточных единоборств. Чуть ли не основной движущей силой того, что многие страстно желали обучиться приёмам самозащиты были такие вот фильмы. И если автомат умел в своих руках держать Арнольд Шварценеггер, ножом и кулаками размахивал Сильвестр Сталлоне, то гением рукопашного боя был никто иной как Жан-Клод Ван Дамм. А его визитной карточкой стал Фрэнк Дюкс из фильма 1988-го года выхода 'Кровавый спорт', где Ван Дамм даёт всем по шеям на подпольном турнире по кумитэ. Вообще, Жан-Клод Ван Дамм играет в этом фильме реально существующего человека. Он рассказал всем, что принял участие в таком вот подпольном турнире, победил там, получил в качестве приза меч старинной японской работы, а потом отдал его пиратам, которые похитили невинных девушек. Герой, да и только. По возвращению в Америку Фрэнк Дюкс открыл собственную школу, где обучал приёмам восточных единоборств, полученных от своего учителя Сэндзо Танаки (в 'Кровавом спорте' такой персонаж также присутствует). А сам Сэндзо Танаки - это сэнсей-ямабуси, то есть наставник-затворник, проживающий в горах. До сих пор никто не нашёл ни единого факта существования Сэндзо Танаки, но он же затворник... В общем, это дело только Ваше верить ли захватывающим рассказам сэнсея Фрэнка Дюкса. А пока же его играет Жан-Клод Ван Дамм, где на турнире ему приходится сталкиваться с адептами различных видов боевых искусств, что придаёт фильму особой зрелищности и эффектности. Сейчас если пересмотреть 'Кровавый спорт', то можно посмеяться над наивными эпизодами картины, где, как в лучших традициях индийского кино, отчётливо видно, что бойцы не трогают друг друга и мастерски поставленный удар проходит мимо, зато оппонент чуть ли не фонтаном брызжет кровью и валится на татами. Да, сейчас это забавно, но около 30 лет назад это всё вызывало один сплошной восторг и видеокассеты с этим фильмом затирались до дыр. Надо сказать, что и не успеваешь даже как-то настроиться на лад этой картины, как уже на экране начинается первая схватка и противники эксклюзивно колотят друг друга. Действительно посмотреть есть на что и до сих пор. Даже сам Ван Дамм по прошествии десятка лет перенял некоторые моменты 'Кровавого спорта', когда самостоятельно снимал схожий во всём фильм 'В описках приключений' - тоже достаточно яркий и эффектный фильм, где разнообразие боевых искусств заставляет не пропускать и секунды этого файтинг-экшна. За роль же Фрэнка Дюкса Жан-Клод настойчиво боролся и наконец добился того, что получил 250 тысяч долларов за съёмки, где всем показал свои спортивные навыки, мускулистое тело без изъяна и полный очаровния взгляд. А жюри 'Золотой малины' дали ему номинацию 'Худшая новая звезда'... Ну да простим им это, далеко не всегда наше мнение совпадает с их мнением. Жен-Клод действительно очень хорош в этой картине, но особой 'изюминки' придаёт ему то, что он - явно выраженный протагонист фильма, а вот в оппоненты ему дали Боло Йенга. Бывший 'Мистер Гонконг' по бодибилдингу пугает только своим зычным рёвом, когда идёт в очередную атаку на противника. Даже не знаю стоял бы я на пути у такого как Боло Йенг или бы решил бы ретироваться? Это, конечно, шутка, вроде как в миру актёр обладает спокойным нравом, но на экране он действительно имеет устрашающий вид. Хорошую роль друга Фрэнка Дюкса сыграл Дональд Гибб, особенно 'перца' придаёт тот момент, что он обладает стилем 'Зашибу': название и характер боевого искусства полностью соответствуют. Журналистку, в которую влюбляется Фрэнк (как же без романтики?!) играет Леа Эйрс. Такой же персонаж будет у Джанет Ганн в 'В поисках приключений' и Джанет будет в разы лучше, нежели Эйрс. А ещё удивитесь, когда среди актёров второго плана увидите Фореста Уитакера. На этом, пожалуй, всё. Фильм, ставший легендой. Фильм, превративший Жана-Клода Ван Дамма в звезду первой степени. Фильм, сделавший Фрэнка Дюкса личностью культовой. Фильм, приведший страну к тотальному увлечению восточными единоборствам и выходу каратэ из подполья. Зрелище, эффектность, пот и кровь - это Вам всё обеспечено в фильме 'Кровавый спорт', боевиком из '101 боевика, которые надо увидеть'.------------------------------------------Пожалуй любой, кто так или иначе застал девяностые, знают этот фильм и более того, не раз его пересматривали. Именно этот фильм открыл миру Жан-Клода Ван Дамма, а нам подарил еще одного героя боевиков, которым мы в детстве стремились подражать. 'Кровавый спорт' давно уже стал классикой, как среди фильмов о боевых искусствах, так и среди любимых голливудских фильмов девяностых. Хоть эта и одна из самых первых ролей Ван Дамма, именно она определила дальнейший вектор его актерской карьеры. Удачно зарекомендовав себя в роли отличного каратиста, Ван Дамм зная того или нет, нарек на себя образ крутого парня умело махающего ногами и руками. Жаль что из этого образа у него так и не получилось выйти. Как ни странно 'Кровавый спорт' очень точно отображает по большей части все то, что умеет Ван Дамм и совсем не удивительно что многие считают роль в этом фильме лучшей во всей его карьере. Главная прелесть фильма, в том что он построен исключительно на боевых сценах. Здесь по сути, нет никакого сюжета или какой-то гениальной актерской игры, зато здесь есть крутые драки. А те кто любит искать в таких фильмах как 'Кровавый спорт' что-то большее чем грамотно поставленные и красиво снятые боевые сцены, наверно просто тратит зря время. Здесь абсолютно не стоит напрягать свой мозг, лучше просто расслабится наблюдать как здоровые дядьки калотят друг друга применяя различные виды единоборств. Кровавый спорт - фильм в первую очередь одного периода времени. Есть фильмы 'на все времена', есть фильмы которые ассоциируют с одним периодом времени, как скажем 'Кровавый спорт' с девяностыми, а есть фильмы которые забываются уже после первого просмотра.------------------------------------------Когда два достойных друг друга бойца сходятся на легендарной арене, они не вершат судьбы мира (забудем о Мортал Комбате). Кем-то движет банальная жажда признания, кто-то хочет завоевать почетный приз, а для кого-то поединок - цель самого существования. В специфике рукопашного боя многие разбираются, а еще больше тех, кто думает, что разбирается. Натренировать тело, выучить парочку эффективных приемов, 'нацепить' гримасу пострашнее - и вперед, на ринг! Если к знаменитому кумите подходили бы с такой меркой, то 'Кровавый спорт' едва ли вообще бы вышел на большой экран, не говоря уже об обретении культового статуса. Бесчисленное количество фильмов-подражаний нередко оттеняют сам оригинал. Но в случае с лентой Ньюта Арнольда такого, хочется верить, не будет никогда. Неважно, что настоящий актерский дебют Жан-Клода Ван Дамма остался в далекой 'видеосалонной' эпохе, гораздо важнее, что именно это кино максимально приблизилось к высоким стандартам, установленным Брюсом Ли. Он, безусловно, человек не без изъяна. Дезертирство из армии любой страны мира – тягчайшее преступление для военнослужащего. Но прегрешения Фрэнка Дюкса не волновали восхищенную публику ни в год премьеры, ни, тем более, сейчас. Кажется, съемочная группа обрекла свое творение на успех, как только указала главное качество героя Ван Дамма – честь. «Кровавый спорт» - золотая классика постановки поединка, но если сам бой лишен чести, то о нем с гневом скоро позабудут. Фрэнк не стесняется своей «немодности». Кумите, несмотря на свой подпольный статус – вершина мастерства для любого мастера боевых искусств. Американцу в Гонконге в принципе не особо рады. А если он пропагандирует непонятные, для прочих участников, ценности – не рады вдвойне. Лишь спустя годы приходит осознание режиссерского приема Арнольда. Соперники Дюкса по турниру демонстрируют свои стили и умения, а сам он для начала возвращается к теории, без которой практика была бы пуста. Никто не будет спорить с тем, что кумите реально выиграть и, не будучи духовно просветленным бойцом. В этом смысле, показательным примером является могучий Чонг Ли. Парадокс в том, что Боло Ёнг далеко не гигант. Исполинского телосложения, его сила ни на грамм не выглядит преувеличенный. В немалой степени «Кровавый спорт» держится на этих накаченных плечах. Фильму подобного рода не обойтись без устрашающего злодея с садистскими замашками, но секрет убедительности Боло – в его сокрушительном взгляде. Он совсем не бесчувственный агрегат смерти, он переживает экстаз от собственной популярности. Но ведь этот брутал запоминается не своими приемами, а прежде всего знаменитым жестом: «Ты – следующий!» Иные «собратья» Чонг Ли по боевикам отличались жестокостью, коварством, богатырской силой, кто-то даже был поэффектнее. Однако, лишь этот статный китаец крепче других вцепился в зрительскую память даже спустя 26 лет. Каждый жест Чонга несет в себе смертельную угрозу, он с первой встречи почувствовал в американце угрозу. Но не потому, что тот ловко ломает кирпичи, а именно из-за его противоположной философии, с помощью которой возможно нивелировать преимущество в мощи. Когда Фрэнк Дюкс, наконец, добрался до вожделенного ринга, то последнее о чем он думал - о призе. Лицо умирающего мастера Танаки затмевало для него все остальное. Ван Дамму удалось совместить в своем персонаже азиатскую мудрость, европейское обаяние и американское жизнелюбие. Сама фактура фламандского культуриста позволила создать образ совершенного бойца. Хотя будь ты мастером по всем известным стилям, а победа сама в руки не упадет, Современные экшены часто упрекают в излишней и ненатуральной кровавости, но разве скажешь такое о фильме Ньюта Арнольда? Любой, знакомый с понятием «полный контакт», не заметит преувеличенности, если только для художественного эффекта. Великое многообразие бойцов не перестает впечатлять даже сегодня. Никого из этой пестрой публики и язык-то не повернется назвать актером. Ловкие и смелые, крепкие и выносливые – на этом турнире заведомых слабаков просто нет. Даже если по какому-то недоразумению вы не видели этот фильм, то без труда догадаетесь, что в финале сойдутся молодость с опытом, благородство с жесткостью, Жан-Клод с Боло. Большие друзья по жизни, их противостояние, растянувшееся на 4 года – стало брендом боевика, как жанра. Немало найдется скептиков, которые заявят, дескать «у Ван Дамма в реальность нет ни шанса против этого монстра». Возможно, так и есть. Добро, конечно же, восторжествует, но не ради абстрактной интриги стоит смотреть и пересматривать «Кровавый спорт». Гораздо лучше это делать, ради: 1. Фантастической акробатики ЖКВД. Его знаменитая «вертушка», которая намного переживет самого бельгийца, именно отсюда «родом». Вероятно, в настоящее время нет в мастерстве Жан-Клода пропаганды здорового образа жизни, о карате известно всем. Но до чего же приятно наблюдать за реалистичностью приемов, которые не нуждаются в цифровой обработке. 2. Обаятельного Рэя Джексона. Огромный мужлан, воплощение американского потребительства и самоуверенности, но к нему невозможно не пропитаться симпатией. Ведь этот громила - настоящий добряк, да еще и джентльмен! Фрэнк в своем походе получает дополнительную мотивацию. Он мстит на покалеченного товарища и неважно, что они едва знакомы. Настоящая дружба может «проклюнуться» и с первого взгляда. 3. Наглядного пособия по обретению мастерства. Боль и тяжесть обучения Фрэнка абсолютно естественные. Только так: по шажочку, по крупицам, через пробы и ошибки – можно стать по-настоящему готовым к кумите. 4. Незабываемого турнира. Всего лишь 3 дня. Но как многое в них вмещается! Словно солдаты в бою, каждый боец жаждет победы, покажет все на что способен, но не отнесется к противнику, как к пыли под ногами. Чонг Ли со своим демоническим подходом был обречен изначально. Он мог выиграть одной силой своей, но кумите от такого чемпионата навеки было бы покрыто печатью позора. В 'Кровавом спорте' еще много всего любопытного. Да, многое выглядит наивным и даже глуповатым. Совершенно не в тему здесь любопытная журналиста. Охотники за Дюксом создают ненужную комедийность сюжету. Конечно, все помнят прежде всего о турнире лучших мастеров и это актуально, сколько бы поколений не сменилось. Но главная причина бессмертия картины Ньюта Арнольда кроется не в этом. А в человечности. Ею фильм начинается, ею же и заканчивается. Фрэнк Дюкс - реальный человек, но о нем мало кто знает. Зато об образе бойца и мужчины с большой буквы знают все. Такой феерический дебют должен был обречь Жан-Клода Ван Дамма на вечную славу, сродни Боюсу Ли. Этого не произошло, в чем бельгиец повинен прежде всего сам. Но однажды обрастут пылью истории большинство фильмов ЖКВД. А 'Кровавый спорт' останется навсегда, хотя бы для круга ценителей. Легенда должна жить и она будет жить.------------------------------------------«Кровавый спорт» — одно из самых ярких впечатлений детства, один из самых горячо любимых фильмов, та самая картина, открывшая для нас легендарного Жан–Клода Ван Дамма, лента, послужившая наилучшим мотиватором для занятия спортом и к довершению, как бы странно это не звучало, именно боевик, который является навсегда оставшимся в памяти и в сердце. Фильм основан на некоторых фактах из жизни реально существующего человека по имени Фрэнк Дюкс, ныне американского актера и хореографа боевых сцен в кино, а ранее участника закрытых боев, с полным контактом — кумитэ, обладает навыками единоборства под названием ниндзюцу. Согласно сюжету картины, будучи еще подростком, Фрэнк Дюкс по воле случая попадает под влияние японского мастера боевых искусств сидоси Сэндзо Танаки, семья которого из поколения в поколение передавала свой боевой опыт от отца к сыну. Фрэнк постигает древнее искусство боя вместе с сыном мистера Танаки или вернее будет сказано выступает спарринг–партнером и по совместительству грушей для битья. Вскоре фатум забирает у Сэндзо Танаки наследника и ветвь, соединявшая поколения через боевое ремесло обрывается. Но Фрэнк опечаленный утратой «брата» и горем своего учителя–отца, настаивает на продолжении тренировок и убеждает Сэндзо, что он сможет стать достойным членом клана Танака. Фрэнк подвергается нелегким тренировкам, но проявляет железную волю и неподдельное стремление, что помогает ему, справится со всеми испытаниями и способствует развитию крепкого духа и сильного тела. Танака открывает ему все тонкости и секреты своей потомственной науки боя и с гордостью посвящает Фрэнка в заслуженные члены клана Танака, не взирая на его не японское происхождение, но за непоколебимую веру в боевое искусство и проявленную стойкость, железное мужество в течение всего непростого хода тренировок. Фрэнк в благодарность за оказанную честь, дает слово прославить своего учителя несмотря ни на что. Проходит время и Дюкс получает этот шанс — в Китае будет проходить международный подпольный чемпионат по полноконтактному кумитэ, где примут участие лучшие бойцы со всего мира. Фрэнк вопреки службе в армии незамедлительно отправляется в Гонконг, чтобы осуществить мечту всей жизни… Немного конечно заромантизировал сюжет, но все же подобного сценария я не встречал, за исключением последующих картин с Ван Даммом. Что в этой ленте вызывает во мне бурю эмоций и полный восторг? Да абсолютно все, начиная от того же сценария и заканчивая музыкальным сопровождением. Это не говорит о том, что фильм вовсе не имеет недостатков, исключительно идеальных картин не существует, но есть те, которые заставляют эти недостатки просто–напросто не искать, отвлекая общим смыслом, невероятной атмосферой погружения и прочими необъяснимыми до конца явлениями кинематографа, словно якобы видимое несовершенство становится безупречным идеалом. Так что же все–таки превращает «камень в прекрасную скульптуру»? Ответ максимально прост — все то, что обычно и составляет бытие настоящего интересного кино: режиссура, сценарий, актеры, операторская работа, аккомпанирование, а в нашем случае, жанра боевые искусства, еще и постановка непосредственно самих поединков. Каждый инструмент созидания данного кинопроизведения рассмотрю по отдельности. Фильм определенно наполнен какой–то особенной атмосферой, притягательной философией, которую не в последнюю очередь обеспечивает именно сценарий. Он будто выступает своеобычной интерпретацией пути воина. Соглашусь, без необыкновенного блеска, тонких мотивов, но главное ты ощущаешь это, чувствуешь настроение фильма, обретаешь его истинный смысл. И в тоже время повествование не является тяжелым в восприятии, а усваивается, как говорится, на одном дыхании. Вдобавок текст не лишен юмора и расслабляющих веселых моментов. Феноменально, но, пожалуй, я помню абсолютно всех актеров, принявших участие в картине, даже членов массовки. Создателям удалось провести просто невероятно удачный подбор, благодаря которому каждый герой гармонично вписался в общий коллектив и составил неотделимую часть единой атмосферы фильма. Мог бы отметить лаврами без исключения всех членов актерской труппы, но боюсь, это займет не одну страницу, словами выше я уже подтвердил немаловажное участие каждого из них. Но все же особенно хочется выделить некоторых персонажей и их исполнителей, в частности самоуверенного Джексона — партнера и друга главного героя, которого играет Дональд Гибб, Бола Йена — огромного китайца–культуриста в образе непобедимого маниакального чемпиона кумитэ Чонга Ли, духовного наставника и талантливого тренера Фрэнка Дюкса Сэндзо Танаку, исполненного Роем Чао, Леу Эйрс в роли всегда добивающейся своего журналистки и веселого китайца–гида Лина, сыгранного Кеном Сиу — получились очень колоритные, запоминающиеся образы и такие характерные герои, не важно, второстепенные или вовсе эпизодические, встречаются на протяжении всего фильма. И наконец, невозможно проигнорировать наиглавнейшего героя картины, а именно Фрэнка Дюкса. Эта роль дала шанс ни кому неизвестному чемпиону Европы по каратэ открыть себя в новом качестве, которое стало, безусловно, судьбоносным для него, а нам простым зрителям подарила одного из самых ярких, харизматичных и любимых актеров — Жан–Клода Ван Дамма. Запечатлев в памяти практически всех актеров, я с таким же успехом сохранил в голове полный список музыкальных композиций. Главное, что следует сказать о звуковом сопровождении так это то, что музыка, каждая отдельная мелодия идут в такт с фильмом, доподлинно отражают его тон, тонко передают общую атмосферу. Вдобавок все песни являются драйвовыми и просто нереально заряжают на просмотр. Думаю композиции «Fight To Survive» и «On My Own» никого не оставили и вне всякого сомнения не оставят равнодушными. И вот я подошел к самому ключевому аспекту картины — непосредственной демонстрации боевых искусств, которая занимает доминирующее, я б сказал фундаментальное, положение в фильме. Представляю, какой фурор произвели постановки боев при выходе ленты в широкий прокат, если сейчас схватки смотрятся просто потрясающе, завораживают своей боевой хореографией и, разумеется, красотой ударов. Вкупе с отличной операторской работой и уже упомянутой мной невероятно подходящей музыкой поединки мне показались идеально исполненными, несмотря на дату выхода фильма. Я затронул все фильмообразующие элементы картины, благодаря которым она произвела на меня столь яркое и незабываемое впечатление, но единственно не сказал о том, кто эти элементы искусно соединил, перемешал и сбалансировал, а именно о Ньюте Арнольде. Без его своеобычной режиссуры фильм не возымел бы настолько пылкой и лестной зрительской реакции. «Кровавый спорт» не берет на себя звание глубокой тяжело воспринимаемой кинокартины, при просмотре которой необходимо порядком задумываться о происходящем, не служит каким–либо откровением и тем более «учебным пособием», не побуждает к переменам в мировоззрении, а является легким расслабляющим и одновременно зрелищным отличным фильмом про боевые искусства.

torrent-kino.org


Смотрите также