Кровавый четверг торрент


Скачать фильм Кровавый четверг (1998) через торрент

15 августа 2016 05:26 Кровавый четверг / Thursday (1998) BDRip 720p от HELLYWOOD | P, P2, A .torrent   [Информация о файле (нажмите для просмотра)] Перевод: Профессиональный (многоголосый) [R5], Профессиональный (двухголосый) [НТВ+], Авторский (одноголосый) [Ю.Сербин, Ю.Живов, Д.Пучков (х2)]Субтитры: русские (полные + SDH(x2)), английские (Full + SDH)Качество: BDRip 720pФормат: MKVВидео: AVC, 1280x696 (16:9), 8619 kbps, 23,976 fps, 0,404 bppАудио №1: AC3 / 5.1 / 48 kHz / 448 kbps / 16 bit| MVO - R5 Аудио №2: AC3 / 5.1 / 48 kHz / 384 kbps / 16 bit| DVO - НТВ+ Аудио №3: AC3 / 5.1 / 48 kHz / 640 kbps / 16 bit| AVO - Ю.СербинАудио №4: AC3 / 5.1 / 48 kHz / 640 kbps / 16 bit| AVO - Ю.Живов Аудио №5: AC3 / 5.1 / 48 kHz / 640 kbps / 16 bit| AVO - Д.Пучков [ранний] Аудио №6: AC3 / 5.1 / 48 kHz / 448 kbps / 16 bit| AVO - Д.Пучков [поздний] Аудио №7: AC3 / 2.0 / 48 kHz / 192 kbps / 16 bit| UKR - DVO [1+1] Аудио №8: AC3 / 5.1 / 48 kHz / 640 kbps / 16 bit| ENG 7,76 Gb 14 5 15 августа 2016 05:26 Кровавый четверг / Thursday (1998) HDRip | КПК | Goblin .torrent   [Информация о файле (нажмите для просмотра)] Перевод: Авторский (одноголосый закадровый) [Д. Пучков aka Goblin]Кодек: H.264Качество: HDRipВидео: 640x344, 688 kbps, 23,976 fps, 0,130 Bits/(Pixel*Frame)Звук: AAC, 48 kHz, 2 ch, 96 kbpsСубтитры: Нет 494,61 Mb 8 4 15 августа 2016 05:26 Кровавый четверг / Thursday (1998) BDRip от New-Team .torrent   [Информация о файле (нажмите для просмотра)] Перевод #1: Авторский (одноголосый закадровый) Гоблин / newПеревод #2: Авторский (одноголосый закадровый) Гоблин / oldПеревод #3: Профессиональный (многоголосый закадровый) DVD GroupПеревод #4: Профессиональный (двухголосый закадровый) НТВ+Перевод #5: Авторский (одноголосый закадровый) ЖивовКачество: BDRip [BDRemux 1080p / RUTOR]Формат: AVIВидео: 704x384 (1.83:1), 23.976 fps, XviD build 73 ~2216 kbps avg, 0.34 bit/pixelАудио #1: 48 kHz, AC3 Dolby Digital, 3/2 (L,C,R,l,r) + LFE ch, ~448 kbps |AVO | Гоблин/newАудио #2: 48 kHz, AC3 Dolby Digital, 3/2 (L,C,R,l,r) + LFE ch, ~448 kbps |AVO | Гоблин/oldАудио #3: 48 kHz, AC3 Dolby Digital, 3/2 (L,C,R,l,r) + LFE ch, ~448 kbps |MVO | DVD GroupАудио #4: 48 kHz, AC3 Dolby Digital, 3/2 (L,C,R,l,r) + LFE ch, ~384 kbps |DVO | НТВ+ (отдельно)Аудио #5: 48 kHz, AC3 Dolby Digital, 3/2 (L,C,R,l,r) + LFE ch, ~448 kbps |AVO | Живов (отдельно)Аудио #6: 48 kHz, AC3 Dolby Digital, 3/2 (L,C,R,l,r) + LFE ch, ~448 kbps |Original (отдельно) 2,97 Gb 12 5 15 августа 2016 05:26 Кровавый четверг / Thursday (1998) BDRip 720p от MediaClub .torrent   [Информация о файле (нажмите для просмотра)] Перевод: Профессиональный многоголосый + профессиональный двухголосый + авторский + оригиналКодек: MPEG-4 AVCКачество: BDRip 720pВидео: 5400 Кбит/с, 1280x694, 23.976 кадр/сАудио #1: Русский (AC3, 6 ch, 448 Кбит/с) | Профессиональный многоголосый (ДВД-Групп)Аудио #2: Русский (AC3, 6 ch, 384 Кбит/с) | Профессиональный двухголосый (НТВ+)Аудио #3: Русский (AC3, 6 ch, 448 Кбит/с) | Авторский (Ю.Сербин)Аудио #4: Русский (AC3, 6 ch, 448 Кбит/с) | Авторский (Д.Пучков (старый))Аудио #5: Русский (AC3, 6 ch, 448 Кбит/с) | Авторский (Д.Пучков (новый))Аудио #6: Русский (AC3, 6 ch, 448 Кбит/с) | Авторский (Ю.Живов)Аудио #7: Русский (AC3, 2 ch, 192 Кбит/с) | Авторский (С.Визгунов)Аудио #8: Английский (AC3, 6 ch, 448 Кбит/с)Субтитры: Русские, английские 5,31 Gb 5 1 15 августа 2016 05:26 Кровавый четверг / Thursday (1998) BDRip-AVC от MediaClub .torrent   [Информация о файле (нажмите для просмотра)] Перевод: Профессиональный многоголосый + профессиональный двухголосый + авторский + оригиналКодек: MPEG-4 AVCКачество: BDRip-AVCВидео: 3000 Кбит/с, 1024x556, 23.976 кадр/сАудио #1: Русский (AC3, 6 ch, 448 Кбит/с) | Профессиональный многоголосый (ДВД-Групп)Аудио #2: Русский (AC3, 6 ch, 384 Кбит/с) | Профессиональный двухголосый (НТВ+)Аудио #3: Русский (AC3, 6 ch, 448 Кбит/с) | Авторский (Ю.Сербин)Аудио #4: Русский (AC3, 6 ch, 448 Кбит/с) | Авторский (Д.Пучков (старый))Аудио #5: Русский (AC3, 6 ch, 448 Кбит/с) | Авторский (Д.Пучков (новый))Аудио #6: Русский (AC3, 6 ch, 448 Кбит/с) | Авторский (Ю.Живов)Аудио #7: Русский (AC3, 2 ch, 192 Кбит/с) | Авторский (С.Визгунов)Аудио #8: Английский (AC3, 6 ch, 448 Кбит/с)Субтитры: Русские, английские 3,84 Gb 6 4 15 августа 2016 05:26 Кровавый четверг / Thursday (1998) HDRip-AVC | Гоблин .torrent   [Информация о файле (нажмите для просмотра)] Перевод: Авторский (одноголосый закадровый)Д. Пучков ака ГоблинКодек: x264Качество: HDRip-AVC[BDRip 720p]Видео: 784x424 (16:9), 23,976 fps, x264, ~1113 kbps avg, 0.140 bit/pixelЗвук: 48 kHz, AAC-LC, 2 ch, ~80.00 kbps avg 745,22 Mb 98 5 15 августа 2016 05:26 Кровавый четверг / Thursday (1998) BDRip-AVC от HQ-ViDEO .torrent   [Информация о файле (нажмите для просмотра)] Перевод: Русский многоголосый перевод (R5) + Оригинальная дорожка Субтитры: Русские (полные), Английские (полные).Качество: BDRip-AVC (Исходник: Thursday 1998 1080p Director's Cut GER Blu-ray AVC DTS-HD MA 5.1-CineArk)Формат: MKVВидео: MPEG-4 AVC, x264, 1098 x 596; 23.976 fps; 2650 kbps; 0.169 bit/pixelАудио #1: 48 kHz, AC3 Dolby Digital, 3/2 (L,C,R,l,r) + LFE ch, ~448.00 kbps avgАудио #2: 48 kHz, AC3 Dolby Digital, 3/2 (L,C,R,l,r) + LFE ch, ~448.00 kbps avg 2,17 Gb 11 5 15 августа 2016 05:26 Кровавый четверг / Thursday (1998) BDRip 720p от Leonardo and Scarabey .torrent   [Информация о файле (нажмите для просмотра)] Перевод: Профессиональный (двухголосый закадровый) НТВ+Перевод: Профессиональный (многоголосый закадровый) MVO-DVD.GroupПеревод: Авторский (одноголосый закадровый) Д. Пучков ака ГоблинФормат: MKVВидео кодек: MPEG-4 AVC Аудио кодек: AC3Видео: AVC, 1280x694 (1.85:1) at 23.976 fps, AVC at 5701 kbps avg, 0.261 bit/pixelАудио: 48 kHz, AC3 Dolby Digital, 3/2 (L,C,R,l,r) + LFE ch, 384.00 kbps - Russian - Профессиональный (двухголосый закадровый) НТВ+Аудио: 48 kHz, AC3 Dolby Digital, 3/2 (L,C,R,l,r) + LFE ch, 448.00 kbps - Russian - Профессиональный (многоголосый закадровый) MVO-DVD.GroupАудио: 48 kHz, AC3 Dolby Digital, 3/2 (L,C,R,l,r) + LFE ch, 448.00 kbps - Russian - Авторский (одноголосый закадровый) GoblinСубтитры: Русские, английские 4,28 Gb 10 5 15 августа 2016 05:26 Кровавый четверг / Thursday (1998) BDRip от New-team .torrent   [Информация о файле (нажмите для просмотра)] Перевод: Авторский (Сербин Юрий)Качество: BDRip |sampleКонтейнер: AVIВидео: XviD, 704x384 (16:9), 1913 kbps, 23,976 fps, 0,295 bppАудио: AC3 / 5.1 / 48 kHz / 448 kbps / 16 bit 1,45 Gb 6 1 15 августа 2016 05:26 Кровавый четверг / Thursday (1998) BDRemux 1080p .torrent   [Информация о файле (нажмите для просмотра)] Перевод: Перевод: Профессиональный (многоголосый закадровый) (DVD Group)Перевод 2: Профессиональный (двухголосый закадровый) (НТВ+)Перевод 3: Авторский (одноголосый закадровый) (Д. Пучков новый)Перевод 4: Авторский (одноголосый закадровый) (Д. Пучков старый)Перевод 5: Авторский (одноголосый закадровый) (Ю. Живов)Перевод 6: Авторский (одноголосый закадровый) (С. Визгунов)Кодек: MKVКачество: BDRemux 1080pВидео: MPEG-4 AVC, 25.3 Мбит/с, 1920x1080, 23.976 кадр/сЗвук: Аудио: Russian, AC3, 6 ch, 448 Кбит/с (Профессиональный многоголосый, DVD Group)Аудио 2: Russian, AC3, 6 ch, 384 Кбит/с (Профессиональный двухголосый, НТВ+)Аудио 3: Russian, AC3, 6 ch, 448 Кбит/с (Авторский одноголосый, Д. Пучков новый)Аудио 4: Russian, AC3, 6 ch, 448 Кбит/с (Авторский одноголосый, Д. Пучков старый)Аудио 5: Russian, AC3, 6 ch, 448 Кбит/с (Авторский одноголосый, Ю. Живов)Аудио 6: Russian, AC3, 2 ch, 192 Кбит/с (Авторский одноголосый, С. Визгунов)Аудио 7: English, DTS-HD MA, 6 ch, 2501 Кбит/сСубтитры: русские, английскиеВидео: Идентификатор : 1 Формат : AVC Формат/Информация : Advanced Video Codec Профиль формата : [email protected] Параметр CABAC формата : Да Параметр ReFrames формата : 4 кадра Идентификатор кодека : V_MPEG4/ISO/AVC Продолжительность : 1 ч. 27 м. Вид битрейта : Переменный Максимальный битрейт : 33,0 Мбит/сек Ширина : 1920 пикселей Высота : 1080 пикселей Соотношение сторон : 16:9 Режим частоты кадров : Постоянный Частота кадров : 23,976 кадра/сек Цветовое пространство : YUV Субдискретизация насыщенности : 4:2:0 Битовая глубина : 8 бит Тип развёртки : Прогрессивная Язык : Russian Default : Да Forced : НетАудио #1: Идентификатор : 2 Формат : AC-3 Формат/Информация : Audio Coding 3 Расширение режима : CM (complete main) Параметр Endianness формата : Big Идентификатор кодека : A_AC3 Продолжительность : 1 ч. 27 м. Вид битрейта : Постоянный Битрейт : 448 Кбит/сек Каналы : 6 каналов Расположение каналов : Front: L C R, Side: L R, LFE Частота : 48,0 КГц Битовая глубина : 16 бит Метод сжатия : С потерями Размер потока : 281 Мбайт (1%) Заголовок : MVO-DVD.Group Язык : Russian Default : Да Forced : ДаАудио #2: Идентификатор : 3 Формат : AC-3 Формат/Информация : Audio Coding 3 Расширение режима : CM (complete main) Параметр Endianness формата : Big Идентификатор кодека : A_AC3 Продолжительность : 1 ч. 27 м. Вид битрейта : Постоянный Битрейт : 384 Кбит/сек Каналы : 6 каналов Расположение каналов : Front: L C R, Side: L R, LFE Частота : 48,0 КГц Битовая глубина : 16 бит Метод сжатия : С потерями Размер потока : 241 Мбайт (1%) Заголовок : DVO-HTB+ Язык : Russian Default : Нет Forced : НетАудио #3: Идентификатор : 4 Формат : AC-3 Формат/Информация : Audio Coding 3 Расширение режима : CM (complete main) Параметр Endianness формата : Big Идентификатор кодека : A_AC3 Продолжительность : 1 ч. 27 м. Вид битрейта : Постоянный Битрейт : 448 Кбит/сек Каналы : 6 каналов Расположение каналов : Front: L C R, Side: L R, LFE Частота : 48,0 КГц Битовая глубина : 16 бит Метод сжатия : С потерями Размер потока : 281 Мбайт (1%) Заголовок : Goblin-new Язык : Russian Default : Нет Forced : НетАудио #4: Идентификатор : 5 Формат : AC-3 Формат/Информация : Audio Coding 3 Расширение режима : CM (complete main) Параметр Endianness формата : Big Идентификатор кодека : A_AC3 Продолжительность : 1 ч. 27 м. Вид битрейта : Постоянный Битрейт : 448 Кбит/сек Каналы : 6 каналов Расположение каналов : Front: L C R, Side: L R, LFE Частота : 48,0 КГц Битовая глубина : 16 бит Метод сжатия : С потерями Размер потока : 281 Мбайт (1%) Заголовок : Goblin-old Язык : Russian Default : Нет Forced : НетАудио #5: Идентификатор : 6 Формат : AC-3 Формат/Информация : Audio Coding 3 Расширение режима : CM (complete main) Параметр Endianness формата : Big Идентификатор кодека : A_AC3 Продолжительность : 1 ч. 27 м. Вид битрейта : Постоянный Битрейт : 448 Кбит/сек Каналы : 6 каналов Расположение каналов : Front: L C R, Side: L R, LFE Частота : 48,0 КГц Битовая глубина : 16 бит Метод сжатия : С потерями Размер потока : 281 Мбайт (1%) Заголовок : Zhivov Язык : Russian Default : Нет Forced : НетАудио #6: Идентификатор : 7 Формат : AC-3 Формат/Информация : Audio Coding 3 Расширение режима : CM (complete main) Параметр Endianness формата : Big Идентификатор кодека : A_AC3 Продолжительность : 1 ч. 27 м. Вид битрейта : Постоянный Битрейт : 192 Кбит/сек Каналы : 2 канала Расположение каналов : Front: L R Частота : 48,0 КГц Битовая глубина : 16 бит Метод сжатия : С потерями Размер потока : 121 Мбайт (1%) Заголовок : Vizgunov Язык : Russian Default : Нет Forced : НетАудио #7: Идентификатор : 8 Формат : DTS Формат/Информация : Digital Theater Systems Профиль формата : MA / Core Режим : 16 Параметр Endianness формата : Big Идентификатор кодека : A_DTS Продолжительность : 1 ч. 27 м. Вид битрейта : Переменный Битрейт : Неизвестно / 1509 Кбит/сек Каналы : 6 каналов Расположение каналов : Front: L C R, Side: L R, LFE Частота : 48,0 КГц Битовая глубина : 24 бит Метод сжатия : Без потерь / Lossy Язык : English Default : Нет Forced : Нет Текст #1 Идентификатор : 9 Формат : UTF-8 Идентификатор кодека : S_TEXT/UTF8 Идентификатор кодека/Информация : UTF-8 Plain Text Язык : Russian Default : Нет Forced : Нет Текст #2 Идентификатор : 10 Формат : UTF-8 Идентификатор кодека : S_TEXT/UTF8 Идентификатор кодека/Информация : UTF-8 Plain Text Заголовок : Goblin-new Язык : Russian Default : Нет Forced : Нет Текст #3 Идентификатор : 11 Формат : UTF-8 Идентификатор кодека : S_TEXT/UTF8 Идентификатор кодека/Информация : UTF-8 Plain Text Заголовок : Goblin-old Язык : Russian Default : Нет Forced : Нет Текст #4 Идентификатор : 12 Формат : UTF-8 Идентификатор кодека : S_TEXT/UTF8 Идентификатор кодека/Информация : UTF-8 Plain Text Язык : Russian Default : Нет Forced : Нет Меню 00:00:00.000 : :Chapter 01 00:05:18.318 : :Chapter 02 00:12:42.970 : :Chapter 03 00:17:10.029 : :Chapter 04 00:22:43.362 : :Chapter 05 00:27:42.494 : :Chapter 06 00:33:41.019 : :Chapter 07 00:38:28.139 : :Chapter 08 00:43:30.316 : :Chapter 09 00:49:01.939 : :Chapter 10 00:55:13.310 : :Chapter 11 00:59:53.298 : :Chapter 12 01:05:45.232 : :Chapter 13 01:10:38.067 : :Chapter 14 01:17:07.998 : :Chapter 15 01:22:45.961 : :Chapter 16 01:27:47.720 : :Chapter 17 18,5 Gb 5 5 15 августа 2016 05:26 Кровавый четверг / Thursday (1998) BDRip 720p | P, A .torrent   [Информация о файле (нажмите для просмотра)] Перевод: Профессиональный (многоголосый, закадровый), Профессиональный (двухголосый, закадровый), Авторский одноголосый, ОригинальналКачество: BDRip 720p (исходник Blu-ray Disc)Видео: 1288x694,4 311 Кбит/сек, 23,976 кадр/сек, AVC, x264, [email protected], 1.85:1, 0.202 Бит/[Пиксели*Кадры], 2passАудио 1: AC-3, 448 Кбит/сек, 6 канала(ов), 48,0 КГц - Профессиональный (многоголосый, закадровый) DVD GroupАудио 2: AC-3, 384 Кбит/сек, 6 канала(ов), 48,0 КГц -Профессиональный (двухголосый, закадровый) НТВ+Аудио 3: AC-3, 448 Кбит/сек, 6 канала(ов), 48,0 КГц -Авторский одноголосый - Д.Пучков-новыйАудио 4: AC-3, 448 Кбит/сек, 6 канала(ов), 48,0 КГц -Авторский одноголосый - Д.Пучков-старыйАудио 5: AC-3, 448 Кбит/сек, 6 канала(ов), 48,0 КГц -Авторский одноголосый Ю.ЖивовАудио 6: AC-3, 192 Кбит/сек, 2 канала(ов), 48,0 КГц -Авторский одноголосый - С.ВизгуновАудио 7: AC-3, 448 Кбит/сек, 6 канала(ов), 48,0 КГц -EnglishСубтитры: Русские (полные)|Русские (по новому переводу Гоблина)| Русские (по старому переводу Гоблина)| Английские 4,37 Gb 3 1 15 августа 2016 05:26 Кровавый четверг / Thursday (1998) BDRip от HQCLUB .torrent   [Информация о файле (нажмите для просмотра)] Перевод: Профессиональный (многоголосый. закадровый) НТВ+ +Профессиональный (многоголосый. закадровый) Двд-группСубтитры: Русские (3 вида: двд-групп, 2 SDH по Гоблину - содержат ненормативную лексику), английские (внешние srt*)Формат: AVIКачество: BDRip (источник: Bluebird-HD /Blu-ray / 1080p)Видео: 720x304 (2.37:1), 23.976 fps, XviD build 65 ~1974 kbps avg, 0.30 bit/pixelАудио #1: 48 kHz, AC3 Dolby Digital, 3/2 (L,C,R,l,r) + LFE ch, ~384.00 kbps avgАудио #2: 48 kHz, AC3 Dolby Digital, 3/2 (L,C,R,l,r) + LFE ch, ~384.00 kbps avg(отдельно, http)Аудио #3: 48 kHz, AC3 Dolby Digital, 3/2 (L,C,R,l,r) + LFE ch, ~384.00 kbps avg(отдельно, http)Аудио #4: 48 kHz, AC3 Dolby Digital, 3/2 (L,C,R,l,r) + LFE ch, ~384.00 kbps avg(отдельно, http)Аудио #5: 48 kHz, AC3 Dolby Digital, 3/2 (L,C,R,l,r) + LFE ch, ~384.00 kbps avg(отдельно, http)Аудио #6: 48 kHz, AC3 Dolby Digital, 2/0 (L,R), ~192.00 kbps avg(отдельно, http)Аудио #7: 48 kHz, AC3 Dolby Digital, 3/2 (L,C,R,l,r) + LFE ch, ~384.00 kbps avg(отдельно, http) 1,45 Gb 4 2 15 августа 2016 05:26 Кровавый четверг / Thursday (1998) HDRip от Scarabey | P .torrent   [Информация о файле (нажмите для просмотра)] Перевод: Профессиональный (многоголосый, закадровый)Качество: HDRipФормат: AVIВидео: 688x368 (1.87:1), 23.976 fps, XviD build 73 ~1899 kbps avg, 0.31 bit/pixelАудио: 48 kHz, AC3 Dolby Digital, 3/2 (L,C,R,l,r) + LFE ch, ~448.00 kbps avg 1,45 Gb 7 2 15 августа 2016 05:26 Кровавый четверг / Thursday (1998) HDRip от Scarabey | P .torrent   [Информация о файле (нажмите для просмотра)] Перевод: Профессиональный (многоголосый, закадровый)Качество: HDRipФормат: AVIВидео: 624x336 (1.86:1), 23.976 fps, XviD build 73 ~1050 kbps avg, 0.21 bit/pixelАудио: 48 kHz, MPEG Layer 3, 2 ch, ~128.00 kbps avg 746,05 Mb 5 1 15 августа 2016 05:26 Кровавый четверг / Thursday (1998) BDRip-AVC | P2, A .torrent   [Информация о файле (нажмите для просмотра)] Перевод: Профессиональный двухголосый закадровый, авторский (Д.Пучков)Кодек: x.264Качество: BDRip-AVCВидео: 1152x624, 23.976 fps, 2334 kbpsЗвук: AC-3, 6 ch, 384 kbps (Rus) (Двухголосый НТВ+) AC-3, 6 ch, 384 kbps (Rus) (Д.Пучков new) AC-3, 6 ch, 384 kbps (Eng)Субтитры: Русские 2,18 Gb 2 2 15 августа 2016 05:26 Кровавый четверг / Thursday (1998) BDRip-AVC от Rulya74 | P .torrent   [Информация о файле (нажмите для просмотра)] Перевод: Профессиональный (многоголосый закадровый), Оригинал (Английский)Кодек: х.264Качество: BDRip-AVCВидео: 960х512 (1,85:1), 23,976 fps, 1599 kbps, 0.136 bit/pixelАудио #1: 48 kHz, AC3 Dolby Digital, 6 ch, ~384.00 kbps (Русский)Аудио #2: 48 kHz, AC3 Dolby Digital, 6 ch, ~384.00 kbps (Английский)Субтитры: Русские, Английские (отключаемые)Видео: Идентификатор : 1 Формат : AVC Формат/Информация : Advanced Video Codec Профиль формата : [email protected] Параметр CABAC формата : Да Параметр ReFrames формата : 7 кадров Идентификатор кодека : V_MPEG4/ISO/AVC Продолжительность : 1 ч. 27 м. Битрейт : 1599 Кбит/сек Ширина : 960 пикселей Высота : 512 пикселей Соотношение сторон : 1,85:1 Режим частоты кадров : Постоянный Частота кадров : 23,976 кадра/сек Цветовое пространство : YUV Субдискретизация насыщенности : 4:2:0 Битовая глубина : 8 бит Тип развёртки : Прогрессивная Бит/(Пиксели*Кадры) : 0.136 Размер потока : 976 Мбайт (66%) Библиотека кодирования : x264 core 133 r2334 a3ac64b Настройки программы : cabac=1 / ref=7 / deblock=1:-3:-3 / analyse=0x3:0x113 / me=umh / subme=9 / psy=1 / psy_rd=1.02:0.12 / mixed_ref=1 / me_range=32 / chroma_me=1 / trellis=2 / 8x8dct=1 / cqm=0 / deadzone=21,11 / fast_pskip=0 / chroma_qp_offset=-3 / threads=2 / lookahead_threads=1 / sliced_threads=0 / nr=0 / decimate=1 / interlaced=0 / bluray_compat=0 / constrained_intra=0 / bframes=5 / b_pyramid=2 / b_adapt=1 / b_bias=0 / direct=3 / weightb=1 / open_gop=0 / weightp=2 / keyint=240 / keyint_min=23 / scenecut=40 / intra_refresh=0 / rc_lookahead=40 / rc=2pass / mbtree=1 / bitrate=1599 / ratetol=1.0 / qcomp=0.60 / qpmin=10 / qpmax=69 / qpstep=4 / cplxblur=20.0 / qblur=0.5 / vbv_maxrate=62500 / vbv_bufsize=78125 / nal_hrd=none / ip_ratio=1.40 / aq=2:1.00 Default : Да Forced : Нет Аудио #1: Идентификатор : 2 Формат : AC-3 Формат/Информация : Audio Coding 3 Расширение режима : CM (complete main) Параметр Endianness формата : Big Идентификатор кодека : A_AC3 Продолжительность : 1 ч. 27 м. Вид битрейта : Постоянный Битрейт : 384 Кбит/сек Каналы : 6 каналов Расположение каналов : Front: L C R, Side: L R, LFE Частота : 48,0 КГц Битовая глубина : 16 бит Метод сжатия : С потерями Размер потока : 241 Мбайт (16%) Заголовок : Профессиональный (многоголосый закадровый) Язык : Russian Default : Да Forced : Нет Аудио #2: Идентификатор : 3 Формат : AC-3 Формат/Информация : Audio Coding 3 Расширение режима : CM (complete main) Параметр Endianness формата : Big Идентификатор кодека : A_AC3 Продолжительность : 1 ч. 27 м. Вид битрейта : Постоянный Битрейт : 384 Кбит/сек Каналы : 6 каналов Расположение каналов : Front: L C R, Side: L R, LFE Частота : 48,0 КГц Битовая глубина : 16 бит Метод сжатия : С потерями Размер потока : 241 Мбайт (16%) Заголовок : Оригинал Язык : English Default : Нет Forced : Нет 1,45 Gb 4 5 15 августа 2016 05:26 Кровавый четверг / Thursday (1998) BDRip 1080p от NNNB | P, A .torrent   [Информация о файле (нажмите для просмотра)] Перевод: Профессиональный (многоголосый закадровый), Авторский одноголосый (Д.Пучков (новый))Качество: BDRip 1080p (исходник Blu-ray Remux)Видео: 1920x1040, 11117 Кбит/сек, 23,976 кадр/сек, AVC, x264, [email protected], 1.85:1, 0.232 Бит/[Пиксели*Кадры], 2passАудио 1: AC-3, 448 Кбит/сек, 6 канала(ов), 48,0 КГц - Многоголосый закадровый / РусскийАудио 2: AC-3, 448 Кбит/сек, 6 канала(ов), 48,0 КГц - Одноголосый (Д.Пучков (новый)) / РусскийАудио 3: AC-3, 640 Кбит/сек, 6 канала(ов), 48,0 КГц - Оригинал / АнглийскийСубтитры: Русские | Полные / Д.Пучков, Английские | Полные 7,75 Gb 3 1 15 августа 2016 05:26 Кровавый четверг / Thursday (1998) BDRip-AVC | P, P2, A .torrent   [Информация о файле (нажмите для просмотра)] Перевод: Профессиональный многоголосый, профессиональный двухголосый, авторскийСубтитры: Русские, английскиеКачество: BDRip (AVC)Видео: MPEG-4 AVC, 2868 Кбит/с, 1024x552, 23.976 кадр/сАудио: 1.Russian(Профессиональный многоголосый - DVD Group) - (AC3, 6 ch, 448 Кбит/с) 2.Russian(Профессиональный двухголосый - НТВ+) - (AC3, 6 ch, 384 Кбит/с) 3.Russian(Авторский одноголосый - Д.Пучков-новый) - (AC3, 6 ch, 448 Кбит/с) 4.Russian(Авторский одноголосый - Д.Пучков-старый) - (AC3, 6 ch, 448 Кбит/с) 4.Russian(Авторский одноголосый - Ю.Живов) - (AC3, 6 ch, 448 Кбит/с) 5.Russian(Авторский одноголосый - С.Визгунов) - (AC3, 2 ch, 192 Кбит/с) 6.English - (AC3, 6 ch, 448 Кбит/с)MediaInfo:Format : Matroska Format version : Version 2 File size : 3.48 GiB Duration : 1h 27mn Overall bit rate : 5 677 Kbps Movie name : Respector Encoded date : UTC 2013-09-28 08:33:11 Writing application : mkvmerge v6.1.0 ('Old Devil') built on Mar 2 2013 14:32:37 Writing library : libebml v1.3.0 + libmatroska v1.4.0 3,48 Gb 3 3 15 августа 2016 05:26 Кровавый четверг / Thursday (1998) BDRip 720p | P, P2, A .torrent   [Информация о файле (нажмите для просмотра)] Перевод: Профессиональный многоголосый, профессиональный двухголосый, авторскийСубтитры: Русские, английскиеКачество: BDRip (720p)Видео: MPEG-4 AVC, 8459 Кбит/с, 1280x694, 23.976 кадр/сАудио: 1.Russian(Профессиональный многоголосый - DVD Group) - (AC3, 6 ch, 448 Кбит/с) 2.Russian(Профессиональный двухголосый - НТВ+) - (AC3, 6 ch, 384 Кбит/с) 3.Russian(Авторский одноголосый - Д.Пучков-новый) - (AC3, 6 ch, 448 Кбит/с) 4.Russian(Авторский одноголосый - Д.Пучков-старый) - (AC3, 6 ch, 448 Кбит/с) 4.Russian(Авторский одноголосый - Ю.Живов) - (AC3, 6 ch, 448 Кбит/с) 5.Russian(Авторский одноголосый - С.Визгунов) - (AC3, 2 ch, 192 Кбит/с) 6.English - (DTS, 6 ch, 1510 Кбит/с)Субтитры: Русские (полные, по новому и старому переводу Гоблина), английские (полные) 7,72 Gb 4 2 15 августа 2016 05:26 Кровавый четверг / Thursday (1998) HDTVRip .torrent   [Информация о файле (нажмите для просмотра)] Перевод: Профессиональный (многоголосый закадровый)Перевод: Авторский (одноголосый закадровый) Гоблин - NewПеревод: Авторский (одноголосый закадровый) Гоблин - OldПеревод: Авторский (одноголосый закадровый) ЖивовВидео: 720x400 (1.80:1), 50 fps, XviD build 50 ~2013 kbps avg, 0.14 bit/pixelАудио: 48 kHz, AC3 Dolby Digital, 3/2 (L,C,R,l,r) + LFE ch, ~448 kbpsMVOАудио: 48 kHz, AC3 Dolby Digital, 3/2 (L,C,R,l,r) + LFE ch, ~448 kbpsГоблин - NewАудио: 48 kHz, AC3 Dolby Digital, 3/2 (L,C,R,l,r) + LFE ch, ~448 kbpsГоблин - OldАудио: 48 kHz, AC3 Dolby Digital, 3/2 (L,C,R,l,r) + LFE ch, ~448 kbpsЖивовАудио: 48 kHz, AC3 Dolby Digital, 3/2 (L,C,R,l,r) + LFE ch, ~448 kbpsENG 2,51 Gb 3 1 15 августа 2016 05:25 Кровавый четверг / Thursday (1998) HDTVRip 1080i .torrent   [Информация о файле (нажмите для просмотра)] Перевод: Профессиональный многоголосый (компания "ДВД Групп", 2001 год) / Авторский одноголосый (Дмитрий Пучков - Гоблин (старая и новая версия) / Юрий Живов)Субтитры: Русские (3 варианта: по многоголоске, по старому и новому переводу Гоблина), английскиеКодек: MPEG-4 AVCКачество: HDTVRip 1080iВидео: 6219 Кбит/с, 1920x1080, 50.000 Кадр/сЗвук: Русский (АС3, 6 ch, 448 Кбит/с - многоголосый), 3 х русский (АС3, 6 ch, 448 Кбит/с - одноголосые), английский (АС3, 6 ch, 448 Кбит/с) 5,07 Gb 3 3 15 августа 2016 05:25 Кровавый четверг / Thursday (1998) DVDRip от PlanetaUA .torrent   [Информация о файле (нажмите для просмотра)] Качество: DVDRipФормат: AVI 1,37 Gb 5 2 15 августа 2016 05:25 Кровавый четверг / Thursday (1998) DVDRip .torrent   [Информация о файле (нажмите для просмотра)] Перевод: любительский (перевод Гоблина / Полный Пэ)Формат: AVIКачество: DVDRipВидео: 704x384, 23.976 fps, 982 kbpsАудио: 48000Hz, 2ch (stereo), 128 kbps 700,03 Mb 3 5

gig-torrent.net

Скачать фильмы Кровавый четверг - ТОРРЕНТИНО - торрент трекер

Кровавый четверг / ThursdayГод выпуска: 1998Страна: СШАЖанр: боевик, триллер, драма, криминалПродолжительность: 01:27:36Перевод:Профессиональный (многоголосый, закадровый)Авторский (одноголосый)- Юрий ЖивовАвторский (одноголосый)- Сергей ВизгуновРусские субтитры: нетРежиссер: Скип Вудс / Skip WoodsВ ролях:Томас ДжейнАарон ЭкхартПолина ПоризковаДжеймс ЛеГроПола МаршаллМайкл ДжитерГленн ПламмерМикки РуркЛюк ХариБари К. УиллерфордОписание:Бывший торговец наркотиками, прошедший через все круги ада, решает выйти на пенсию и забыть о своем темном прошлом. Переехав из Лос-Анджелеса в Хьюстон, он резко меняет свой имидж, и в глазах окружающих становится обыкновенным гражданином, которого трудно заподозрить в чем-либо криминальном. Однако, судьба готовит очередной, самый неожиданный сюрприз бывшему наркодилеру. В город приезжает его подельник с грузом героина. Компаньон и не думал забывать о своем партнере все то время, пока тот строил свою новую жизнь. Он предлагает ему последнюю сделку. За все однажды приходится платить и бывший наркоделец оказывается на волосок от смерти. Неудачный четверг выдался у Кэйси, собирающегося вместе со своей женой усыновить ребенка. Как раз в этот день должен был прийти чиновник из департамента усыновления, а заявился Ник, его старый друг по бандитским делам (надо сказать, что Кэйси «завязал»), оставил на хранение кейс и одолжил машину. Обнаружив, что в кейсе спрятаны наркотики, Кэйси выбросил их в водопровод. После этого заявился чернокожий бандит, который, узнав о печальной судьбе наркоты, должен был застрелить Кэйси, но тот попросил напоследок покурить марихуаны и, воспользовавшись расслабленностью бандита, подвесил его вниз головой в подвале. Потом пришел чиновник из отдела усыновления, а затем сексапильная брюнетка в розовом платье. Домогаясь денег или наркотиков, она изнасиловала Кэйси. Ее застрелил еще один подоспевший «охотник» за товаром. Его Кэйси удалось вырубить сковородкой и подвесить все в том же подвале. После звонка раненого Ника, сообщившего, что он улетает, явился и полицейский (Рурк), у которого Ник украл деньги. Добавьте сюда банду негров, у которых Ник украл наркотики, и картина будет почти полной. Ну как, хватит неприятностей на один четверг? (М. Иванов) Кейси Уэллс завязал с проклятым прошлым: он больше никого не грабит, никого не убивает, не торгует наркотиками и даже их не употребляет. Кейси Уэллс теперь настоящий тихий американец. Он старается жить правильно: ест только здоровую пищу, пьёт исключительно полезный соевый заменитель молока, работает архитектором и пытается любить свою жену.Однако от проклятого прошлого не так-то просто отвязаться! В один прекрасный день (то есть в четверг) ему звонит старый друг Ник, который по-прежнему грабит, убивает, торгует наркотиками и, само собой, активно их употребляет. На слух о том, что Ник остановился у Кейси, в домик Кейси подтягиваются: негр-киллер, озверевшая лесбиянка, эстетически ориентированный садист и продажный полицейский.И тогда Кейси всем подряд показывает, что в этой жизни к чему. Четверг одназначно удался!(Д. Пучков) В жизни любого, даже самого крутого парня, наступает момент, когда ему хочется беспощадно порвать с прошлым и дрожащей рукой откинуть завесу будущего. В том смысле, что завязать со всей этой наркотой, убийствами и лихой, но быстрой жизнью, после чего слинять в какой-нибудь тихий городок, выучиться на архитектора, жениться и по выходным делать с семьей барбекю, вспоминая о прошлых безумствах, потягивая светлое пивко из бутылки. Собственно, Кейси (Томас Джейн) так и сделал. Когда он понял, что жизнь наркодилера изрядно коротка, и его кто-нибудь может пристрелить с той же легкостью, с которой он вышибал мозги многим другим парням, вся вина которых состояла только в том, что они или оказались не в то время не в том месте, либо же владели неким белым порошочком, которым хотел завладеть Кейси, - он бросил этот дьявольский город ангелов и уехал в Хьюстон - тихое местечко, где самое жуткое событие - это пригоревший кусок мяса на решетке во время воскресного барбекю. Качество: DVDRipФормат: AVIВидео кодек: DivXАудио кодек: AC3Видео: 720x384 (1.88:1), 23.976 fps, DivX Codec 6.8.5/6.9.1 ~1954 kbps avg, 0.29 bit/pixel

www.torrentino.me

Кровавый четверг 1998 - скачать бесплатно через торрент в хорошем качестве. Без регистрации

Название: Кровавый четверг / Thursday (1998) BDRip 720p от HELLYWOOD | P, P2, A
Перевод: Профессиональный (многоголосый) [R5], Профессиональный (двухголосый) [НТВ+], Авторский (одноголосый) [Ю.Сербин, Ю.Живов, Д.Пучков (х2)]
Видео: AVC, 1280x696 (16:9), 8619 kbps, 23,976 fps, 0,404 bpp
Аудио: AC3 / 5.1 / 48 kHz / 448 kbps / 16 bit | MVO - R5AC3 / 5.1 / 48 kHz / 384 kbps / 16 bit | DVO - НТВ+AC3 / 5.1 / 48 kHz / 640 kbps / 16 bit | AVO - Ю.СербинAC3 / 5.1 / 48 kHz / 640 kbps / 16 bit | AVO - Ю.ЖивовAC3 / 5.1 / 48 kHz / 640 kbps / 16 bit | AVO - Д.Пучков [ранний]AC3 / 5.1 / 48 kHz / 448 kbps / 16 bit | AVO - Д.Пучков [поздний]AC3 / 2.0 / 48 kHz / 192 kbps / 16 bit | UKR - DVO [1+1]AC3 / 5.1 / 48 kHz / 640 kbps / 16 bit | ENG
Скачать

Загрузка начнется в течение 5 сек.

7.76 GB

Название: Кровавый четверг / Thursday (1998) HDRip | КПК | Goblin
Качество видео: HDRip
Перевод: Авторский (одноголосый закадровый) [Д. Пучков aka Goblin]
Видео: H.264 640x344, 688 kbps, 23,976 fps, 0,130 Bits/(Pixel*Frame)
Аудио: AAC, 48 kHz, 2 ch, 96 kbps
Скачать

Загрузка начнется в течение 5 сек.

494.61 MB

Название: Кровавый четверг / Thursday (1998) BDRip от New-Team
Качество видео: BDRip [BDRemux 1080p / RUTOR]
Формат видео: AVI
Видео: XviD 704x384 (1.83:1), 23.976 fps, XviD build 73 ~2216 kbps avg, 0.34 bit/pixel
Аудио: AC3 английскийAC348 kHz, AC3 Dolby Digital, 3/2 (L,C,R,l,r) + LFE ch, ~448 kbps | AVO | Гоблин/new48 kHz, AC3 Dolby Digital, 3/2 (L,C,R,l,r) + LFE ch, ~448 kbps | AVO | Гоблин/old48 kHz, AC3 Dolby Digital, 3/2 (L,C,R,l,r) + LFE ch, ~448 kbps | MVO | DVD Group48 kHz, AC3 Dolby Digital, 3/2 (L,C,R,l,r) + LFE ch, ~384 kbps | DVO | НТВ+ (отдельно)48 kHz, AC3 Dolby Digital, 3/2 (L,C,R,l,r) + LFE ch, ~448 kbps | AVO | Живов (отдельно)48 kHz, AC3 Dolby Digital, 3/2 (L,C,R,l,r) + LFE ch, ~448 kbps | Original (отдельно)
Скачать

Загрузка начнется в течение 5 сек.

2.97 GB

Название: Кровавый четверг / Thursday (1998) HDRip-AVC | Гоблин
Качество видео: HDRip-AVC [BDRip 720p]
Перевод: Авторский (одноголосый закадровый) Д. Пучков ака Гоблин
Видео: x264 784x424 (16:9), 23,976 fps, x264, ~1113 kbps avg, 0.140 bit/pixel
Аудио: 48 kHz, AAC-LC, 2 ch, ~80.00 kbps avg
Скачать

Загрузка начнется в течение 5 сек.

745.22 MB

Название: Кровавый четверг / Thursday (1998) BDRip-AVC от HQ-ViDEO
Качество видео: BDRip-AVC (Исходник: Thursday 1998 1080p Director's Cut GER Blu-ray AVC DTS-HD MA 5.1-CineArk)
Перевод: Русский многоголосый перевод (R5) + Оригинальная дорожка
Формат видео: MKV
Видео: MPEG-4 AVC, x264, 1098 x 596; 23.976 fps; 2650 kbps; 0.169 bit/pixel
Аудио: 48 kHz, AC3 Dolby Digital, 3/2 (L,C,R,l,r) + LFE ch, ~448.00 kbps avg48 kHz, AC3 Dolby Digital, 3/2 (L,C,R,l,r) + LFE ch, ~448.00 kbps avg
Скачать

Загрузка начнется в течение 5 сек.

2.17 GB

Название: Кровавый четверг / Thursday (1998) BDRip 720p от LEONARDO and Scarabey
Качество видео: BDRip 720p Исходник: Blu-ray
Перевод: Профессиональный (двухголосый закадровый) НТВ+Профессиональный (многоголосый закадровый) MVO-DVD.GroupАвторский (одноголосый закадровый) Д. Пучков ака Гоблин
Формат видео: MKV Видео кодек: MPEG-4 AVC Аудио кодек: AC3
Видео: AVC, 1280x694 (1.85:1) at 23.976 fps, AVC at 5701 kbps avg, 0.261 bit/pixel
Аудио: 48 kHz, AC3 Dolby Digital, 3/2 (L,C,R,l,r) + LFE ch, 384.00 kbps - Russian - Профессиональный (двухголосый закадровый) НТВ+48 kHz, AC3 Dolby Digital, 3/2 (L,C,R,l,r) + LFE ch, 448.00 kbps - Russian - Профессиональный (многоголосый закадровый) MVO-DVD.Group48 kHz, AC3 Dolby Digital, 3/2 (L,C,R,l,r) + LFE ch, 448.00 kbps - Russian - Авторский (одноголосый закадровый) Goblin
Скачать

Загрузка начнется в течение 5 сек.

4.28 GB

Название: Кровавый четверг / Thursday (1998) BDRip от New-team
Качество видео: BDRip | sample
Перевод: Авторский (Сербин Юрий)
Видео: XviD, 704x384 (16:9), 1913 kbps, 23,976 fps, 0,295 bpp
Аудио: AC3 / 5.1 / 48 kHz / 448 kbps / 16 bit
Скачать

Загрузка начнется в течение 5 сек.

1.45 GB

Название: Кровавый четверг / Thursday (1998) BDRemux 1080p
Качество видео: BDRemux 1080p
Перевод: Перевод: Профессиональный (многоголосый закадровый) (DVD Group)
Видео: MKV MPEG-4 AVC, 25.3 Мбит/с, 1920x1080, 23.976 кадр/с
Аудио: Russian, AC3, 6 ch, 448 Кбит/с (Профессиональный многоголосый, DVD Group)
Скачать

Загрузка начнется в течение 5 сек.

18.50 GB

Название: Кровавый четверг / Thursday (1998) BDRip 720p | P, A
Качество видео: BDRip 720p (исходник Blu-ray Disc)
Перевод: Профессиональный (многоголосый, закадровый), Профессиональный (двухголосый, закадровый), Авторский одноголосый, Оригинальнал
Видео: 1288x694, 4 311 Кбит/сек, 23,976 кадр/сек, AVC, x264, [email protected], 1.85:1, 0.202 Бит/[Пиксели*Кадры], 2pass
Аудио: AC-3, 448 Кбит/сек, 6 канала(ов), 48,0 КГц - Профессиональный (многоголосый, закадровый) DVD GroupAC-3, 384 Кбит/сек, 6 канала(ов), 48,0 КГц - Профессиональный (двухголосый, закадровый) НТВ+AC-3, 448 Кбит/сек, 6 канала(ов), 48,0 КГц - Авторский одноголосый - Д.Пучков-новыйAC-3, 448 Кбит/сек, 6 канала(ов), 48,0 КГц - Авторский одноголосый - Д.Пучков-старыйAC-3, 448 Кбит/сек, 6 канала(ов), 48,0 КГц - Авторский одноголосый Ю.ЖивовAC-3, 192 Кбит/сек, 2 канала(ов), 48,0 КГц - Авторский одноголосый - С.ВизгуновAC-3, 448 Кбит/сек, 6 канала(ов), 48,0 КГц - English
Скачать

Загрузка начнется в течение 5 сек.

4.37 GB

Название: Кровавый четверг / Thursday (1998) BDRip от HQCLUB
Качество видео: BDRip (источник: Bluebird-HD / Blu-ray / 1080p)
Перевод: Профессиональный (многоголосый. закадровый) НТВ+ + Профессиональный (многоголосый. закадровый) Двд-групп (отдельно, http) + Авторский одноголосый Д.Пучков (Гоблин) (старый перевод) (отдельно, http) +
Формат видео: AVI
Видео: 720x304 (2.37:1), 23.976 fps, XviD build 65 ~1974 kbps avg, 0.30 bit/pixel
Аудио: 48 kHz, AC3 Dolby Digital, 3/2 (L,C,R,l,r) + LFE ch, ~384.00 kbps avg48 kHz, AC3 Dolby Digital, 3/2 (L,C,R,l,r) + LFE ch, ~384.00 kbps avg (отдельно, http)48 kHz, AC3 Dolby Digital, 3/2 (L,C,R,l,r) + LFE ch, ~384.00 kbps avg (отдельно, http)48 kHz, AC3 Dolby Digital, 3/2 (L,C,R,l,r) + LFE ch, ~384.00 kbps avg (отдельно, http)48 kHz, AC3 Dolby Digital, 3/2 (L,C,R,l,r) + LFE ch, ~384.00 kbps avg (отдельно, http)48 kHz, AC3 Dolby Digital, 2/0 (L,R), ~192.00 kbps avg (отдельно, http)48 kHz, AC3 Dolby Digital, 3/2 (L,C,R,l,r) + LFE ch, ~384.00 kbps avg (отдельно, http)
Скачать

Загрузка начнется в течение 5 сек.

1.45 GB

Название: Кровавый четверг / Thursday (1998) HDRip от Scarabey | P
Качество видео: HDRip
Перевод: Профессиональный (многоголосый, закадровый)
Формат видео: AVI
Видео: 688x368 (1.87:1), 23.976 fps, XviD build 73 ~1899 kbps avg, 0.31 bit/pixel
Аудио: 48 kHz, AC3 Dolby Digital, 3/2 (L,C,R,l,r) + LFE ch, ~448.00 kbps avg
Скачать

Загрузка начнется в течение 5 сек.

1.45 GB

Название: Кровавый четверг / Thursday (1998) HDRip от Scarabey | P
Качество видео: HDRip
Перевод: Профессиональный (многоголосый, закадровый)
Формат видео: AVI
Видео: 624x336 (1.86:1), 23.976 fps, XviD build 73 ~1050 kbps avg, 0.21 bit/pixel
Аудио: 48 kHz, MPEG Layer 3, 2 ch, ~128.00 kbps avg
Скачать

Загрузка начнется в течение 5 сек.

746.05 MB

Название: Кровавый четверг / Thursday (1998) BDRip-AVC | P2, A
Качество видео: BDRip-AVC
Перевод: Профессиональный двухголосый закадровый, авторский (Д.Пучков)
Видео: x.264 1152x624, 23.976 fps, 2334 kbps
Аудио: AC-3, 6 ch, 384 kbps (Rus) (Двухголосый НТВ+)
Скачать

Загрузка начнется в течение 5 сек.

2.18 GB

Название: Кровавый четверг / Thursday (1998) BDRip-AVC от Rulya74 | P
Качество видео: BDRip-AVC
Перевод: Профессиональный (многоголосый закадровый), Оригинал (Английский)
Видео: х.264 960х512 (1,85:1), 23,976 fps, 1599 kbps, 0.136 bit/pixel
Аудио: 48 kHz, AC3 Dolby Digital, 6 ch, ~384.00 kbps (Русский)48 kHz, AC3 Dolby Digital, 6 ch, ~384.00 kbps (Английский)
Скачать

Загрузка начнется в течение 5 сек.

1.45 GB

Название: Кровавый четверг / Thursday (1998) BDRip 1080p | P, A
Качество видео: BDRip 1080p (исходник Blu-ray Remux)
Перевод: Профессиональный (многоголосый закадровый), Авторский одноголосый (Д.Пучков (новый))
Видео: 1920x1040, 11117 Кбит/сек, 23,976 кадр/сек, AVC, x264, [email protected], 1.85:1, 0.232 Бит/[Пиксели*Кадры], 2pass
Аудио: AC-3, 448 Кбит/сек, 6 канала(ов), 48,0 КГц - Многоголосый закадровый / РусскийAC-3, 448 Кбит/сек, 6 канала(ов), 48,0 КГц - Одноголосый (Д.Пучков (новый)) / РусскийAC-3, 640 Кбит/сек, 6 канала(ов), 48,0 КГц - Оригинал / Английский
Скачать

Загрузка начнется в течение 5 сек.

7.75 GB

Название: Кровавый четверг / Thursday (1998) BDRip-AVC | P, P2, A
Качество видео: BDRip (AVC)
Перевод: Профессиональный многоголосый, профессиональный двухголосый, авторский
Видео: MPEG-4 AVC, 2868 Кбит/с, 1024x552, 23.976 кадр/с
Скачать

Загрузка начнется в течение 5 сек.

3.48 GB

Название: Кровавый четверг / Thursday (1998) BDRip 720p | P, P2, A
Качество видео: BDRip (720p)
Перевод: Профессиональный многоголосый, профессиональный двухголосый, авторский
Видео: MPEG-4 AVC, 8459 Кбит/с, 1280x694, 23.976 кадр/с
Аудио: 1.Russian(Профессиональный многоголосый - DVD Group) - (AC3, 6 ch, 448 Кбит/с)
Скачать

Загрузка начнется в течение 5 сек.

7.72 GB

Название: Кровавый четверг / Thursday (1998) HDTVRip-AVC от olegek70 | P, A
Качество видео: HDTVRip-AVC (HDTV (1080i))
Перевод: Профессиональный многоголосый, авторский одноголосый
Видео: MKV, H.264 MPEG-4 AVC, 2440 Кбит/с, 1024х576
Аудио: Русский, английский (АС3, 6 ch, 448 Кбит/с)
Скачать

Загрузка начнется в течение 5 сек.

2.75 GB

www.kinovit.net

rutor.org :: Кровавый четверг / Thursday (1998) HDTVRip ::: Скачать торрент

Кровавый четверг / Thursday (1998) HDTVRip

Страна: СШАЖанр: боевик, триллер, драма, криминалГод выпуска: 1998Продолжительность: 01:24:11

Перевод: Профессиональный (многоголосый закадровый)****************************************************Отдельно:Перевод: Авторский (одноголосый закадровый) Гоблин - NewПеревод: Авторский (одноголосый закадровый) Гоблин - OldПеревод: Авторский (одноголосый закадровый) ЖивовCубтитры: русские, английскиеОригинальная аудиодорожка: английский

Режиссер: Скип Вудс / Skip Woods

В ролях: Томас Джейн, Аарон Экхарт, Паулина Поризкова, Джеймс ЛеГро, Пола Маршалл, Майкл Джитер, Гленн Пламмер, Микки Рурк, Люк Хари, Бари К. Уиллерфорд

Описание: Бывший торговец наркотиками, прошедший через все круги ада, решает выйти на пенсию и забыть о своем темном прошлом. Переехав из Лос-Анджелеса в Хьюстон, он резко меняет свой имидж, и в глазах окружающих становится обыкновенным гражданином, которого трудно заподозрить в чем-либо криминальном. Однако, судьба готовит очередной, самый неожиданный сюрприз бывшему наркодилеру. В город приезжает его подельник с грузом героина. Компаньон и не думал забывать о своем партнере все то время, пока тот строил свою новую жизнь. Он предлагает ему последнюю сделку. За все однажды приходится платить и бывший наркоделец оказывается на волосок от смерти.

Доп. информация:

Качество видео:HDTVRip(Исх. HDTVRip 1080i)Формат видео: AVI

Видео: 720x400 (1.80:1), 50 fps, XviD build 50 ~2013 kbps avg, 0.14 bit/pixelАудио: 48 kHz, AC3 Dolby Digital, 3/2 (L,C,R,l,r) + LFE ch, ~448 kbps MVO***********************************************************************************Отдельно:Аудио: 48 kHz, AC3 Dolby Digital, 3/2 (L,C,R,l,r) + LFE ch, ~448 kbps Гоблин - NewАудио: 48 kHz, AC3 Dolby Digital, 3/2 (L,C,R,l,r) + LFE ch, ~448 kbps Гоблин - OldАудио: 48 kHz, AC3 Dolby Digital, 3/2 (L,C,R,l,r) + LFE ch, ~448 kbps ЖивовАудио: 48 kHz, AC3 Dolby Digital, 3/2 (L,C,R,l,r) + LFE ch, ~448 kbps ENGФормат субтитров: softsub (SRT)

MediaInfo

General Complete name : L:Krovaviy chetverg.chopper887Krovaviy chetverg.chopper887.avi Format : AVI Format/Info : Audio Video Interleave File size : 1.46 GiB Duration : 1h 24mn Overall bit rate : 2 480 Kbps Movie name : Krovaviy chetverg.chopper887 Director : chopper887 Genre : Crime/Drama/Thriller Writing application : VirtualDubMod 1.5.10.2 (build 2540/release) Original source form/Name : Movie

Video ID : 0 Format : MPEG-4 Visual Format profile : [email protected] Format settings, BVOP : Yes Format settings, QPel : No Format settings, GMC : No warppoints Format settings, Matrix : Custom Codec ID : XVID Codec ID/Hint : XviD Duration : 1h 24mn Bit rate : 2 013 Kbps Width : 720 pixels Height : 400 pixels Display aspect ratio : 16:9 Frame rate : 50.000 fps Resolution : 24 bits Colorimetry : 4:2:0 Scan type : Progressive Bits/(Pixel*Frame) : 0.140 Stream size : 1.18 GiB (81%) Writing library : XviD 1.2.1 (UTC 2008-12-04)

Audio ID : 1 Format : AC-3 Format/Info : Audio Coding 3 Codec ID : 2000 Duration : 1h 24mn Bit rate mode : Constant Bit rate : 448 Kbps Channel(s) : 6 channels Channel positions : Front: L C R, Surround: L R, LFE Sampling rate : 48.0 KHz Stream size : 269 MiB (18%) Alignment : Split accross interleaves Interleave, duration : 20 ms (1.00 video frame) Interleave, preload duration : 500 ms

main-rutor.org

rutor.org :: Кровавый четверг / Thursday (1998) BDRip от New-team ::: Скачать торрент

Страна: СШАЖанр: боевик, триллер, драма, криминал

Год выпуска: 1998

Продолжительность: 01:27:47

Перевод: Авторский (Сербин Юрий)

Режиссер: Скип Вудс / Skip Woods

В ролях: Томас Джейн (Casey), Аарон Экхарт (Nick), Паулина Поризкова (Dallas), Джеймс ЛеГрос (Billy Hill), Пола Маршалл (Christine), Майкл Джитер (Dr. Jarvis), Гленн Пламмер (Ice), Микки Рурк (Kasarov), Люк Хари (Cashier), Бари К. Уиллерфорд (Cop), Ричард Вонг (Mr. Wong), Шон Майкл Ховард (Jimmy)

Описание: Бывший торговец наркотиками, прошедший через все круги ада, решает выйти на пенсию и забыть о своём тёмном прошлом. Переехав из Лос-Анджелеса в Хьюстон, он резко меняет свой имидж и в глазах окружающих становится обыкновенным гражданином, которого трудно заподозрить в чём-либо криминальном. Однако судьба готовит очередной, самый неожиданный сюрприз бывшему наркодилеру. В город приезжает его подельник с грузом героина. Компаньон и не думал забывать о своём партнёре всё то время, пока тот строил свою новую жизнь. Он предлагает ему последнюю сделку. За всё однажды приходится платить, и бывший наркоделец оказывается на волосок от смерти.

MPAA: R - Лицам до 17 лет обязательно присутствие взрослого

Качество: BDRip | sampleКонтейнер: AVIИсходник: BDRemux 1080pВидео: XviD, 704x384 (16:9), 1913 kbps, 23,976 fps, 0,295 bppАудио: AC3 / 5.1 / 48 kHz / 448 kbps / 16 bit

Media Info

General Complete name : E:My_ripThursday.1998.BDRip.[Youtracker].avi Format : AVI Format/Info : Audio Video Interleave File size : 1.45 GiB Duration : 1h 27mn Overall bit rate : 2 371 Kbps Writing application : VirtualDubMod 1.5.10.3 | www.virtualdub-fr.org || (build 2550/release) Writing library : VirtualDubMod build 2550/release

Video ID : 0 Format : MPEG-4 Visual Format profile : Advanced [email protected] Format settings, BVOP : 2 Format settings, QPel : No Format settings, GMC : No warppoints Format settings, Matrix : Custom Codec ID : XVID Codec ID/Hint : XviD Duration : 1h 27mn Bit rate : 1 913 Kbps Width : 704 pixels Height : 384 pixels Display aspect ratio : 16:9 Frame rate : 23.976 fps Color space : YUV Chroma subsampling : 4:2:0 Bit depth : 8 bits Scan type : Progressive Compression mode : Lossy Bits/(Pixel*Frame) : 0.295 Stream size : 1.17 GiB (81%) Writing library : XviD 65

Audio ID : 1 Format : AC-3 Format/Info : Audio Coding 3 Mode extension : CM (complete main) Codec ID : 2000 Duration : 1h 27mn Bit rate mode : Constant Bit rate : 448 Kbps Channel(s) : 6 channels Channel positions : Front: L C R, Side: L R, LFE Sampling rate : 48.0 KHz Bit depth : 16 bits Compression mode : Lossy Stream size : 281 MiB (19%) Alignment : Split accross interleaves Interleave, duration : 42 ms (1.00 video frame) Interleave, preload duration : 500 ms

main-rutor.org

rutor.org :: Кровавый четверг / Thursday (1998) BDRip-AVC от HQ-ViDEO ::: Скачать торрент

Кровавый четверг / Thursday (1998) BDRip-AVC Релиз от HQ-ViDEO

Жанр: Боевик, Триллер, Драма, КриминалГод выхода: 1998

Режиссер: Скип Вудс /Skip Woods/

В ролях: Пола Маршалл /Paula Marshall/, Люк Хари /Luck Hari/, Томас Джейн /Thomas Jane/, Бари К. Уиллерфорд /Bari K. Willerford/, Майкл Джитер /Michael Jeter/, Паулина Поризкова /Paulina Porizkova/, Джеймс ЛеГрос /James LeGros/, Гленн Пламмер /Glenn Plummer/, Аарон Экхарт /Aaron Eckhart/, Микки Рурк /Mickey Rourke/

Описание: Бывший торговец наркотиками, прошедший через все круги ада, решает выйти на пенсию и забыть о своём тёмном прошлом. Переехав из Лос-Анджелеса в Хьюстон, он резко меняет свой имидж и в глазах окружающих становится обыкновенным гражданином, которого трудно заподозрить в чём-либо криминальном. Однако судьба готовит очередной, самый неожиданный сюрприз бывшему наркодилеру. В город приезжает его подельник с грузом героина. Компаньон и не думал забывать о своём партнёре всё то время, пока тот строил свою новую жизнь. Он предлагает ему последнюю сделку. За всё однажды приходится платить, и бывший наркоделец оказывается на волосок от смерти.

Релиз:

Автор рипа: AngelOfTrue

Продолжительность: 01:27:47

Перевод: Русский многоголосый перевод (R5) + Оригинальная дорожка

Субтитры: Русские (полные), Английские (полные).

Информация о файле:Качество: BDRip-AVC (Исходник: Thursday 1998 1080p Director's Cut GER Blu-ray AVC DTS-HD MA 5.1-CineArk)Формат: MKVВидео: MPEG-4 AVC, x264, 1098 x 596; 23.976 fps; 2650 kbps; 0.169 bit/pixelАудио #1: 48 kHz, AC3 Dolby Digital, 3/2 (L,C,R,l,r) + LFE ch, ~448.00 kbps avgАудио #2: 48 kHz, AC3 Dolby Digital, 3/2 (L,C,R,l,r) + LFE ch, ~448.00 kbps avg

Log

avs [info]: 1098x596p 1:1 @ 2997/125 fps (cfr) x264 [warning]: --psnr used with psy on: results will be invalid! x264 [warning]: --tune psnr should be used if attempting to benchmark psnr! x264 [info]: using SAR=1/1 x264 [info]: using cpu capabilities: MMX2 SSE2Fast SSSE3 SSE4.2 AVX AVX2 FMA3 LZCNT BMI1 BMI2 x264 [info]: profile High, level 4.0

x264 [info]: frame I:1004 Avg QP:19.22 size: 71507 PSNR Mean Y:44.87 U:51.05 V:52.00 Avg:46.02 Global:45.31 x264 [info]: frame P:22738 Avg QP:21.93 size: 25432 PSNR Mean Y:43.09 U:50.58 V:51.56 Avg:44.37 Global:43.79 x264 [info]: frame B:102562 Avg QP:23.09 size: 10663 PSNR Mean Y:42.03 U:50.33 V:51.52 Avg:43.38 Global:42.73 x264 [info]: consecutive B-frames: 1.4% 1.0% 4.2% 8.3% 12.8% 49.2% 8.1% 3.3% 3.2% 2.5% 2.2% 2.7% 1.0% x264 [info]: mb I I16..4: 3.5% 86.7% 9.8% x264 [info]: mb P I16..4: 0.7% 8.2% 1.1% P16..4: 34.8% 39.8% 11.5% 0.9% 0.0% skip: 3.1% x264 [info]: mb B I16..4: 0.0% 0.8% 0.1% B16..8: 43.6% 19.5% 2.6% direct: 5.3% skip:28.2% L0:46.6% L1:47.5% BI: 5.9% x264 [info]: 8x8 transform intra:83.5% inter:62.5% x264 [info]: direct mvs spatial:99.8% temporal:0.2% x264 [info]: coded y,uvDC,uvAC intra: 90.0% 66.1% 26.8% inter: 29.8% 16.3% 1.4% x264 [info]: i16 v,h,dc,p: 32% 14% 8% 46% x264 [info]: i8 v,h,dc,ddl,ddr,vr,hd,vl,hu: 11% 5% 4% 11% 16% 15% 14% 12% 11% x264 [info]: i4 v,h,dc,ddl,ddr,vr,hd,vl,hu: 30% 5% 5% 7% 12% 13% 11% 9% 8% x264 [info]: i8c dc,h,v,p: 33% 28% 20% 20% x264 [info]: Weighted P-Frames: Y:10.1% UV:1.5% x264 [info]: ref P L0: 44.2% 7.6% 18.0% 8.2% 6.2% 4.7% 3.9% 2.3% 1.9% 1.6% 1.2% 0.2% 0.0% x264 [info]: ref B L0: 62.4% 14.9% 8.2% 4.5% 3.3% 2.6% 2.1% 1.2% 0.6% 0.2% x264 [info]: ref B L1: 89.6% 10.4% x264 [info]: SSIM Mean Y:0.9585112 (13.821db) x264 [info]: PSNR Mean Y:42.243 U:50.384 V:51.528 Avg:43.583 Global:42.921 kb/s:2647.99

MediaInfo

Format : Matroska Format version : Version 4 / Version 2 File size : 2.17 GiB Duration : 1h 27mn Overall bit rate : 3 546 Kbps Encoded date : UTC 2014-01-02 05:11:03 Writing application : mkvmerge v6.1.0 ('Old Devil') built on Mar 4 2013 09:10:42 Writing library : libebml v1.3.0 + libmatroska v1.4.0

Video ID : 1 Format : AVC Format/Info : Advanced Video Codec Format profile : [email protected] Format settings, CABAC : Yes Format settings, ReFrames : 11 frames Codec ID : V_MPEG4/ISO/AVC Duration : 1h 27mn Bit rate : 2 650 Kbps Width : 1 098 pixels Height : 596 pixels Display aspect ratio : 16:9 Frame rate : 23.976 fps Color space : YUV Chroma subsampling : 4:2:0 Bit depth : 8 bits Scan type : Progressive Bits/(Pixel*Frame) : 0.169 Stream size : 1.58 GiB (73%) Title : Krovavyi.Chetverg.1998.DUAL.BDRip.XviD.AC3.-HQ-ViDEO Writing library : x264 core 130 r2273 b3065e6 Encoding settings : cabac=1 / ref=11 / deblock=1:-3:-2 / analyse=0x3:0x133 / me=umh / subme=11 / psy=1 / psy_rd=1.05:0.00 / mixed_ref=1 / me_range=32 / chroma_me=1 / trellis=2 / 8x8dct=1 / cqm=0 / deadzone=21,11 / fast_pskip=0 / chroma_qp_offset=-2 / threads=6 / lookahead_threads=1 / sliced_threads=0 / nr=0 / decimate=0 / interlaced=0 / bluray_compat=0 / constrained_intra=0 / bframes=12 / b_pyramid=2 / b_adapt=2 / b_bias=0 / direct=3 / weightb=1 / open_gop=0 / weightp=2 / keyint=240 / keyint_min=23 / scenecut=40 / intra_refresh=0 / rc_lookahead=60 / rc=2pass / mbtree=0 / bitrate=2650 / ratetol=1.0 / qcomp=0.65 / qpmin=0 / qpmax=69 / qpstep=4 / cplxblur=20.0 / qblur=0.5 / vbv_maxrate=20000 / vbv_bufsize=25000 / nal_hrd=none / ip_ratio=1.35 / pb_ratio=1.25 / aq=2:1.00 Language : Russian Default : Yes Forced : No Color primaries : BT.709-5, BT.1361, IEC 61966-2-4, SMPTE RP177 Transfer characteristics : BT.709-5, BT.1361

Audio #1 ID : 2 Format : AC-3 Format/Info : Audio Coding 3 Mode extension : CM (complete main) Codec ID : A_AC3 Duration : 1h 27mn Bit rate mode : Constant Bit rate : 448 Kbps Channel(s) : 6 channels Channel positions : Front: L C R, Side: L R, LFE Sampling rate : 48.0 KHz Bit depth : 16 bits Compression mode : Lossy Stream size : 281 MiB (13%) Title : MVO (R5) Language : Russian Default : Yes Forced : No

Audio #2 ID : 3 Format : AC-3 Format/Info : Audio Coding 3 Mode extension : CM (complete main) Codec ID : A_AC3 Duration : 1h 27mn Bit rate mode : Constant Bit rate : 448 Kbps Channel(s) : 6 channels Channel positions : Front: L C R, Side: L R, LFE Sampling rate : 48.0 KHz Bit depth : 16 bits Compression mode : Lossy Stream size : 281 MiB (13%) Title : Original (English) Language : English Default : No Forced : No

Text #1 ID : 4 Format : UTF-8 Codec ID : S_TEXT/UTF8 Codec ID/Info : UTF-8 Plain Text Title : Russian (full) Language : Russian Default : No Forced : No

Text #2 ID : 5 Format : UTF-8 Codec ID : S_TEXT/UTF8 Codec ID/Info : UTF-8 Plain Text Title : English (full) Language : English Default : No Forced : No

Скриншоты для оценки качества:

ПРИЯТНОГО ПРОСМОТРА!

main-rutor.org


Смотрите также