Кровавая езда скачать торрент


1 / Серии 1-13 из 13 [2017 WEBRip 1080p] [MVO] скачать через торрент

Размер: 61.49 GB | Добавлен: 1 мес. 11 д. назад | Торрент скачан:15 раз
Реклама Дарим 3000 рублей за регистрацию, не упусти свой шанс получить шикарный бонус!!!

29-07-2017 07:31 Кровавая гонка Скачать торрент  

Кровавая езда | Blood Drive Год выпуска: 2017Страна: СШАЖанр: Ужасы, фантастика, драмаПродолжительность: ~ 00:45:00Перевод: Профессиональный (многоголосый закадровый) | (FocusStudio)

Режиссёр: Дэвид Стрейтон, Мира Менон, Лин Оэдин

В ролях: Алан Ричсон, Кристина Очоа, Марама Корлетт, Колин Каннингэм, Даррен Кент, Эндрю Моргадо, Шон Майкл, Карел Нель, Эйдан Уайток и др.

Описание: Действие сериала «Кровавая езда» разворачивается в альтернативном постапокалиптическом будущем в Лос-Анджелесе. Нехватка топлива привела к тому, что люди изобрели машины, работающие на человеческой крови. В центре событий — хороший коп Артур Бэйли, который вынужден принять участие в подпольной смертельно опасной гонке через всю страну на как раз таком автомобиле. Его партнером становится абсолютно безумная девушка, готовая на все ради победы. В пути героев ждет встреча с каннибалами, монстрами, адептами кровавых культов, нимфоманками, амазонками и прочими сомнительными личностями.

|

Качество: WEBRip 1080pФормат: MKVВидео: 1920x1080 (16:9), 23.976 fps, MPEG-4 AVC ~16000 kbpsАудио 1: AC3 | 48 KHz | 5.1 (Front: L С R Side: L R) + LFE | ~640 kbps [RUS]Аудио 2: AC3 | 48 KHz | 5.1 (Front: L С R Side: L R) + LFE | ~640 kbps [ENG]

Unique ID : 170196841856370140642307891972295531729 (0x800AB82BB89F0862C88EF6CC50269CD1)Complete name : Blood.Drive.S01E01.WEBRip.1080p.FocusStudio.mkvFormat : MatroskaFormat version : Version 4 / Version 2File size : 5.64 GiBDuration : 44mn 33sOverall bit rate : 18.1 MbpsMovie name : Blood Drive 1x1 @ FocusStudioEncoded date : UTC 2017-06-22 13:51:51Writing application : mkvmerge v12.0.0 ('Trust / Lust') 64bitWriting library : libebml v1.3.4 + libmatroska v1.4.5VideoID : 1Format : AVCFormat/Info : Advanced Video CodecFormat profile : [email protected] settings, CABAC : YesFormat settings, ReFrames : 4 framesCodec ID : V_MPEG4/ISO/AVCDuration : 44mn 33sBit rate : 16.5 MbpsWidth : 1 920 pixelsHeight : 1 080 pixelsDisplay aspect ratio : 16:9Frame rate mode : ConstantFrame rate : 23.976 fpsColor space : YUVChroma subsampling : 4:2:0Bit depth : 8 bitsScan type : ProgressiveBits/(Pixel*Frame) : 0.332Stream size : 5.13 GiB (91%)Writing library : x264 core 148 r2744 b97ae06Encoding settings : cabac=1 / ref=4 / deblock=1:-3:-3 / analyse=0x3:0x133 / me=umh / subme=10 / psy=1 / psy_rd=1.00:0.00 / mixed_ref=1 / me_range=48 / chroma_me=1 / trellis=2 / 8x8dct=1 / cqm=0 / deadzone=21,11 / fast_pskip=1 / chroma_qp_offset=-2 / threads=24 / lookahead_threads=4 / sliced_threads=0 / nr=0 / decimate=0 / interlaced=0 / bluray_compat=0 / constrained_intra=0 / bframes=8 / b_pyramid=2 / b_adapt=2 / b_bias=0 / direct=3 / weightb=1 / open_gop=0 / weightp=2 / keyint=240 / keyint_min=23 / scenecut=40 / intra_refresh=0 / rc=crf / mbtree=0 / crf=17.0 / qcomp=0.60 / qpmin=0 / qpmax=69 / qpstep=4 / ip_ratio=1.40 / pb_ratio=1.30 / aq=3:0.70Default : YesForced : NoAudio #1ID : 2Format : AC-3Format/Info : Audio Coding 3Mode extension : CM (complete main)Format settings, Endianness : BigCodec ID : A_AC3Duration : 44mn 33sBit rate mode : ConstantBit rate : 640 KbpsChannel(s) : 6 channelsChannel positions : Front: L C R, Side: L R, LFESampling rate : 48.0 KHzBit depth : 16 bitsCompression mode : LossyStream size : 204 MiB (4%)Title : MVO FocusStudioLanguage : RussianDefault : YesForced : NoAudio #2ID : 3Format : AC-3Format/Info : Audio Coding 3Mode extension : CM (complete main)Format settings, Endianness : BigCodec ID : A_AC3Duration : 44mn 33sBit rate mode : ConstantBit rate : 640 KbpsChannel(s) : 6 channelsChannel positions : Front: L C R, Side: L R, LFESampling rate : 48.0 KHzBit depth : 16 bitsCompression mode : LossyStream size : 204 MiB (4%)Language : EnglishDefault : NoForced : No

Когда раздача ведётся путём добавления новых серий, при каждом добавлении создётся новый торрент. Чтобы начать докачку новой серии, пользователям необходимо сделать следующее:(1) остановить скачивание,(2) удалить старый торрент у себя из клиента (старые серии удалять не надо),(3) скачать новый торрент и запустить его у себя в клиенте вместо старого, при этом указать клиенту путь в старую папку, куда и должно происходить скачивание новых серий.Ваш клиент при этом должен произвести хеширование (проверку) старой папки (если не производит сам - помогите ему сделать это), и будет докачивать только те серии, которых у вас ещё нет. Старые серии при этом не удаляются, а продолжают раздаваться!Eсли вы уже удалили старые серии, то предотвратить повторную закачку старых серий можно, отжав галочку в соответсвующих местах при запуске нового торрента. По возможности, желательно не удалять старые серии как можно дольше, чтобы релизёр не столько продолжал раздавать старые серии, а смог сконцентрироваться на новых.

Скачать Кровавая гонка через торрент http://i94.fastpic.ru/big/2017/0709/46/bcd52dbc023e98f7257ef5435b44f546.jpg Скачать фильм Кровавая гонка через торрент бесплантно в хорошем качестве Описание: Действие сериала «Кровавая езда» разворачивается в альтернативном постапокалиптическом будущем в Лос-Анджелесе. Нехватка топлива ... 2017-09-15 14:22 10 10 6

Loading...

Loading...

Последний раз редактировалось: killermax2013 (2017-09-15 14:22), всего редактировалось 3 раз(а)

Рекламный пират

05-08-2017 16:30 Кровавая гонка Скачать торрент  

13-08-2017 13:17 Кровавая гонка Скачать торрент  

16-08-2017 17:30 Кровавая гонка Скачать торрент  

цензура есть???

16-08-2017 17:31 Кровавая гонка Скачать торрент  

закрыто все треугольниками? попы и т.д.???

17-08-2017 10:29 Кровавая гонка Скачать торрент  

f300 писал(а):

цензура есть???

какая цензура, матюгов много

17-08-2017 17:09 Кровавая гонка Скачать торрент  

можно дату выхода следующей серии и периодичность выхода узнать?

17-08-2017 20:14 Кровавая гонка Скачать торрент  

kazno писал(а):

можно дату выхода следующей серии и периодичность выхода узнать?

Серия вчера вышла, когда с озвучкой фокусов будет не скажу.А так смотрим тут график

https://myshows.me/view/53234/

18-08-2017 04:15 Кровавая гонка Скачать торрент  

killermax2013 писал(а):

kazno писал(а):

можно дату выхода следующей серии и периодичность выхода узнать?

Серия вчера вышла, когда с озвучкой фокусов будет не скажу.А так смотрим тут график

https://myshows.me/view/53234/

Спасибо.

Pекламный агент PB

20-08-2017 18:24 Кровавая гонка Скачать торрент  

чё-то долго, думал приеду посмотрю, у других уже лежит серия...

20-08-2017 18:43 Кровавая гонка Скачать торрент  

20-08-2017 18:54 Кровавая гонка Скачать торрент  

Спасибо, а то не охота в другой озвучке смотреть...

20-08-2017 18:59 Кровавая гонка Скачать торрент  

kazno писал(а):

Спасибо, а то не охота в другой озвучке смотреть...

31-08-2017 15:03 Кровавая гонка Скачать торрент  

блин уже вчера должна была 12-ая выйти, а я всё 11-ую жду, чё там происходит?

15-09-2017 14:23 Кровавая гонка Скачать торрент  

+11-13.Сериал закрыли..

16-09-2017 19:24 Кровавая гонка Скачать торрент  

killermax2013 писал(а):

+11-13.Сериал закрыли..

такую годноту под корень рубят

Дорогой пользователь! Огромная просьба, поблагодарите релизера, оцените раздачу и оставьте свои комментарий, если Вы скачали Кровавая гонка через торрент бесплатно! Внесите свою лепту в развитие PiratBit!

Комментировать посты могут только пользователи прошедшие не сложную регистрацию

Кровавая гонка через торрент Скачать бесплатно Кровавая гонка Кровавая гонка скачать торрент Кровавая гонка смотреть онлайн Cкачать фильм Кровавая гонка бесплатно Кровавая гонка скачать торрент в хорошем качестве Кровавая гонка смотреть онлайн бесплатно в хорошем качестве

Вы не можете начинать темыВы не можете отвечать на сообщенияВы не можете редактировать свои сообщенияВы не можете удалять свои сообщенияВы не можете голосовать в опросахВы не можете прикреплять файлы к сообщениямВы можете скачивать файлы

piratbit.ru

1 / Серии 1-4 из 13 [2017 WEBRip 720p] [MVO] скачать через торрент

Размер: 12.68 GB | Добавлен: 3 мес. 17 д. назад | Торрент скачан:15 раз
Реклама Дарим 3000 рублей за регистрацию, не упусти свой шанс получить шикарный бонус!!!

09-07-2017 10:57 Кровавая гонка Скачать торрент  

Кровавая езда | Blood Drive Год выпуска: 2017Страна: СШАЖанр: Ужасы, фантастика, драмаПродолжительность: ~ 00:45:00Перевод: Профессиональный (многоголосый закадровый) | (FocusStudio)

Режиссёр: Дэвид Стрейтон, Мира Менон, Лин Оэдин

В ролях: Алан Ричсон, Кристина Очоа, Марама Корлетт, Колин Каннингэм, Даррен Кент, Эндрю Моргадо, Шон Майкл, Карел Нель, Эйдан Уайток и др.

Описание: Действие сериала «Кровавая езда» разворачивается в альтернативном постапокалиптическом будущем в Лос-Анджелесе. Нехватка топлива привела к тому, что люди изобрели машины, работающие на человеческой крови. В центре событий — хороший коп Артур Бэйли, который вынужден принять участие в подпольной смертельно опасной гонке через всю страну на как раз таком автомобиле. Его партнером становится абсолютно безумная девушка, готовая на все ради победы. В пути героев ждет встреча с каннибалами, монстрами, адептами кровавых культов, нимфоманками, амазонками и прочими сомнительными личностями.

|

Качество: WEBRip 720pФормат: MKVВидео: 1280x720 (16:9), 23.976 fps, MPEG-4 AVC ~9000 kbpsАудио 1: AC3 | 48 KHz | 5.1 (Front: L С R Side: L R) + LFE | ~640 kbps [RUS]Аудио 2: AC3 | 48 KHz | 5.1 (Front: L С R Side: L R) + LFE | ~640 kbps [ENG]Субтитры: нет

Unique ID : 143222494599539710757531031930093876671 (0x6BBFA62BCE0BF4BF10063C37D316B5BF)Complete name : Blood.Drive.S01E01.WEBRip.720p.FocusStudio.mkvFormat : MatroskaFormat version : Version 4 / Version 2File size : 3.37 GiBDuration : 44mn 33sOverall bit rate : 10.8 MbpsMovie name : Blood Drive 1x1 @ FocusStudioEncoded date : UTC 2017-07-01 11:04:06Writing application : mkvmerge v12.0.0 ('Trust / Lust') 64bitWriting library : libebml v1.3.4 + libmatroska v1.4.5VideoID : 1Format : AVCFormat/Info : Advanced Video CodecFormat profile : [email protected] settings, CABAC : YesFormat settings, ReFrames : 4 framesCodec ID : V_MPEG4/ISO/AVCDuration : 44mn 33sBit rate : 9 318 KbpsWidth : 1 280 pixelsHeight : 720 pixelsDisplay aspect ratio : 16:9Frame rate mode : ConstantFrame rate : 23.976 fpsColor space : YUVChroma subsampling : 4:2:0Bit depth : 8 bitsScan type : ProgressiveBits/(Pixel*Frame) : 0.422Stream size : 2.90 GiB (86%)Writing library : x264 core 148 r2744 b97ae06Encoding settings : cabac=1 / ref=4 / deblock=1:-3:-3 / analyse=0x3:0x133 / me=umh / subme=10 / psy=1 / psy_rd=1.00:0.00 / mixed_ref=1 / me_range=48 / chroma_me=1 / trellis=2 / 8x8dct=1 / cqm=0 / deadzone=21,11 / fast_pskip=1 / chroma_qp_offset=-2 / threads=24 / lookahead_threads=4 / sliced_threads=0 / nr=0 / decimate=0 / interlaced=0 / bluray_compat=0 / constrained_intra=0 / bframes=8 / b_pyramid=2 / b_adapt=2 / b_bias=0 / direct=3 / weightb=1 / open_gop=0 / weightp=2 / keyint=240 / keyint_min=23 / scenecut=40 / intra_refresh=0 / rc=crf / mbtree=0 / crf=17.0 / qcomp=0.60 / qpmin=0 / qpmax=69 / qpstep=4 / ip_ratio=1.40 / pb_ratio=1.30 / aq=3:0.70Default : YesForced : NoAudio #1ID : 2Format : AC-3Format/Info : Audio Coding 3Mode extension : CM (complete main)Format settings, Endianness : BigCodec ID : A_AC3Duration : 44mn 33sBit rate mode : ConstantBit rate : 640 KbpsChannel(s) : 6 channelsChannel positions : Front: L C R, Side: L R, LFESampling rate : 48.0 KHzBit depth : 16 bitsCompression mode : LossyStream size : 204 MiB (6%)Title : MVO FocusStudioLanguage : RussianDefault : YesForced : NoAudio #2ID : 3Format : AC-3Format/Info : Audio Coding 3Mode extension : CM (complete main)Format settings, Endianness : BigCodec ID : A_AC3Duration : 44mn 33sBit rate mode : ConstantBit rate : 640 KbpsChannel(s) : 6 channelsChannel positions : Front: L C R, Side: L R, LFESampling rate : 48.0 KHzBit depth : 16 bitsCompression mode : LossyStream size : 204 MiB (6%)Language : EnglishDefault : NoForced : No

Когда раздача ведётся путём добавления новых серий, при каждом добавлении создётся новый торрент. Чтобы начать докачку новой серии, пользователям необходимо сделать следующее:(1) остановить скачивание,(2) удалить старый торрент у себя из клиента (старые серии удалять не надо),(3) скачать новый торрент и запустить его у себя в клиенте вместо старого, при этом указать клиенту путь в старую папку, куда и должно происходить скачивание новых серий.Ваш клиент при этом должен произвести хеширование (проверку) старой папки (если не производит сам - помогите ему сделать это), и будет докачивать только те серии, которых у вас ещё нет. Старые серии при этом не удаляются, а продолжают раздаваться!Eсли вы уже удалили старые серии, то предотвратить повторную закачку старых серий можно, отжав галочку в соответсвующих местах при запуске нового торрента. По возможности, желательно не удалять старые серии как можно дольше, чтобы релизёр не столько продолжал раздавать старые серии, а смог сконцентрироваться на новых.

Скачать Кровавая гонка через торрент http://i94.fastpic.ru/big/2017/0709/46/bcd52dbc023e98f7257ef5435b44f546.jpg Скачать фильм Кровавая гонка через торрент бесплантно в хорошем качестве Описание: Действие сериала «Кровавая езда» разворачивается в альтернативном постапокалиптическом будущем в Лос-Анджелесе. Нехватка топлива ... 2017-07-09 10:57 10 10 1

Loading...

Loading...

Последний раз редактировалось: killermax2013 (2017-08-04 08:40), всего редактировалось 1 раз

Рекламный пират

11-07-2017 09:20 Кровавая гонка Скачать торрент  

Нереальная муть и бред.

11-07-2017 09:26 Кровавая гонка Скачать торрент  

PiratMan писал(а):

Нереальная муть и бред.

кому как а мне вкатило.Многие от супрагеройских сериалов прутся

Дорогой пользователь! Огромная просьба, поблагодарите релизера, оцените раздачу и оставьте свои комментарий, если Вы скачали Кровавая гонка через торрент бесплатно! Внесите свою лепту в развитие PiratBit!

Комментировать посты могут только пользователи прошедшие не сложную регистрацию

Кровавая гонка через торрент Скачать бесплатно Кровавая гонка Кровавая гонка скачать торрент Кровавая гонка смотреть онлайн Cкачать фильм Кровавая гонка бесплатно Кровавая гонка скачать торрент в хорошем качестве Кровавая гонка смотреть онлайн бесплатно в хорошем качестве

Вы не можете начинать темыВы не можете отвечать на сообщенияВы не можете редактировать свои сообщенияВы не можете удалять свои сообщенияВы не можете голосовать в опросахВы не можете прикреплять файлы к сообщениямВы можете скачивать файлы

piratbit.ru

1 / Серии 1-13 из 13 [2017 WEB-DLRip] [MVO] скачать через торрент

Раздают: 1 [ 91 KB/s ] Качают: 1 [ 0 KB/s ]
Размер: 6.99 GB | Добавлен: 1 мес. 15 д. назад | Торрент скачан:56 раз
Реклама Дарим 3000 рублей за регистрацию, не упусти свой шанс получить шикарный бонус!!!

16-06-2017 19:39 Кровавая гонка Скачать торрент  

Кровавая езда | Blood Drive Год выпуска: 2017Страна: СШАЖанр: Ужасы, фантастика, драмаПродолжительность: ~ 00:45:00Перевод: Профессиональный (многоголосый закадровый) | Jaskier

Режиссёр: Дэвид Стрейтон, Мира Менон, Лин Оэдин

В ролях: Алан Ричсон, Кристина Очоа, Марама Корлетт, Колин Каннингэм, Даррен Кент, Эндрю Моргадо, Шон Майкл, Карел Нель, Эйдан Уайток и др.

Описание: Действие сериала «Кровавая езда» разворачивается в альтернативном постапокалиптическом будущем в Лос-Анджелесе. Нехватка топлива привела к тому, что люди изобрели машины, работающие на человеческой крови. В центре событий — хороший коп Артур Бэйли, который вынужден принять участие в подпольной смертельно опасной гонке через всю страну на как раз таком автомобиле. Его партнером становится абсолютно безумная девушка, готовая на все ради победы. В пути героев ждет встреча с каннибалами, монстрами, адептами кровавых культов, нимфоманками, амазонками и прочими сомнительными личностями.

|

Качество: WEB-DLRipФормат: AVIВидео: XviD, ~ 1450 kbps, 720x400 (16:9), 23.976 fpsАудио 1: MP3, 48,0 КГц, 2 ch, 128 kbps - RusАудио 2: MP3, 48,0 КГц, 2 ch, 128 kbps - EngСубтитры: отсутствуют

Переведено и озвучено: студией Jaskier

ОбщееПолное имя                               : F:\Ясы-сериалы\Blood Drive. Season 1 (WEB-DLRip l 400p l Jaskier)\Blood.Drive.S01E01.WEB-DLRip.Rus.Eng.Jaskier.aviФормат                                   : AVIФормат/Информация                        : Audio Video InterleaveРазмер файла                             : 550 МбайтПродолжительность                        : 44 м. 33 с.Общий поток                              : 1726 Кбит/секПрограмма кодирования                    : VirtualDubMod 1.5.10.3 | www.virtualdub-fr.org || (build 2550/release)Библиотека кодирования                   : VirtualDubMod build 2550/release

ВидеоИдентификатор                            : 0Формат                                   : MPEG-4 VisualПрофиль формата                          : Advanced [email protected]Параметр BVOP формата                    : 1Параметр QPel формата                    : НетПараметр GMC формата                     : Без точки переходаПараметр матрицы формата                 : Default (MPEG)Идентификатор кодека                     : XVIDИдентификатор кодека/Подсказка           : XviDПродолжительность                        : 44 м. 33 с.Битрейт                                  : 1456 Кбит/секШирина                                   : 720 пикселейВысота                                   : 400 пикселейСоотношение сторон                       : 16:9Частота кадров                           : 23,976 (24000/1001) кадра/секЦветовое пространство                    : YUVСубдискретизация насыщенности            : 4:2:0Битовая глубина                          : 8 битТип развёртки                            : ПрогрессивнаяМетод сжатия                             : С потерямиБит/(Пиксели*Кадры)                      : 0.211Размер потока                            : 464 Мбайт (84%)Библиотека кодирования                   : XviD 73

Аудио #1Идентификатор                            : 1Формат                                   : MPEG AudioВерсия формата                           : Version 1Профиль формата                          : Layer 3Режим                                    : Joint stereoРасширение режима                        : MS StereoИдентификатор кодека                     : 55Идентификатор кодека/Подсказка           : MP3Продолжительность                        : 44 м. 33 с.Вид битрейта                             : ПостоянныйБитрейт                                  : 128 Кбит/секКаналы                                   : 2 каналаЧастота                                  : 48,0 КГцМетод сжатия                             : С потерямиРазмер потока                            : 40,8 Мбайт (7%)Выравнивание                             : Соединение по промежуткамПродолжительность промежутка             : 42  мс. (1,00 видеокадр)Время предзагрузки промежутка            : 504  мс.

Аудио #2Идентификатор                            : 2Формат                                   : MPEG AudioВерсия формата                           : Version 1Профиль формата                          : Layer 3Режим                                    : Joint stereoРасширение режима                        : MS StereoИдентификатор кодека                     : 55Идентификатор кодека/Подсказка           : MP3Продолжительность                        : 44 м. 33 с.Вид битрейта                             : ПостоянныйБитрейт                                  : 128 Кбит/секКаналы                                   : 2 каналаЧастота                                  : 48,0 КГцМетод сжатия                             : С потерямиРазмер потока                            : 40,8 Мбайт (7%)Выравнивание                             : Соединение по промежуткамПродолжительность промежутка             : 42  мс. (1,00 видеокадр)Время предзагрузки промежутка            : 504  мс.

Когда раздача ведётся путём добавления новых серий, при каждом добавлении создётся новый торрент. Чтобы начать докачку новой серии, пользователям необходимо сделать следующее:(1) остановить скачивание,(2) удалить старый торрент у себя из клиента (старые серии удалять не надо),(3) скачать новый торрент и запустить его у себя в клиенте вместо старого, при этом указать клиенту путь в старую папку, куда и должно происходить скачивание новых серий.Ваш клиент при этом должен произвести хеширование (проверку) старой папки (если не производит сам - помогите ему сделать это), и будет докачивать только те серии, которых у вас ещё нет. Старые серии при этом не удаляются, а продолжают раздаваться!Eсли вы уже удалили старые серии, то предотвратить повторную закачку старых серий можно, отжав галочку в соответсвующих местах при запуске нового торрента. По возможности, желательно не удалять старые серии как можно дольше, чтобы релизёр не столько продолжал раздавать старые серии, а смог сконцентрироваться на новых.

Скачать Кровавая гонка через торрент http://i93.fastpic.ru/big/2017/0616/6d/d81f5e573b991dcf54f28eb0f8b0e86d.jpg Скачать фильм Кровавая гонка через торрент бесплантно в хорошем качестве Описание: Действие сериала «Кровавая езда» разворачивается в альтернативном постапокалиптическом будущем в Лос-Анджелесе. Нехватка топлива ... 2017-09-11 07:30 10 10 7

Loading...

Loading...

Последний раз редактировалось: killermax2013 (2017-09-11 07:29), всего редактировалось 10 раз(а)

Рекламный пират

02-07-2017 17:22 Кровавая гонка Скачать торрент  

06-07-2017 23:49 Кровавая гонка Скачать торрент  

отличный фильм

07-07-2017 11:45 Кровавая гонка Скачать торрент  

14-07-2017 19:58 Кровавая гонка Скачать торрент  

22-07-2017 18:03 Кровавая гонка Скачать торрент  

30-07-2017 06:48 Кровавая гонка Скачать торрент  

04-08-2017 14:17 Кровавая гонка Скачать торрент  

12-08-2017 10:49 Кровавая гонка Скачать торрент  

Pекламный агент PB

29-08-2017 08:32 Кровавая гонка Скачать торрент  

02-09-2017 20:22 Кровавая гонка Скачать торрент  

11-09-2017 07:30 Кровавая гонка Скачать торрент  

Дорогой пользователь! Огромная просьба, поблагодарите релизера, оцените раздачу и оставьте свои комментарий, если Вы скачали Кровавая гонка через торрент бесплатно! Внесите свою лепту в развитие PiratBit!

Комментировать посты могут только пользователи прошедшие не сложную регистрацию

Кровавая гонка через торрент Скачать бесплатно Кровавая гонка Кровавая гонка скачать торрент Кровавая гонка смотреть онлайн Cкачать фильм Кровавая гонка бесплатно Кровавая гонка скачать торрент в хорошем качестве Кровавая гонка смотреть онлайн бесплатно в хорошем качестве

Вы не можете начинать темыВы не можете отвечать на сообщенияВы не можете редактировать свои сообщенияВы не можете удалять свои сообщенияВы не можете голосовать в опросахВы не можете прикреплять файлы к сообщениямВы можете скачивать файлы

piratbit.ru

1 / Серии 1-13 из 13 [2017 WEB-DL 720p] [MVO] скачать через торрент

ОбщееУникальный идентификатор                 : 183330502159150904452697287543280807012 (0x89EC2B9E34CC9B9E85E1CCFF231EAC64)Полное имя                               : F:\Ясы-сериалы\Blood Drive. Season 1 (WEB-DL l 720p l Jaskier)\Blood.Drive.S01E01.720p.WEB-DL.DD5.1.H.264-Jaskier.mkvФормат                                   : MatroskaВерсия формата                           : Version 2Размер файла                             : 1,49 ГбайтПродолжительность                        : 44 м. 33 с.Общий поток                              : 4803 Кбит/секДата кодирования                         : UTC 2017-06-16 14:50:28Программа кодирования                    : mkvmerge v7.8.0 ('River Man') 32bit built on Apr  3 2015 12:11:22Библиотека кодирования                   : libebml v1.3.1 + libmatroska v1.4.2

ВидеоИдентификатор                            : 1Формат                                   : AVCФормат/Информация                        : Advanced Video CodecПрофиль формата                          : [email protected]Параметр CABAC формата                   : НетПараметр ReFrames формата                : 2 кадраИдентификатор кодека                     : V_MPEG4/ISO/AVCПродолжительность                        : 44 м. 33 с.Битрейт                                  : 3940 Кбит/секШирина                                   : 1280 пикселейВысота                                   : 720 пикселейСоотношение сторон                       : 16:9Режим частоты кадров                     : ПостоянныйЧастота кадров                           : 23,976 (24000/1001) кадра/секЦветовое пространство                    : YUVСубдискретизация насыщенности            : 4:2:0Битовая глубина                          : 8 битТип развёртки                            : ПрогрессивнаяБит/(Пиксели*Кадры)                      : 0.178Размер потока                            : 1,23 Гбайт (82%)Язык                                     : EnglishDefault                                  : ДаForced                                   : НетЦветовой диапазон                        : LimitedОсновные цвета                           : BT.709Характеристики трансфера                 : BT.709Коэффициенты матрицы                     : BT.709

Аудио #1Идентификатор                            : 2Формат                                   : AC-3Формат/Информация                        : Audio Coding 3Параметр Endianness формата              : BigИдентификатор кодека                     : A_AC3Продолжительность                        : 44 м. 33 с.Вид битрейта                             : ПостоянныйБитрейт                                  : 384 Кбит/секКаналы                                   : 6 каналовРасположение каналов                     : Front: L C R, Side: L R, LFEЧастота                                  : 48,0 КГцЧастота кадров                           : 31,250 кадров/сек (1536 spf)Битовая глубина                          : 16 битМетод сжатия                             : С потерямиРазмер потока                            : 122 Мбайт (8%)Заголовок                                : JaskierЯзык                                     : RussianServiceKind/String                       : Complete MainDefault                                  : ДаForced                                   : Нет

Аудио #2Идентификатор                            : 3Формат                                   : AC-3Формат/Информация                        : Audio Coding 3Параметр Endianness формата              : BigИдентификатор кодека                     : A_AC3Продолжительность                        : 44 м. 33 с.Вид битрейта                             : ПостоянныйБитрейт                                  : 384 Кбит/секКаналы                                   : 6 каналовРасположение каналов                     : Front: L C R, Side: L R, LFEЧастота                                  : 48,0 КГцЧастота кадров                           : 31,250 кадров/сек (1536 spf)Битовая глубина                          : 16 битМетод сжатия                             : С потерямиРазмер потока                            : 122 Мбайт (8%)Язык                                     : EnglishServiceKind/String                       : Complete MainDefault                                  : НетForced                                   : Нет

Текст #1Идентификатор                            : 4Формат                                   : UTF-8Идентификатор кодека                     : S_TEXT/UTF8Идентификатор кодека/Информация          : UTF-8 Plain TextЯзык                                     : EnglishDefault                                  : НетForced                                   : Нет

Текст #2Идентификатор                            : 5Формат                                   : UTF-8Идентификатор кодека                     : S_TEXT/UTF8Идентификатор кодека/Информация          : UTF-8 Plain TextЗаголовок                                : SDHЯзык                                     : EnglishDefault                                  : НетForced                                   : Нет

piratbit.ru

Скачать торрент Кровавая гонка / Blood Drive [S01] (2017) WEB-DLRip

Информация о фильмеНазвание: Кровавая гонка / Кровь на колесах Оригинальное название: Blood DriveГод выхода: 2017Жанр: Ужасы, фантастика, драмаРежиссер: Дэвид Стрейтон, Мира МенонВ ролях: Алан Ричсон, Кристина, Марама Корлетт, Колин Каннингэм, Даррен Кент, Эндрю Моргадо, Шон Майкл, Карел Нель, Эйдан Уайток и др.О фильме: Сериал SyFy "Кровавые Гонки" выдержан в стилистике Роберта Родригеса вроде "Планеты страха". События фантастического сериала происходят в постапокалиптическом будущем 1999 года в Лос-Анджелесе, а в центре событий - коп Артур Бэйли, который вынужден присоединиться к команде "Кровавых гонок", подпольному шоу в котором автомобили разъезжают на человеческой крови. Его напарница - очаровательная и опасная Грейс Д'Ардженто со своими секретами. Им вместе придется преодолеть множество препятствий, или самим стать топливом для гоночных автомобилей.

Страна: СШАПродолжительность: ~ 00:45:00 серияПеревод: Любительский (многоголосый закадровый) | OmskBird

ФайлКодек: XviDКачество: WEB-DLRipВидео: 720x400 (1.80:1), 25 fps, ~1801 kbps avg, 0.25 bit/pixelЗвук: Аудио rus: AC3, 48 kHz, 2 ch, 192 Kbps | OmskBirdСубтитры: отсутствуютРеклама: присутствуетСемпл

Релиз:

Релиз: OmskBird Перевод: Николай Исаков Роли озвучивали: Алексей Гнеушев, Павел Ярощик, Маргарита Корш Звукорежиссер: Павел Квентов Постер: Ксения Просветова Раздача с рекламными вставками

MediaInfo:

General Complete name : G:FilmsBlood.Drive.S01.400p.WEB-DLRip.OmskBirdBlood.Drive.S01E01.WEB-DLRip.OmskBird.avi Format : AVI Format/Info : Audio Video Interleave File size : 646 MiB Duration : 45mn 3s Overall bit rate : 2 004 Kbps Writing application : VirtualDubMod 1.5.10.3 (build 2550/release) Writing library : VirtualDubMod build 2550/release

Video ID : 0 Format : MPEG-4 Visual Format profile : Advanced [email protected] Format settings, BVOP : 1 Format settings, QPel : No Format settings, GMC : No warppoints Format settings, Matrix : Default (MPEG) Codec ID : XVID Codec ID/Hint : XviD Duration : 45mn 3s Bit rate : 1 802 Kbps Width : 720 pixels Height : 400 pixels Display aspect ratio : 16:9 Frame rate : 25.000 fps Color space : YUV Chroma subsampling : 4:2:0 Bit depth : 8 bits Scan type : Progressive Compression mode : Lossy Bits/(Pixel*Frame) : 0.250 Stream size : 581 MiB (90%) Writing library : XviD 73

Audio ID : 1 Format : AC-3 Format/Info : Audio Coding 3 Mode extension : CM (complete main) Format settings, Endianness : Big Codec ID : 2000 Duration : 45mn 3s Bit rate mode : Constant Bit rate : 192 Kbps Channel(s) : 2 channels Channel positions : Front: L R Sampling rate : 48.0 KHz Frame rate : 31.250 fps (1536 spf) Compression mode : Lossy Stream size : 61.9 MiB (10%) Alignment : Split accross interleaves Interleave, duration : 40 ms (1.00 video frame) Interleave, preload duration : 500 ms

Внимание! Раздача ведётся путём добавления новых серий.

[color=brown]Внимание! Раздача ведётся путём добавления новых серий; при каждом добавлении создётся новый торрент. Чтобы начать докачку новой серии, пользователям необходимо сделать следующее: Остановить скачивание. Удалить старый торрент у себя из клиента (старые серии удалять не надо). Скачать новый торрент и запустить его у себя в клиенте вместо старого, при этом указать клиенту путь в старую папку куда и должно происходить скачивание новых серий. Ваш клиент при этом должен произвести хеширование (проверку) старой папки (если не производит сам - помогите ему сделать это), и будет докачивать только те серии которых у вас ещё нет. Старые серии при этом не удаляются, а продолжают раздаваться! Eсли вы уже удалили старые серии, то предотвратить повторную закачку старых серий можно, отжав галочку в соответсвующих местах при запуске нового торрента. По возможности, желательно не удалять старые серии как можно дольше чтобы релизёр не столько продолжал раздавать старые серии, а смог сконцентрироваться на новых.

Релиз от: OmskBird

krutor.org

Торрент - Кровавая гонка (езда) / Blood Drive / 2017 / Сезон 01 (Серии с 01 по 13 из 13) / WEB-DLRip 720p

Торрент группа

Качество: WEB-DLRipВремя: 00:44:00Видео: AVC (h364), 4000 kbps, 1280x720Аудио дорожка #1: русский, Профессиональное, - Jaskier, многоголосое, AC3 5.1, 384 kbpsАудио дорожка #2: английский, Оригинальное, AC3 5.1, 384 kbps✦ Реклама: Полностью отсутствует

✘ Раздача ведется путем добавления новых серий ✘

Активный

Статус

Мультитрекерный

Тип

9:53:41 назад

Активность

21.22 GB (22,780,385,365 байт)

Размер

24 Июля 2017, 08:02

Добавлен

Просмотров: 287, Взят: 1239, Скачан: 7

Статистика

Данные о торренте

Сказали спасибо

katushka.org


Смотрите также