Гонки кровавые скачать


1 / Серии 1-13 из 13 [2017 WEB-DLRip-AVC] MVO [LostFilm] скачать через торрент

Раздают: 2 [ 0 KB/s ] Качают: 1 [ 0 KB/s ]
Размер: 8.71 GB | Добавлен: 1 мес. 18 д. назад | Торрент скачан:33 раза
Реклама Дарим 3000 рублей за регистрацию, не упусти свой шанс получить шикарный бонус!!!

17-06-2017 02:48 Кровавые гонки Скачать торрент  

Кровавые гонки / Кровавая гонка / Blood Drive
  • Год выпуска: 2017
  • Страна: США
  • Жанр: ужасы, фантастика, драма
  • Продолжительность: 00:44:12 (Серия)
  • Перевод: Профессиональный многоголосый [LostFilm]
  • Режиссер: Дэвид Стрейтон / David Straiton, Мира Менон / Meera Menon, Лин Одинг / Lin Oeding
  • В ролях: Алан Ричсон (Arthur Bailey), Кристина Очоа (Grace), Thomas Dominique (Christopher Carson), Марама Корлетт (Aki), Колин Каннингэм (Slink), Даррен Кент (The Scholar), Эндрю Моргадо, Шон Майкл (Old Man Heart), Карел Нель (Rasher), Эйдан Уайток (Garrett Kemble), Брэндон Оре (Ribbone), Эндрю Холл (The Gentleman)
  • Действие сериала разворачивается в антиутопическом будущем, в котором изменение климата привело к краху современной цивилизации. Из-за серьезной экологической катастрофы температура воздуха поднялась выше сорока градусов, а вода стала стоить дороже нефти. Изнывающий от жары Лос-Анджелес находится в шаге от того, чтобы окончательно превратиться в царство греха и порока. Последний честный слуга закона в Городе ангелов, Артур Бэйли (Alan Ritchson / Алан Ричсон), оказывается втянут в популярное подпольное шоу под названием «Кровавая гонка». Напарницей полицейского становится роковая красотка по имени Грейс (Christina Ochoa / Кристина Очоа), готовая убить любого, кто встанет на ее пути к победе в этом адском соревновании. Артуру и его партнерше нужно как можно быстрее найти общий язык, ведь опасность для них представляют и другие участники заезда, и кровожадные жители постапокалиптической Америки, и даже зловещий ведущий шоу. В сумасшедшей гонке, где топливом для машин служит человеческая кровь, а опоздавшему к контрольной точке водителю взрывают голову, есть только одно правило — убей или умри.
  • Рейтинг:
  • Качество: WEB-DLRip-AVC
  • Формат: :MPEG-4
  • Видео кодек: AVC
  • Аудио кодек: AC3
  • Видео: 1888 Кбит/сек, 1024*576 (16:9), в 23,976 (24000/1001) кадра/сек, AVC
  • Аудио №1: русский 192 Кбит/сек, 48,0 КГц, 16 бит, 2 канала, AC-3 |[LostFilm]|
  • Аудио №2: английский 192 Кбит/сек, 48,0 КГц, 16 бит, 2 канала, AC-3
  • Релиз от: GEKADOL

    «Кровавая гонка» — это адреналиновый экшен-хоррор канала Syfy, отдающий дань почтения эксплуатационному кино, совместному проекту Quentin Tarantino / Квентина Тарантино и Robert Rodriguez / Роберта Родригеса «Грайндхаус», а также культовой франшизе «Безумный Макс». Идея создания сериала о захватывающей гонке по опасному постапокалиптическому миру принадлежит Джеймсу Роланду. Сценарная заявка молодого автора настолько понравилась боссам телесети, что те решили обойтись без предварительной съемки пилотного эпизода и запустили в производство сразу полный 13-серийный первый сезон шоу. Талантливая команда сценаристов и режиссеров решила пойти на смелый эксперимент и снять многосерийную драму в духе лучших образцов жанра кровавого хоррора. Неудивительно, что шокирующая даже по меркам кабельного ТВ новинка быстро заслужила сравнение с такими сериалами, как «"The Walking Dead" / Ходячие мертвецы», «"Van Helsing" / Ван Хельсинг», «"Z Nation" / Нация Z» и «"From Dusk Till Dawn" / От заката до рассвета». «Кровавая гонка» обладает всеми составляющими успеха любого хита грайндхаусного проката – отменным черным юмором, обилием сексуальных сцен и непрекращающимся потоком насилия. Каждая серия экшена обещает дарить публике не только порцию безумного гоночного веселья, но и встречу с совершенно новыми злодеями. Зрителям вместе с участниками смертельного заезда по руинам Америки предстоит столкнуться с каннибалами, нимфоманками, сектантами, мутантами и другими обитателями жестокого мира «Кровавой гонки».

    Внимание! Раздача ведётся путём добавления новых серий; при каждом добавлении создаётся новый торрент. Чтобы начать докачку новой серии, пользователям необходимо сделать следующее:(1) остановить скачивание,(2) удалить старый торрент у себя из клиента (старые серии удалять не надо),(3) скачать новый торрент и запустить его у себя в клиенте вместо старого, при этом указать клиенту путь в старую папку куда и должно происходить скачивание новых серий.Ваш клиент при этом должен произвести хеширование (проверку) старой папки (если не производит сам - помогите ему сделать это), и будет докачивать только те серии которых у вас ещё нет. Старые серии при этом не удаляются, а продолжают раздаваться!Eсли вы уже удалили старые серии, то предотвратить повторную закачку старых серий можно, отжав галочку в соответствующих местах при запуске нового торрента. По возможности, желательно не удалять старые серии как можно дольше чтобы релизёр не столько продолжал раздавать старые серии, а смог сконцентрироваться на новых.

    ОбщееПолное имя : F:\Кровавые гонки (Blood Drive) LostFilm\Blood.Drive.S01E01.WEB-DLRip-AVC.rus.LostFilm.TV.mp4Формат : MPEG-4Профиль формата : Base MediaИдентификатор кодека : isom (isom/iso2/avc1/mp41)Размер файла : 720 МбайтПродолжительность : 44 м. 11 с.Общий поток : 2277 Кбит/секПрограмма кодирования : XviD4PSP 7.0.391 DAILYHDVideo : Yesencoding_info : MATROSKA / WEBM > MP4 Произвольный / h364 > X264 CBR 2000kbps HQ / AC3 > AC3 CBR 192kbps / AC3 > AC3 CBR 192kbps

    ВидеоИдентификатор : 1Формат : AVCФормат/Информация : Advanced Video CodecПрофиль формата : [email protected]Параметр CABAC формата : ДаПараметр ReFrames формата : 4 кадраИдентификатор кодека : avc1Идентификатор кодека/Информация : Advanced Video CodingПродолжительность : 44 м. 11 с.Битрейт : 1888 Кбит/секНоминальный битрейт : 2000 Кбит/секШирина : 1024 пикселяВысота : 576 пикселейСоотношение сторон : 16:9Режим частоты кадров : ПостоянныйЧастота кадров : 23,976 (24000/1001) кадра/секЦветовое пространство : YUVСубдискретизация насыщенности : 4:2:0Битовая глубина : 8 битТип развёртки : ПрогрессивнаяБит/(Пиксели*Кадры) : 0.133Размер потока : 597 Мбайт (83%)Библиотека кодирования : x264 core 150 r2833M df79067Настройки программы : cabac=1 / ref=3 / deblock=1:-1:-1 / analyse=0x3:0x133 / me=hex / subme=7 / psy=1 / psy_rd=1.00:0.20 / mixed_ref=1 / me_range=16 / chroma_me=1 / trellis=1 / 8x8dct=1 / cqm=0 / deadzone=21,11 / fast_pskip=1 / chroma_qp_offset=-3 / threads=5 / lookahead_threads=1 / sliced_threads=0 / nr=0 / decimate=1 / interlaced=0 / bluray_compat=0 / constrained_intra=0 / bframes=3 / b_pyramid=2 / b_adapt=2 / b_bias=0 / direct=3 / weightb=1 / open_gop=0 / weightp=2 / keyint=230 / keyint_min=23 / scenecut=40 / intra_refresh=0 / rc_lookahead=40 / rc=cbr / mbtree=1 / bitrate=2000 / ratetol=1.0 / qcomp=0.60 / qpmin=0 / qpmax=69 / qpstep=4 / vbv_maxrate=2000 / vbv_bufsize=1428 / nal_hrd=none / filler=0 / ip_ratio=1.40 / aq=1:1.00

    Аудио #1Идентификатор : 2Формат : AC-3Формат/Информация : Audio Coding 3Параметр Endianness формата : BigИдентификатор кодека : ac-3Продолжительность : 44 м. 11 с.Вид битрейта : ПостоянныйБитрейт : 192 Кбит/секКаналы : 2 каналаРасположение каналов : Front: L RЧастота : 48,0 КГцЧастота кадров : 31,250 кадров/сек (1536 spf)Битовая глубина : 16 битМетод сжатия : С потерямиРазмер потока : 60,7 Мбайт (8%)ServiceKind/String : Complete MainDefault : ДаAlternateGroup/String : 1

    Аудио #2Идентификатор : 3Формат : AC-3Формат/Информация : Audio Coding 3Параметр Endianness формата : BigИдентификатор кодека : ac-3Продолжительность : 44 м. 11 с.Вид битрейта : ПостоянныйБитрейт : 192 Кбит/секКаналы : 2 каналаРасположение каналов : Front: L RЧастота : 48,0 КГцЧастота кадров : 31,250 кадров/сек (1536 spf)Битовая глубина : 16 битМетод сжатия : С потерямиРазмер потока : 60,7 Мбайт (8%)ServiceKind/String : Complete MainDefault : НетAlternateGroup/String : 1

    Внимание! В сериале присутствуют сцены сексуального характера!Скриншоты:                      
  • Раздача ведётся путём добавления новых серий. Добавлена 13 серия (09.09.2017).Просьба перекачать торрент файл. Скачать Кровавые гонки через торрент http://pic1.pb.wtf/images/11/dcp3p.jpg Скачать фильм Кровавые гонки через торрент бесплантно в хорошем качестве qw.png Действие сериала разворачивается в антиутопическом будущем, в котором изменение климата привело к краху современной цивилизации. ... 2017-09-09 00:42 9 10 9

    Loading...

    Loading...

    Последний раз редактировалось: GEKADOL (2017-09-09 01:03), всего редактировалось 15 раз(а)

    Рекламный пират

    17-06-2017 07:34 Кровавые гонки Скачать торрент  

    Чушь судя по скринам?

    17-06-2017 13:41 Кровавые гонки Скачать торрент  

    Судя по первой серии нормуль. Только не бабайки!!! Зацепило. Трешачек такой годный!

    10-07-2017 16:39 Кровавые гонки Скачать торрент  

    встаньте на раздачу пожалуйста

    22-07-2017 14:19 Кровавые гонки Скачать торрент  

    не советую смотреть за столом (за едой) и вообще полный бред

    Дорогой пользователь! Огромная просьба, поблагодарите релизера, оцените раздачу и оставьте свои комментарий, если Вы скачали Кровавые гонки через торрент бесплатно! Внесите свою лепту в развитие PiratBit!

    Комментировать посты могут только пользователи прошедшие не сложную регистрацию

    Кровавые гонки через торрент Скачать бесплатно Кровавые гонки Кровавые гонки скачать торрент Кровавые гонки смотреть онлайн Cкачать фильм Кровавые гонки бесплатно Кровавые гонки скачать торрент в хорошем качестве Кровавые гонки смотреть онлайн бесплатно в хорошем качестве

    Вы не можете начинать темыВы не можете отвечать на сообщенияВы не можете редактировать свои сообщенияВы не можете удалять свои сообщенияВы не можете голосовать в опросахВы не можете прикреплять файлы к сообщениямВы можете скачивать файлы

    piratbit.ru

    1 / Серии 1-13 из 13 [2017 WEB-DLRip-AVC] MVO [BaibaKo] скачать через торрент

    Раздают: 3 [ 0 KB/s ]
    Размер: 10.18 GB | Добавлен: 1 мес. 18 д. назад | Торрент скачан:30 раз
    Реклама Дарим 3000 рублей за регистрацию, не упусти свой шанс получить шикарный бонус!!!

    16-06-2017 00:53 Кровавые гонки Скачать торрент  

    Кровавые гонки / Кровавая гонка / Blood Drive
  • Год выпуска: 2017
  • Страна: США
  • Жанр: ужасы, фантастика, драма
  • Продолжительность: 00:44:12 (Серия)
  • Перевод: Профессиональный многоголосый [BaibaKo]
  • Режиссер: Дэвид Стрейтон / David Straiton, Мира Менон / Meera Menon, Лин Одинг / Lin Oeding
  • В ролях: Алан Ричсон (Arthur Bailey), Кристина Очоа (Grace), Thomas Dominique (Christopher Carson), Марама Корлетт (Aki), Колин Каннингэм (Slink), Даррен Кент (The Scholar), Эндрю Моргадо, Шон Майкл (Old Man Heart), Карел Нель (Rasher), Эйдан Уайток (Garrett Kemble), Брэндон Оре (Ribbone), Эндрю Холл (The Gentleman)
  • Действие сериала разворачивается в антиутопическом будущем, в котором изменение климата привело к краху современной цивилизации. Из-за серьезной экологической катастрофы температура воздуха поднялась выше сорока градусов, а вода стала стоить дороже нефти. Изнывающий от жары Лос-Анджелес находится в шаге от того, чтобы окончательно превратиться в царство греха и порока. Последний честный слуга закона в Городе ангелов, Артур Бэйли (Alan Ritchson / Алан Ричсон), оказывается втянут в популярное подпольное шоу под названием «Кровавая гонка». Напарницей полицейского становится роковая красотка по имени Грейс (Christina Ochoa / Кристина Очоа), готовая убить любого, кто встанет на ее пути к победе в этом адском соревновании. Артуру и его партнерше нужно как можно быстрее найти общий язык, ведь опасность для них представляют и другие участники заезда, и кровожадные жители постапокалиптической Америки, и даже зловещий ведущий шоу. В сумасшедшей гонке, где топливом для машин служит человеческая кровь, а опоздавшему к контрольной точке водителю взрывают голову, есть только одно правило — убей или умри.
  • Рейтинг:
  • Качество: WEB-DLRip-AVC
  • Формат: :MPEG-4
  • Видео кодек: AVC
  • Аудио кодек: AC3
  • Видео: 1024x576 (16:9), 1878 kbps, 23,976 fps, 0,133 bpp
  • Аудио №1: русский / 5.1 / 48 kHz / 384 kbps / 16 bit |[BaibaKo]|
  • Аудио №2: английский / 5.1 / 48 kHz / 384 kbps / 16 bit
  • Релиз от: GEKADOL

    «Кровавая гонка» — это адреналиновый экшен-хоррор канала Syfy, отдающий дань почтения эксплуатационному кино, совместному проекту Quentin Tarantino / Квентина Тарантино и Robert Rodriguez / Роберта Родригеса «Грайндхаус», а также культовой франшизе «Безумный Макс». Идея создания сериала о захватывающей гонке по опасному постапокалиптическому миру принадлежит Джеймсу Роланду. Сценарная заявка молодого автора настолько понравилась боссам телесети, что те решили обойтись без предварительной съемки пилотного эпизода и запустили в производство сразу полный 13-серийный первый сезон шоу. Талантливая команда сценаристов и режиссеров решила пойти на смелый эксперимент и снять многосерийную драму в духе лучших образцов жанра кровавого хоррора. Неудивительно, что шокирующая даже по меркам кабельного ТВ новинка быстро заслужила сравнение с такими сериалами, как «"The Walking Dead" / Ходячие мертвецы», «"Van Helsing" / Ван Хельсинг», «"Z Nation" / Нация Z» и «"From Dusk Till Dawn" / От заката до рассвета». «Кровавая гонка» обладает всеми составляющими успеха любого хита грайндхаусного проката – отменным черным юмором, обилием сексуальных сцен и непрекращающимся потоком насилия. Каждая серия экшена обещает дарить публике не только порцию безумного гоночного веселья, но и встречу с совершенно новыми злодеями. Зрителям вместе с участниками смертельного заезда по руинам Америки предстоит столкнуться с каннибалами, нимфоманками, сектантами, мутантами и другими обитателями жестокого мира «Кровавой гонки».

    Внимание! Раздача ведётся путём добавления новых серий; при каждом добавлении создаётся новый торрент. Чтобы начать докачку новой серии, пользователям необходимо сделать следующее:(1) остановить скачивание,(2) удалить старый торрент у себя из клиента (старые серии удалять не надо),(3) скачать новый торрент и запустить его у себя в клиенте вместо старого, при этом указать клиенту путь в старую папку куда и должно происходить скачивание новых серий.Ваш клиент при этом должен произвести хеширование (проверку) старой папки (если не производит сам - помогите ему сделать это), и будет докачивать только те серии которых у вас ещё нет. Старые серии при этом не удаляются, а продолжают раздаваться!Eсли вы уже удалили старые серии, то предотвратить повторную закачку старых серий можно, отжав галочку в соответствующих местах при запуске нового торрента. По возможности, желательно не удалять старые серии как можно дольше чтобы релизёр не столько продолжал раздавать старые серии, а смог сконцентрироваться на новых.

    GeneralComplete name : F:\Кровавые гонки (Blood Drive)\Blood.Drive.s01e01.WEB-DLRip-AVC.Rus.Eng.BaibaKo.tv.mp4Format : MPEG-4Format profile : Base MediaCodec ID : isom (isom/iso2/avc1/mp41)File size : 838 MiBDuration : 44 minOverall bit rate : 2 651 kb/sWriting application : XviD4PSP 7.0.391 DAILYHDVideo : Yesencoding_info : MATROSKA / WEBM > MP4 Произвольный / h364 > X264 CBR 2000kbps HQ / AC3 > AC3 CBR 384kbps / AC3 > AC3 CBR 384kbps

    VideoID : 1Format : AVCFormat/Info : Advanced Video CodecFormat profile : [email protected] settings, CABAC : YesFormat settings, ReFrames : 4 framesCodec ID : avc1Codec ID/Info : Advanced Video CodingDuration : 44 minBit rate : 1 878 kb/sNominal bit rate : 2 000 kb/sWidth : 1 024 pixelsHeight : 576 pixelsDisplay aspect ratio : 16:9Frame rate mode : ConstantFrame rate : 23.976 (24000/1001) FPSColor space : YUVChroma subsampling : 4:2:0Bit depth : 8 bitsScan type : ProgressiveBits/(Pixel*Frame) : 0.133Stream size : 594 MiB (71%)Writing library : x264 core 150 r2833M df79067Encoding settings : cabac=1 / ref=3 / deblock=1:-1:-1 / analyse=0x3:0x133 / me=hex / subme=7 / psy=1 / psy_rd=1.00:0.20 / mixed_ref=1 / me_range=16 / chroma_me=1 / trellis=1 / 8x8dct=1 / cqm=0 / deadzone=21,11 / fast_pskip=1 / chroma_qp_offset=-3 / threads=5 / lookahead_threads=1 / sliced_threads=0 / nr=0 / decimate=1 / interlaced=0 / bluray_compat=0 / constrained_intra=0 / bframes=3 / b_pyramid=2 / b_adapt=2 / b_bias=0 / direct=3 / weightb=1 / open_gop=0 / weightp=2 / keyint=230 / keyint_min=23 / scenecut=40 / intra_refresh=0 / rc_lookahead=40 / rc=cbr / mbtree=1 / bitrate=2000 / ratetol=1.0 / qcomp=0.60 / qpmin=0 / qpmax=69 / qpstep=4 / vbv_maxrate=2000 / vbv_bufsize=1428 / nal_hrd=none / filler=0 / ip_ratio=1.40 / aq=1:1.00

    Audio #1ID : 2Format : AC-3Format/Info : Audio Coding 3Mode extension : CM (complete main)Format settings, Endianness : BigCodec ID : ac-3Duration : 44 minBit rate mode : ConstantBit rate : 384 kb/sChannel(s) : 6 channelsChannel positions : Front: L C R, Side: L R, LFESampling rate : 48.0 kHzFrame rate : 31.250 FPS (1536 spf)Bit depth : 16 bitsCompression mode : LossyStream size : 121 MiB (14%)Language : RussianDefault : YesAlternate group : 1

    Audio #2ID : 3Format : AC-3Format/Info : Audio Coding 3Mode extension : CM (complete main)Format settings, Endianness : BigCodec ID : ac-3Duration : 44 minBit rate mode : ConstantBit rate : 384 kb/sChannel(s) : 6 channelsChannel positions : Front: L C R, Side: L R, LFESampling rate : 48.0 kHzFrame rate : 31.250 FPS (1536 spf)Bit depth : 16 bitsCompression mode : LossyStream size : 121 MiB (14%)Language : EnglishDefault : NoAlternate group : 1

    Внимание! В сериале присутствуют сцены сексуального характера и ненормативная лексика! Скриншоты:                      
  • Раздача ведётся путём добавления новых серий. Добавлена 13 серия (08.09.2017).Просьба перекачать торрент файл. Скачать Кровавые гонки через торрент http://pic1.pb.wtf/images/11/dcp3p.jpg Скачать фильм Кровавые гонки через торрент бесплантно в хорошем качестве qw.png Действие сериала разворачивается в антиутопическом будущем, в котором изменение климата привело к краху современной цивилизации. ... 2017-09-08 10:21 9.4 10 13

    Loading...

    Loading...

    Последний раз редактировалось: GEKADOL (2017-09-08 10:23), всего редактировалось 9 раз(а)

    Рекламный пират

    06-08-2017 17:40 Кровавые гонки Скачать торрент  

    Есть без цензурных закрываний версия?

    Дорогой пользователь! Огромная просьба, поблагодарите релизера, оцените раздачу и оставьте свои комментарий, если Вы скачали Кровавые гонки через торрент бесплатно! Внесите свою лепту в развитие PiratBit!

    Комментировать посты могут только пользователи прошедшие не сложную регистрацию

    Кровавые гонки через торрент Скачать бесплатно Кровавые гонки Кровавые гонки скачать торрент Кровавые гонки смотреть онлайн Cкачать фильм Кровавые гонки бесплатно Кровавые гонки скачать торрент в хорошем качестве Кровавые гонки смотреть онлайн бесплатно в хорошем качестве

    Вы не можете начинать темыВы не можете отвечать на сообщенияВы не можете редактировать свои сообщенияВы не можете удалять свои сообщенияВы не можете голосовать в опросахВы не можете прикреплять файлы к сообщениямВы можете скачивать файлы

    piratbit.ru

    Скачать торрент Кровавая гонка / Blood Drive [S01] (2017) WEB-DLRip 720p

    Информация о фильмеНазвание: Кровавая гонка / Кровь на колесах Оригинальное название: Blood DriveГод выхода: 2017Жанр: Ужасы, фантастика, драмаРежиссер: Дэвид Стрейтон, Мира МенонВ ролях: Алан Ричсон, Кристина, Марама Корлетт, Колин Каннингэм, Даррен Кент, Эндрю Моргадо, Шон Майкл, Карел Нель, Эйдан Уайток и др.О фильме: Сериал SyFy "Кровавые Гонки" выдержан в стилистике Роберта Родригеса вроде "Планеты страха". События фантастического сериала происходят в постапокалиптическом будущем 1999 года в Лос-Анджелесе, а в центре событий - коп Артур Бэйли, который вынужден присоединиться к команде "Кровавых гонок", подпольному шоу в котором автомобили разъезжают на человеческой крови. Его напарница - очаровательная и опасная Грейс Д'Ардженто со своими секретами. Им вместе придется преодолеть множество препятствий, или самим стать топливом для гоночных автомобилей.

    Страна: СШАПродолжительность: ~ 00:45:00 серияПеревод: Любительский (многоголосый закадровый) | OmskBird

    ФайлКодек: MPEG-4 AVC/H.264Качество: WEB-DLRip720pВидео: 1280x720 (16:9), 25.000 fps, ~3000 kbps, 0.129 bit/pixelЗвук: Аудио rus: AAC, 48 kHz, 2 ch, 192 Kbps | OmskBirdСубтитры: отсутствуютРеклама: присутствуетСемпл

    Релиз:

    Релиз: OmskBird Перевод: Николай Исаков Роли озвучивали: Алексей Гнеушев, Павел Ярощик, Маргарита Корш Звукорежиссер: Павел Квентов Постер: Ксения Просветова Раздача с рекламными вставками

    MediaInfo:

    General Complete name : G:FilmsBlood.Drive.S01.720p.WEB-DLRip.OmskBirdBlood.Drive.S01E01.720p.WEB-DLRip.OmskBird.mp4 Format : MPEG-4 Format profile : Base Media / Version 2 Codec ID : mp42 (mp42/mp41) File size : 1 019 MiB Duration : 45mn 3s Overall bit rate mode : Variable Overall bit rate : 3 162 Kbps Encoded date : UTC 2017-06-15 09:54:49 Tagged date : UTC 2017-06-15 09:54:56 ©TIM : 00:00:00:00 ©TSC : 25 ©TSZ : 1

    Video ID : 1 Format : AVC Format/Info : Advanced Video Codec Format profile : [email protected] Format settings, CABAC : Yes Format settings, ReFrames : 3 frames Codec ID : avc1 Codec ID/Info : Advanced Video Coding Duration : 45mn 3s Bit rate : 2 969 Kbps Width : 1 280 pixels Height : 720 pixels Display aspect ratio : 16:9 Frame rate mode : Constant Frame rate : 25.000 fps Standard : PAL Color space : YUV Chroma subsampling : 4:2:0 Bit depth : 8 bits Scan type : Progressive Bits/(Pixel*Frame) : 0.129 Stream size : 957 MiB (94%) Language : English Encoded date : UTC 2017-06-15 09:54:49 Tagged date : UTC 2017-06-15 09:54:49 Color range : Limited Color primaries : BT.709 Transfer characteristics : BT.709 Matrix coefficients : BT.709

    Audio ID : 2 Format : AAC Format/Info : Advanced Audio Codec Format profile : LC Codec ID : 40 Duration : 45mn 3s Source duration : 45mn 3s Bit rate mode : Variable Bit rate : 192 Kbps Maximum bit rate : 299 Kbps Channel(s) : 2 channels Channel positions : Front: L R Sampling rate : 48.0 KHz Frame rate : 46.875 fps (1024 spf) Compression mode : Lossy Stream size : 61.0 MiB (6%) Source stream size : 61.0 MiB (6%) Language : English Encoded date : UTC 2017-06-15 09:54:49 Tagged date : UTC 2017-06-15 09:54:49

    Внимание! Раздача ведётся путём добавления новых серий.

    [color=brown]Внимание! Раздача ведётся путём добавления новых серий; при каждом добавлении создётся новый торрент. Чтобы начать докачку новой серии, пользователям необходимо сделать следующее: Остановить скачивание. Удалить старый торрент у себя из клиента (старые серии удалять не надо). Скачать новый торрент и запустить его у себя в клиенте вместо старого, при этом указать клиенту путь в старую папку куда и должно происходить скачивание новых серий. Ваш клиент при этом должен произвести хеширование (проверку) старой папки (если не производит сам - помогите ему сделать это), и будет докачивать только те серии которых у вас ещё нет. Старые серии при этом не удаляются, а продолжают раздаваться! Eсли вы уже удалили старые серии, то предотвратить повторную закачку старых серий можно, отжав галочку в соответсвующих местах при запуске нового торрента. По возможности, желательно не удалять старые серии как можно дольше чтобы релизёр не столько продолжал раздавать старые серии, а смог сконцентрироваться на новых.

    Релиз от: OmskBird

    mrutor.org

    Скачать торрент Кровавая гонка / Blood Drive [S01] (2017) WEB-DLRip 720p

    Информация о фильмеНазвание: Кровавая гонка / Кровь на колесах Оригинальное название: Blood DriveГод выхода: 2017Жанр: Ужасы, фантастика, драмаРежиссер: Дэвид Стрейтон, Мира МенонВ ролях: Алан Ричсон, Кристина, Марама Корлетт, Колин Каннингэм, Даррен Кент, Эндрю Моргадо, Шон Майкл, Карел Нель, Эйдан Уайток и др.О фильме: Сериал SyFy "Кровавые Гонки" выдержан в стилистике Роберта Родригеса вроде "Планеты страха". События фантастического сериала происходят в постапокалиптическом будущем 1999 года в Лос-Анджелесе, а в центре событий - коп Артур Бэйли, который вынужден присоединиться к команде "Кровавых гонок", подпольному шоу в котором автомобили разъезжают на человеческой крови. Его напарница - очаровательная и опасная Грейс Д'Ардженто со своими секретами. Им вместе придется преодолеть множество препятствий, или самим стать топливом для гоночных автомобилей.

    Страна: СШАПродолжительность: ~ 00:45:00 серияПеревод: Любительский (многоголосый закадровый) | OmskBird

    ФайлКодек: MPEG-4 AVC/H.264Качество: WEB-DLRip720pВидео: 1280x720 (16:9), 25.000 fps, ~3000 kbps, 0.129 bit/pixelЗвук: Аудио rus: AAC, 48 kHz, 2 ch, 192 Kbps | OmskBirdСубтитры: отсутствуютРеклама: присутствуетСемпл

    Релиз:

    Релиз: OmskBird Перевод: Николай Исаков Роли озвучивали: Алексей Гнеушев, Павел Ярощик, Маргарита Корш Звукорежиссер: Павел Квентов Постер: Ксения Просветова Раздача с рекламными вставками

    MediaInfo:

    General Complete name : G:FilmsBlood.Drive.S01.720p.WEB-DLRip.OmskBirdBlood.Drive.S01E01.720p.WEB-DLRip.OmskBird.mp4 Format : MPEG-4 Format profile : Base Media / Version 2 Codec ID : mp42 (mp42/mp41) File size : 1 019 MiB Duration : 45mn 3s Overall bit rate mode : Variable Overall bit rate : 3 162 Kbps Encoded date : UTC 2017-06-15 09:54:49 Tagged date : UTC 2017-06-15 09:54:56 ©TIM : 00:00:00:00 ©TSC : 25 ©TSZ : 1

    Video ID : 1 Format : AVC Format/Info : Advanced Video Codec Format profile : [email protected] Format settings, CABAC : Yes Format settings, ReFrames : 3 frames Codec ID : avc1 Codec ID/Info : Advanced Video Coding Duration : 45mn 3s Bit rate : 2 969 Kbps Width : 1 280 pixels Height : 720 pixels Display aspect ratio : 16:9 Frame rate mode : Constant Frame rate : 25.000 fps Standard : PAL Color space : YUV Chroma subsampling : 4:2:0 Bit depth : 8 bits Scan type : Progressive Bits/(Pixel*Frame) : 0.129 Stream size : 957 MiB (94%) Language : English Encoded date : UTC 2017-06-15 09:54:49 Tagged date : UTC 2017-06-15 09:54:49 Color range : Limited Color primaries : BT.709 Transfer characteristics : BT.709 Matrix coefficients : BT.709

    Audio ID : 2 Format : AAC Format/Info : Advanced Audio Codec Format profile : LC Codec ID : 40 Duration : 45mn 3s Source duration : 45mn 3s Bit rate mode : Variable Bit rate : 192 Kbps Maximum bit rate : 299 Kbps Channel(s) : 2 channels Channel positions : Front: L R Sampling rate : 48.0 KHz Frame rate : 46.875 fps (1024 spf) Compression mode : Lossy Stream size : 61.0 MiB (6%) Source stream size : 61.0 MiB (6%) Language : English Encoded date : UTC 2017-06-15 09:54:49 Tagged date : UTC 2017-06-15 09:54:49

    Внимание! Раздача ведётся путём добавления новых серий.

    [color=brown]Внимание! Раздача ведётся путём добавления новых серий; при каждом добавлении создётся новый торрент. Чтобы начать докачку новой серии, пользователям необходимо сделать следующее: Остановить скачивание. Удалить старый торрент у себя из клиента (старые серии удалять не надо). Скачать новый торрент и запустить его у себя в клиенте вместо старого, при этом указать клиенту путь в старую папку куда и должно происходить скачивание новых серий. Ваш клиент при этом должен произвести хеширование (проверку) старой папки (если не производит сам - помогите ему сделать это), и будет докачивать только те серии которых у вас ещё нет. Старые серии при этом не удаляются, а продолжают раздаваться! Eсли вы уже удалили старые серии, то предотвратить повторную закачку старых серий можно, отжав галочку в соответсвующих местах при запуске нового торрента. По возможности, желательно не удалять старые серии как можно дольше чтобы релизёр не столько продолжал раздавать старые серии, а смог сконцентрироваться на новых.

    Релиз от: OmskBird

    krutor.org

    Кровавая гонка скачать торрент в хорошем качестве бесплатно

    WebRipПодробнееПроф. (многоголосый)LostFilmAVI7.64 ГБ1-й сезон/ 1-12скачатьПродолжительность: ~ 00:45:00Формат: AVIВидео кодек: XviDАудио кодек: MP3Видео:   ~ 1500 Кбит/с, 720x400Аудио:   Аудио: Русский (MP3, 2 ch, 128 Кбит/с) Аудио: Английский (MP3, 2 ch, 128 Кбит/с)WebRip-HD (hd)ПодробнееПроф. (многоголосый)IdeaFilmMKV30.29 ГБ1-й сезонскачатьФормат: MKVВидео кодек: AVCАудио кодек: AC3Видео:   MPEG-4 AVC, ~ 6912 Kбит/с, 1920х1080Аудио:   Аудио 1: Русский (AC3, 6 ch, 384 Кбит/с) Аудио 2: Английский (AC3, 6 ch, 384 Кбит/с)WebRip-HD (hd)ПодробнееПроф. (многоголосый)IdeaFilmMKV18.61 ГБ1-й сезонскачатьФормат: MKVВидео кодек: AVCАудио кодек: AC3Видео:   MPEG-4 AVC, ~ 3950 Kбит/с, 1280x720Аудио:   Аудио 1: Русский (AC3, 6 ch, 384 Кбит/с), Аудио 2: Английский (AC3, 6 ch, 384 Кбит/с)WebRip-HD (hd)ПодробнееПроф. (многоголосый)BaibaKoMKV16.14 ГБ1-й сезонскачатьПродолжительность: ~ 00:45:00Формат: MKVВидео кодек: AVCАудио кодек: AC3Видео:   MPEG-4 AVC, ~ 4000 Кбит/с, 1280x720Аудио:   Аудио: Русский (AC3, 6 ch, 384 Кбит/с) Аудио: Английский (AC3, 6 ch, 384 Кбит/с)WebRipПодробнееПроф. (многоголосый)IdeaFilmAVI8.61 ГБ1-й сезонскачатьФормат: AVIВидео кодек: XviDАудио кодек: AC3Видео:   ~ 1788 Kбит/с, 720x400Аудио:   6 ch, 384 Кбит/сWebRip-HD (hd)ПодробнееПроф. (многоголосый)JaskierMKV18.78 ГБ1-й сезонскачатьПродолжительность: ~ 00:45:00Формат: MKVВидео кодек: H.26xАудио кодек: AC3Видео:   ~ 4000 kbps | 1280x720 (16:9) , 23.976 fpsАудио:   Аудио RU: AC3 | 48.0 KHz | 6 ch | 384 kbps Аудио EN: AC3 | 48.0 KHz | 6 ch | 384 kbps WebRipПодробнееПроф. (многоголосый)JaskierAVI6.99 ГБ1-й сезонскачатьПродолжительность: ~ 00:45:00Формат: AVIВидео кодек: XviDАудио кодек: MP3Видео:   ~ 1450 kbps, 720x400, 23,976 fpsАудио:   Аудио Ru: mp3, 48 KHz, 2 ch, 128 kbps Аудио En: mp3, 48 KHz, 2 ch, 128 kbpsWebRip-HD (hd)ПодробнееПроф. (многоголосый)LostFilmMKV23.53 ГБ1-й сезонскачатьПродолжительность: ~ 00:45:00Формат: MKVАудио кодек: AC3Видео:   MPEG-4 AVC, ~ 2500 Кбит/с, 1920x1080Аудио:   Аудио: Русский (AC3, 2 ch, 384 Кбит/с) Аудио: Английский (AC3, 2 ch, 384 Кбит/с)WebRipПодробнееПроф. (многоголосый)JaskierAVI6.16 ГБ1-й сезонскачатьПродолжительность: 13 х ~00:45:00Формат: AVIВидео кодек: XviDАудио кодек: MP3Видео:   720x400, 23.976 fps, XviD ~1300 kbpsАудио:   Аудио 1: Русский (MP3, 2 ch, 128 Кбит/с) Аудио 2: Английский (MP3, 2 ch, 128 Кбит/с)WebRip-HD (hd)ПодробнееПроф. (многоголосый)LostFilmMP418.78 ГБ1-й сезонскачатьПродолжительность: ~ 00:43:00Формат: MP4Видео кодек: AVCАудио кодек: AACВидео:   MPEG-4 AVC, ~ 4000 Кбит/с, 1280x720Аудио:   2 ch, 256 Кбит/сWebRipПодробнееПроф. (многоголосый)LostFilmMKV11.59 ГБ1-й сезонскачатьПродолжительность: ~ 00:45:00Формат: MKVВидео кодек: AVCАудио кодек: AC3Видео:   ~ 2200 kbps, 1024x576 (16:9), 23.976 fpsАудио:   Аудио RUS: AC3, 48 KHz, 6 ch, 384 kbps Аудио ENG: AC3, 48 KHz, 6 ch, 384 kbpsWebRip-HD (hd)ПодробнееПроф. (многоголосый)Gears MediaMKV19.53 ГБ1-й сезонскачатьПродолжительность: ~ 00:45:00Формат: MKVВидео кодек: H.26xАудио кодек: AC3Видео:   1280×720 at 23.976 fps, ~4000 kbps avgАудио:   48 kHz, AC3, 2/0 (L,R) ch, ~384 kbpsWebRipПодробнееЛюбительский (многоголосый)Omskbird recordsAVI7.90 ГБ1-й сезонскачатьПродолжительность: ~ 00:45:00Формат: AVIВидео кодек: XviDАудио кодек: AC3Видео:   720x400 (1.80:1), 25 fps, ~1801 kbps avg, 0.25 bit/pixelАудио:   48 kHz, 2 ch, 192 KbpsWebRipПодробнееПроф. (многоголосый)LostFilmAVI7.03 ГБ1-й сезонскачатьПродолжительность: ~ 00:45:00Формат: AVIВидео кодек: XviDАудио кодек: MP3Видео:   720x400 (1.80:1), 23.976 fps, XviD build 50 ~1500 kbps avg, 0.28 bit/pixelАудио:   48 kHz, MPEG Layer 3, 2 ch, ~128.00 kbps avgWebRip-HD (hd)ПодробнееПроф. (многоголосый)LostFilmMKV23.22 ГБ1-й сезонскачатьПродолжительность: ~ 00:45:00Формат: MKVВидео кодек: H.26xАудио кодек: AC3Видео:   ~ 5200 kbps, 1920x1080 (16:9), 23.976 fpsАудио:   Аудио RUS: AC3, 48 KHz, 6 ch, 384 kbps Аудио ENG: AC3, 48 KHz, 6 ch, 384 kbpsWebRip-HD (hd)ПодробнееПроф. (многоголосый)JaskierMKV21.22 ГБ1-й сезонскачатьПродолжительность: 13 х ~00:45:00Формат: MKVВидео кодек: AVCАудио кодек: AC3Видео:   1280x720, 23.976 fps, MPEG-4 AVC ~4000 kbpsАудио:   Аудио 1: Русский (AC3, 6 ch, 384 Кбит/с) Аудио 2: Английский (AC3, 6 ch, 384 Кбит/с)WebRipПодробнееПроф. (двухголосый)Gears MediaAVI6.42 ГБ1-й сезонскачатьПродолжительность: ~ 00:45:00Формат: AVIВидео кодек: XviDАудио кодек: MP3Видео:   720x400 at 23.976 fps, ~1500 kbps avgАудио:   128 Kbps, 2 channels

    torrentskino.info

    Скачать торрент Кровавая гонка / Blood Drive [S01] (2017) WEB-DLRip

    Информация о фильмеНазвание: Кровавая гонка / Кровь на колесах Оригинальное название: Blood DriveГод выхода: 2017Жанр: Ужасы, фантастика, драмаРежиссер: Дэвид Стрейтон, Мира МенонВ ролях: Алан Ричсон, Кристина, Марама Корлетт, Колин Каннингэм, Даррен Кент, Эндрю Моргадо, Шон Майкл, Карел Нель, Эйдан Уайток и др.О фильме: Сериал SyFy "Кровавые Гонки" выдержан в стилистике Роберта Родригеса вроде "Планеты страха". События фантастического сериала происходят в постапокалиптическом будущем 1999 года в Лос-Анджелесе, а в центре событий - коп Артур Бэйли, который вынужден присоединиться к команде "Кровавых гонок", подпольному шоу в котором автомобили разъезжают на человеческой крови. Его напарница - очаровательная и опасная Грейс Д'Ардженто со своими секретами. Им вместе придется преодолеть множество препятствий, или самим стать топливом для гоночных автомобилей.

    Страна: СШАПродолжительность: ~ 00:45:00 серияПеревод: Любительский (многоголосый закадровый) | OmskBird

    ФайлКодек: XviDКачество: WEB-DLRipВидео: 720x400 (1.80:1), 25 fps, ~1801 kbps avg, 0.25 bit/pixelЗвук: Аудио rus: AC3, 48 kHz, 2 ch, 192 Kbps | OmskBirdСубтитры: отсутствуютРеклама: присутствуетСемпл

    Релиз:

    Релиз: OmskBird Перевод: Николай Исаков Роли озвучивали: Алексей Гнеушев, Павел Ярощик, Маргарита Корш Звукорежиссер: Павел Квентов Постер: Ксения Просветова Раздача с рекламными вставками

    MediaInfo:

    General Complete name : G:FilmsBlood.Drive.S01.400p.WEB-DLRip.OmskBirdBlood.Drive.S01E01.WEB-DLRip.OmskBird.avi Format : AVI Format/Info : Audio Video Interleave File size : 646 MiB Duration : 45mn 3s Overall bit rate : 2 004 Kbps Writing application : VirtualDubMod 1.5.10.3 (build 2550/release) Writing library : VirtualDubMod build 2550/release

    Video ID : 0 Format : MPEG-4 Visual Format profile : Advanced [email protected] Format settings, BVOP : 1 Format settings, QPel : No Format settings, GMC : No warppoints Format settings, Matrix : Default (MPEG) Codec ID : XVID Codec ID/Hint : XviD Duration : 45mn 3s Bit rate : 1 802 Kbps Width : 720 pixels Height : 400 pixels Display aspect ratio : 16:9 Frame rate : 25.000 fps Color space : YUV Chroma subsampling : 4:2:0 Bit depth : 8 bits Scan type : Progressive Compression mode : Lossy Bits/(Pixel*Frame) : 0.250 Stream size : 581 MiB (90%) Writing library : XviD 73

    Audio ID : 1 Format : AC-3 Format/Info : Audio Coding 3 Mode extension : CM (complete main) Format settings, Endianness : Big Codec ID : 2000 Duration : 45mn 3s Bit rate mode : Constant Bit rate : 192 Kbps Channel(s) : 2 channels Channel positions : Front: L R Sampling rate : 48.0 KHz Frame rate : 31.250 fps (1536 spf) Compression mode : Lossy Stream size : 61.9 MiB (10%) Alignment : Split accross interleaves Interleave, duration : 40 ms (1.00 video frame) Interleave, preload duration : 500 ms

    Внимание! Раздача ведётся путём добавления новых серий.

    [color=brown]Внимание! Раздача ведётся путём добавления новых серий; при каждом добавлении создётся новый торрент. Чтобы начать докачку новой серии, пользователям необходимо сделать следующее: Остановить скачивание. Удалить старый торрент у себя из клиента (старые серии удалять не надо). Скачать новый торрент и запустить его у себя в клиенте вместо старого, при этом указать клиенту путь в старую папку куда и должно происходить скачивание новых серий. Ваш клиент при этом должен произвести хеширование (проверку) старой папки (если не производит сам - помогите ему сделать это), и будет докачивать только те серии которых у вас ещё нет. Старые серии при этом не удаляются, а продолжают раздаваться! Eсли вы уже удалили старые серии, то предотвратить повторную закачку старых серий можно, отжав галочку в соответсвующих местах при запуске нового торрента. По возможности, желательно не удалять старые серии как можно дольше чтобы релизёр не столько продолжал раздавать старые серии, а смог сконцентрироваться на новых.

    Релиз от: OmskBird

    mrutor.org


    Смотрите также