Скачать люси кино


Скачать фильм Люси (2014) через торрент

19 февраля 2016 12:44 Люси / Lucy (2014) BDRip 720p от Leonardo | Лицензия | iPad .torrent   [Информация о файле (нажмите для просмотра)] Перевод: Профессиональный (полное дублирование) ЛицензияКодек: H.264/AVCФормат: MP4 (контейнер m4v)Видео: AVC, 1280x536 (2.35:1), 23.976 fps, 3 835 Kbps (0.233 bit/pixel)Аудио: AAC LC, 48.0 KHz, 2 ch, 101 Kbps, VBR (Russian)Субтитры: Russian, Russian, Ukrainian, English, English, EnglishВидео: Идентификатор : 1 Формат : AVC Формат/Информация : Advanced Video Codec Профиль формата : [email protected] Параметр CABAC формата : Да Параметр ReFrames формата : 9 кадров Идентификатор кодека : avc1 Идентификатор кодека/Информация : Advanced Video Coding Продолжительность : 1 ч. 29 м. Битрейт : 3835 Кбит/сек Максимальный битрейт : 22,3 Мбит/сек Ширина : 1280 пикселей Высота : 536 пикселей Соотношение сторон : 2,40:1 Режим частоты кадров : Постоянный Частота кадров : 23,976 кадра/сек Цветовое пространство : YUV Субдискретизация насыщенности : 4:2:0 Битовая глубина : 8 бит Тип развёртки : Прогрессивная Бит/(Пиксели*Кадры) : 0.233 Размер потока : 2,39 Гбайт (97%) Библиотека кодирования : x264 core 125 r2208 d9d2288 Настройки программы : cabac=1 / ref=9 / deblock=1:-3:-3 / analyse=0x3:0x133 / me=umh / subme=11 / psy=1 / psy_rd=1.00:0.00 / mixed_ref=1 / me_range=32 / chroma_me=1 / trellis=2 / 8x8dct=1 / cqm=0 / deadzone=21,11 / fast_pskip=0 / chroma_qp_offset=-2 / threads=12 / lookahead_threads=2 / sliced_threads=0 / nr=0 / decimate=1 / interlaced=0 / bluray_compat=0 / constrained_intra=0 / bframes=8 / b_pyramid=2 / b_adapt=2 / b_bias=0 / direct=1 / weightb=1 / open_gop=0 / weightp=2 / keyint=250 / keyint_min=23 / scenecut=40 / intra_refresh=0 / rc=crf / mbtree=0 / crf=17.5 / qcomp=0.60 / qpmin=0 / qpmax=69 / qpstep=4 / ip_ratio=1.10 / pb_ratio=1.10 / aq=1:1.00 Язык : English Дата кодирования : UTC 2015-08-19 10:12:46 Дата пометки : UTC 2015-08-19 10:14:21 Аудио: Идентификатор : 2 Формат : AAC Формат/Информация : Advanced Audio Codec Профиль формата : LC Идентификатор кодека : 40 Продолжительность : 1 ч. 29 м. Вид битрейта : Переменный Битрейт : 101 Кбит/сек Максимальный битрейт : 139 Кбит/сек Каналы : 2 канала Расположение каналов : Front: L R Частота : 48,0 КГц Метод сжатия : С потерями Размер потока : 64,3 Мбайт (3%) Язык : Russian Дата кодирования : UTC 2015-08-19 10:08:06 Дата пометки : UTC 2015-08-19 10:14:21 2,46 Gb 108 9 19 февраля 2016 12:44 Люси / Lucy (2014) BDRip-AVC от R.G. HD-Films | 60 fps .torrent   [Информация о файле (нажмите для просмотра)] Перевод: Дубляж, ОригинальныйСубтитры: русские (Форсированные), русские (Полные), украинские (Полные), английские (Форсированные), английские (Полные), английские (Полные SDH)Качество: BDRip-AVC 60fpsФормат: MKVВидео: AVC, 1024x424 (2.40:1), 3600 kbps, 59,940 fps, 0,138 bppАудио №1: русский / AC3 / 5.1 / 48 kHz / 640 kbps / 16 bitАудио №2: английский / AC3 / 5.1 / 48 kHz / 640 kbps / 16 bit 2,89 Gb 54 4 19 февраля 2016 12:44 Люси / Lucy (2014) BDRip-AVC от Leonardo and Scarabey | Лицензия .torrent   [Информация о файле (нажмите для просмотра)] Перевод: Профессиональный (полное дублирование) ЛицензияФормат: MKVВидео кодек: MPEG-4 AVC Аудио кодек: AC3Видео: AVC, 960x402 (2.40:1) at 23.976 fps, AVC at 1647 kbps avg, 0.178 bit/pixelАудио: 48 kHz, AC3 Dolby Digital, 3/2 (L,C,R,l,r) + LFE ch, 448 kbps avgСубтитры: Русские, английские 1,33 Gb 130 8 19 февраля 2016 12:44 Люси / Lucy (2014) BDRip 1080p от Leonardo and Scarabey | Лицензия .torrent   [Информация о файле (нажмите для просмотра)] Перевод: Профессиональный (полное дублирование) ЛицензияФормат: MKVВидео кодек: MPEG-4 AVC Аудио кодек: AC3Видео: AVC, 1920x804 (2.40:1) at 23.976 fps, AVC at 7735 kbps avg, 0.209 bit/pixelАудио: 48 kHz, AC3 Dolby Digital, 3/2 (L,C,R,l,r) + LFE ch, 448 kbps avgСубтитры: Русские, английские 5,21 Gb 105 14 19 февраля 2016 12:44 Люси / Lucy (2014) BDRip 720p .torrent   [Информация о файле (нажмите для просмотра)] Перевод: Профессиональный (полное дублирование), Авторский (Гаврилов), ОригинальныйСубтитры: русские (форсированные + 2 вида), английские (forced + 3 вида)Качество: BDRipКонтейнер: MKVВидео: AVC, 1280x536 (2.40:1), 3845 kbps, 23,976 fps, 0,234 bppАудио №1: русский / AC3 / 5.1 / 48 kHz / 448 kbpsАудио №2: русский / AC3 / 5.1 / 48 kHz / 384 kbpsАудио №3: английский / AC3 / 5.1 / 48 kHz / 448 kbps 3,26 Gb 56 3 19 февраля 2016 12:44 Люси / Lucy (2014) BDRip-AVC [Hi10P] | D .torrent   [Информация о файле (нажмите для просмотра)] Перевод: Дублированный (русский ''BD CEE'', украинский ''Line'') + Оригинал (английский)Субтитры: русские (2 вида), украинские, английские (2 вида)Формат: MKVКачество: BDRip-AVCВидео: 744x312 (2,385:1), 23.976 fps, ~1400 kbps (crf 16.0), 0,255 bit/pixelАудио #1: Русский, AAC-HE, 6 chnls, ~256 kbps |DUB, BD CEEАудио #2: Украинский, AC3, 2 chnls, ~192 kbps |DUB, LineАудио #3: Английский, AAC-HE, 6 chnls, ~256 kbps |Original 1,37 Gb 16 2 19 февраля 2016 12:44 Люси / Lucy (2014) BDRip-AVC от HELLYWOOD | Лицензия .torrent   [Информация о файле (нажмите для просмотра)] Перевод: Профессиональный (полное дублирование) [лицензия BD CEE]Субтитры: Русские (полные + форс.), украинские (полные + форс.), английские (Forced + Full + SDH + SDH-Colored)Качество: BDRip-AVCФормат: MKVВидео: x.264, 1084x454 (2,40:1), 23,976 fps, 2598 kbps, 0.220 bit/pixelАудио#1: 48 kHz, AC3 Dolby Digital, 3/2 (L,C,R,l,r) + LFE ch, 448.00 kbps |RUSАудио#2: 48 kHz, AC3 Dolby Digital, 3/2 (L,C,R,l,r) + LFE ch, 448.00 kbps |ENG 2,18 Gb 111 6 19 февраля 2016 12:44 Люси / Lucy (2014) BDRip-AVC от HELLYWOOD | Лицензия .torrent   [Информация о файле (нажмите для просмотра)] Перевод: Профессиональный (полное дублирование) [лицензия BD CEE]Субтитры: Русские (полные + форс.), украинские (полные + форс.), английские (Forced + Full + SDH + SDH-Colored)Качество: BDRip-AVCФормат: MKVВидео: x.264, 960x402 (2,40:1), 23,976 fps, 1892 kbps, 0.204 bit/pixelАудио: 48 kHz, AC3 Dolby Digital, 3/2 (L,C,R,l,r) + LFE ch, 448.00 kbps 1,46 Gb 301 3 19 февраля 2016 12:44 Люси / Lucy (2014) BDRip-AVC от New-Team | D | Лицензия .torrent   [Информация о файле (нажмите для просмотра)] Перевод: Профессиональный (полное дублирование) [Лицензия Blu-ray CEE]Видео: 2599 Кбит/сек, 1152*482 (2,35:1), в 23,976 кадр/сек, AVCАудио #1: Russian, 448 Кбит/сек, 48,0 КГц, 16 бит, 6 канала(ов), AC-3Аудио #2: English, 448 Кбит/сек, 48,0 КГц, 16 бит, 6 канала(ов), AC-3Видео: Идентификатор : 1 Формат : AVC Формат/Информация : Advanced Video Codec Профиль формата : [email protected] Параметр CABAC формата : Да Параметр ReFrames формата : 12 кадры Идентификатор кодека : V_MPEG4/ISO/AVC Продолжительность : 1 ч. 29 м. Битрейт : 2599 Кбит/сек Ширина : 1152 пикс. Высота : 482 пикс. Соотношение сторон : 2,35:1 Частота кадров : 23,976 кадр/сек Цветовое пространство : YUV Подвыборка цветности : 4:2:0 Битовая глубина : 8 бит Тип развёртки : Прогрессивная Бит/(Пиксели*Кадры) : 0.195 Размер потока : 1,58 Гбайт (72%) Библиотека кодирования : x264 core 142 r2491kMod 24e4fed Настройки программы : cabac=1 / ref=12 / deblock=1:-3:-3 / analyse=0x3:0x133 / me=umh / subme=11 / psy=1 / fade_compensate=0.00 / psy_rd=1.00:0.12 / mixed_ref=1 / me_range=32 / chroma_me=1 / trellis=2 / 8x8dct=1 / cqm=0 / deadzone=21,11 / fast_pskip=0 / chroma_qp_offset=-3 / threads=12 / lookahead_threads=3 / sliced_threads=0 / nr=0 / decimate=0 / interlaced=0 / bluray_compat=0 / constrained_intra=0 / fgo=0 / bframes=12 / b_pyramid=2 / b_adapt=2 / b_bias=0 / direct=3 / weightb=1 / open_gop=0 / weightp=2 / keyint=240 / keyint_min=23 / scenecut=40 / intra_refresh=0 / rc_lookahead=60 / rc=2pass / mbtree=0 / bitrate=2599 / ratetol=1.0 / qcomp=0.70 / qpmin=0 / qpmax=69 / qpstep=4 / cplxblur=20.0 / qblur=0.5 / vbv_maxrate=50000 / vbv_bufsize=62500 / nal_hrd=none / filler=0 / ip_ratio=1.40 / pb_ratio=1.30 / aq=3:0.85Аудио #1: Идентификатор : 2 Формат : AC-3 Формат/Информация : Audio Coding 3 Расширение режима : CM (complete main) Идентификатор кодека : A_AC3 Продолжительность : 1 ч. 29 м. Вид битрейта : Постоянный Битрейт : 448 Кбит/сек Канал(ы) : 6 канала(ов) Расположение каналов : Front: L C R, Side: L R, LFE Частота : 48,0 КГц Битовая глубина : 16 бит Метод сжатия : С потерями Размер потока : 286 Мбайт (13%) Язык : RussianАудио #2: Идентификатор : 3 Формат : AC-3 Формат/Информация : Audio Coding 3 Расширение режима : CM (complete main) Идентификатор кодека : A_AC3 Продолжительность : 1 ч. 29 м. Вид битрейта : Постоянный Битрейт : 448 Кбит/сек Канал(ы) : 6 канала(ов) Расположение каналов : Front: L C R, Side: L R, LFE Частота : 48,0 КГц Битовая глубина : 16 бит Метод сжатия : С потерями Размер потока : 286 Мбайт (13%) Язык : English 2,18 Gb 27 1 19 февраля 2016 12:44 Люси / Lucy (2014) BDRip-AVC от ExKinoRay | Лицензия .torrent   [Информация о файле (нажмите для просмотра)] Качество: BDRip (AVC)Видео: MPEG-4 AVC, 1687 Кбит/с, 1024x428Аудио: Русский, английский (AC3, 6 ch, 448 Кбит/с)Субтитры: Русские, английские, украинские 1,61 Gb 16 2 19 февраля 2016 12:44 Люси / Lucy (2014) BDRip 720p от Leonardo and Scarabey | Лицензия .torrent   [Информация о файле (нажмите для просмотра)] Перевод: Профессиональный (полное дублирование) ЛицензияФормат: MKVВидео кодек: MPEG-4 AVC Аудио кодек: AC3Видео: AVC, 1280x536 (2.40:1) at 23.976 fps, AVC at 3752 kbps avg, 0.228 bit/pixelАудио: Russian; AC3; 448 Kbps; CBR; 6 ch; 16 bitСубтитры: Русские, английские 2,67 Gb 412 13 19 февраля 2016 12:44 Люси / Lucy (2014) BDRip от ExKinoRay | Лицензия .torrent   [Информация о файле (нажмите для просмотра)] Качество: BDRipВидео: XviD, 2361 Кбит/с, 720x304Аудио: Русский, английский (AC3, 6 ch, 448 Кбит/с)Субтитры: Русские, английские, украинские 2,04 Gb 14 2 19 февраля 2016 12:44 Люси / Lucy (2014) BDRip-AVC от HQCLUB | Лицензия .torrent   [Информация о файле (нажмите для просмотра)] Перевод: Профессиональный (полное дублирование),BD EURСубтитры: русские (полные, форсированные), украинские (полные), английские (полные, форсированные, полные SDH)Формат: MKVКачество: BDRip-AVC (источник / Blu-ray EUR / 1080p)Видео: 1132x474 (2.40:1), 23.976 fps, MPEG-4 AVC, ~3078 kbps avg, 0.239 bit/pixelАудио #1: 48 kHz, AC3 Dolby Digital, 3/2 (L,C,R,l,r) + LFE ch, ~448 kbps avg (DUB)Аудио #2: 48 kHz, AC3 Dolby Digital, 3/2 (L,C,R,l,r) + LFE ch, ~448 kbps avg (ENG)Видео: Идентификатор : 1 Формат : AVC Формат/Информация : Advanced Video Codec Профиль формата : [email protected] Параметр CABAC формата : Да Параметр ReFrames формата : 12 кадров Идентификатор кодека : V_MPEG4/ISO/AVC Продолжительность : 1 ч. 29 м. Битрейт : 3078 Кбит/сек Ширина : 1132 пикселя Высота : 474 пикселя Соотношение сторон : 2,40:1 Режим частоты кадров : Постоянный Частота кадров : 23,976 кадра/сек Цветовое пространство : YUV Субдискретизация насыщенности : 4:2:0 Битовая глубина : 8 бит Тип развёртки : Прогрессивная Бит/(Пиксели*Кадры) : 0.239 Размер потока : 1,92 Гбайт (76%) Заголовок : Люси / Lucy (2014) BDRip-AVC by HQCLUB [Elheym] Библиотека кодирования : x264 core 142 r2479kMod dd79a61 Настройки программы : cabac=1 / ref=12 / deblock=1:-3:-2 / analyse=0x3:0x133 / me=umh / subme=11 / psy=1 / fade_compensate=0.00 / psy_rd=1.00:0.00 / mixed_ref=1 / me_range=32 / chroma_me=1 / trellis=2 / 8x8dct=1 / cqm=0 / deadzone=21,11 / fast_pskip=0 / chroma_qp_offset=-4 / threads=6 / lookahead_threads=1 / sliced_threads=0 / nr=0 / decimate=0 / interlaced=0 / bluray_compat=0 / constrained_intra=0 / fgo=0 / bframes=14 / b_pyramid=2 / b_adapt=2 / b_bias=0 / direct=1 / weightb=1 / open_gop=0 / weightp=2 / keyint=230 / keyint_min=23 / scenecut=40 / intra_refresh=0 / rc_lookahead=40 / rc=crf / mbtree=1 / crf=16.4500 / qcomp=0.70 / qpmin=0 / qpmax=69 / qpstep=4 / vbv_maxrate=50000 / vbv_bufsize=62500 / crf_max=0.0 / nal_hrd=none / filler=0 / ip_ratio=1.40 / aq=2:0.90 / zones=118670,128520,q=40 Язык : English Default : Да Forced : НетАудио #1: Идентификатор : 2 Формат : AC-3 Формат/Информация : Audio Coding 3 Расширение режима : CM (complete main) Параметр Endianness формата : Big Идентификатор кодека : A_AC3 Продолжительность : 1 ч. 29 м. Вид битрейта : Постоянный Битрейт : 448 Кбит/сек Каналы : 6 каналов Расположение каналов : Front: L C R, Side: L R, LFE Частота : 48,0 КГц Битовая глубина : 16 бит Метод сжатия : С потерями Размер потока : 286 Мбайт (11%) Заголовок : АС3 5.1 @ 448 kbps - Dub, BD EUR Язык : Russian Default : Нет Forced : НетАудио #2: Идентификатор : 3 Формат : AC-3 Формат/Информация : Audio Coding 3 Расширение режима : CM (complete main) Параметр Endianness формата : Big Идентификатор кодека : A_AC3 Продолжительность : 1 ч. 29 м. Вид битрейта : Постоянный Битрейт : 448 Кбит/сек Каналы : 6 каналов Расположение каналов : Front: L C R, Side: L R, LFE Частота : 48,0 КГц Битовая глубина : 16 бит Метод сжатия : С потерями Размер потока : 286 Мбайт (11%) Заголовок : АС3 5.1 @ 448 kbps - Original Язык : English Default : Нет Forced : Нет 2,53 Gb 13 3 19 февраля 2016 12:44 Люси / Lucy (2014) BDRip от ExKinoRay | Лицензия .torrent   [Информация о файле (нажмите для просмотра)] Кодек: XviDКачество: ВDRip (Blu-ray CEE / 1080p)Видео: 720x304(2,35:1), 25,000 fps, XviD 73 ~1885 kbps avg, 0.359 bit/pixelАудио: 48.0 kHz, Audio Coding 3, 6 ch, 448 Kbps Dub RusВидео: Идентификатор : 0 Формат : MPEG-4 Visual Профиль формата : Advanced [email protected] Параметр BVOP формата : 2 Параметр QPel формата : Нет Параметр GMC формата : Без точки перехода Параметр матрицы формата : Выборочная Идентификатор кодека : XVID Идентификатор кодека/Подсказка : XviD Продолжительность : 1 ч. 29 м. Битрейт : 1885 Кбит/сек Ширина : 720 пикселей Высота : 304 пикселя Соотношение сторон : 2,35:1 Частота кадров : 23,976 кадра/сек Цветовое пространство : YUV Субдискретизация насыщенности : 4:2:0 Битовая глубина : 8 бит Тип развёртки : Прогрессивная Метод сжатия : С потерями Бит/(Пиксели*Кадры) : 0.359 Размер потока : 1,18 Гбайт (80%) Библиотека кодирования : XviD 73Аудио: Идентификатор : 1 Формат : AC-3 Формат/Информация : Audio Coding 3 Расширение режима : CM (complete main) Параметр Endianness формата : Big Идентификатор кодека : 2000 Продолжительность : 1 ч. 29 м. Вид битрейта : Постоянный Битрейт : 448 Кбит/сек Каналы : 6 каналов Расположение каналов : Front: L C R, Side: L R, LFE Частота : 48,0 КГц Битовая глубина : 16 бит Метод сжатия : С потерями Размер потока : 286 Мбайт (19%) Выравнивание : Разделение по промежуткам Продолжительность промежутка : 42 мс. (1,00 видеокадр) Время предзагрузки промежутка : 500 мс. 1,46 Gb 41 3 19 февраля 2016 12:44 Люси / Lucy (2014) HDRip от Scarabey | Лицензия .torrent   [Информация о файле (нажмите для просмотра)] Перевод: Профессиональный (дублированный) - ЛицензияКачество: HDRipФормат: AVIВидео: 720x304 (2.37:1), 23.976 fps, XviD build 73 ~1860 kbps avg, 0.35 bit/pixelАудио: 48 kHz, AC3 Dolby Digital, 3/2 (L,C,R,l,r) + LFE ch, ~448.00 kbps avg 1,45 Gb 150 17 19 февраля 2016 12:44 Люси / Lucy (2014) BDRip от HQCLUB | Лицензия .torrent   [Информация о файле (нажмите для просмотра)] Перевод: Профессиональный (полное дублирование) Лицензия CEE +Оригинальная английская звуковая дорожкаСубтитры: Русские (полные, форсированные), Украинские, Английские (форсированные, SDH) (внешние srt*)Формат: AVIКачество: BDRip (источник / Blu-ray CEE / 1080p)Видео: 720x304 (2.37:1), 23.976 fps, XviD build 65 ~1870 kbps avg, 0.36 bit/pixelАудио #1: 48 kHz, AC3 Dolby Digital, 3/2 (L,C,R,l,r) + LFE ch, ~448.00 kbps avgАудио #2: 48 kHz, AC3 Dolby Digital, 3/2 (L,C,R,l,r) + LFE ch, ~448.00 kbps avg(отдельно, http) 1,45 Gb 69 4 19 февраля 2016 12:44 Люси / Lucy (2014) BDRip 1080p от HQ-ViDEO | Лицензия .torrent   [Информация о файле (нажмите для просмотра)] Перевод: Профессиональный дублированный /Лицензия BluRay CEE/Субтитры: Русские (форс. + полные), Английские (форс. + полные)Видео: x.264, 1920x804 (2.40:1), ~12 305 kbps avg, 23,976 fpsАудио #1: AC3 Dolby Digital, 48 KHz, ~448 kbps, 3/2 (L,C,R,l,r) + LFE ch/RUS/Аудио #2: AC3 Dolby Digital, 48 KHz, ~640 kbps, 3/2 (L,C,R,l,r) + LFE ch/ENG/ 8,36 Gb 377 24 19 февраля 2016 12:44 Люси / Lucy (2014) BDRip 1080p от NNNB .torrent   [Информация о файле (нажмите для просмотра)] Перевод: ДублированныйКачество: BDRip 1080p (исходник Blu-ray Disc Remux)Видео: 1920x804, 11348 Кбит/сек, 23,976 кадр/сек, AVC, x264, [email protected], 2.40:1, 0.307 Бит/[Пиксели*Кадры]Аудио 1: AC-3, 448 Кбит/сек, 6 канала(ов), 48,0 КГц - Дублированный / РусскийАудио 2: AC-3, 640 Кбит/сек, 6 канала(ов), 48,0 КГц - Оригинал / АнглийскийСубтитры: Русские | Полные, Английские | Полные 7,74 Gb 14 4 19 февраля 2016 12:44 Люси / Lucy (2014) HDRip от Scarabey | Лицензия .torrent   [Информация о файле (нажмите для просмотра)] Перевод: Профессиональный (дублированный) - ЛицензияКачество: HDRipФормат: AVIВидео: 720x304 (2.37:1), 23.976 fps, XviD build 73 ~1029 kbps avg, 0.20 bit/pixelАудио: 48 kHz, MPEG Layer 3, 2 ch, ~128.00 kbps avg 745,61 Mb 54 15 19 февраля 2016 12:44 Люси / Lucy (2014) BDRip 720p от Neofilm | Лицензия .torrent   [Информация о файле (нажмите для просмотра)] Перевод: Дублированный, лицензияКодек: x.264Качество: BDRip 720pВидео: 5918 kb/s, 1280x536, 23,976 fpsЗвук: AC3, 448 kb/s (6Ch)-Дублированный AC3, 640 kb/s (6Ch)-ОригиналСубтитры: русские, английскиеВидео: Идентификатор : 1 Формат : AVC Формат/Информация : Advanced Video Codec Профиль формата : [email protected] Параметр CABAC формата : Да Параметр ReFrames формата : 11 кадров Идентификатор кодека : V_MPEG4/ISO/AVC Продолжительность : 1 ч. 29 м. Битрейт : 5918 Кбит/сек Ширина : 1280 пикселей Высота : 536 пикселей Соотношение сторон : 2,40:1 Режим частоты кадров : Постоянный Частота кадров : 23,976 кадра/сек Цветовое пространство : YUV Субдискретизация насыщенности : 4:2:0 Битовая глубина : 8 бит Тип развёртки : Прогрессивная Бит/(Пиксели*Кадры) : 0.360 Размер потока : 3,61 Гбайт (82%) Заголовок : Люси / Lucy (2014) Библиотека кодирования : x264 core 142 r2479 dd79a61 Настройки программы : cabac=1 / ref=11 / deblock=1:-3:-3 / analyse=0x3:0x113 / me=umh / subme=11 / psy=1 / psy_rd=1.02:0.03 / mixed_ref=1 / me_range=32 / chroma_me=1 / trellis=2 / 8x8dct=1 / cqm=0 / deadzone=21,11 / fast_pskip=0 / chroma_qp_offset=-3 / threads=12 / lookahead_threads=2 / sliced_threads=0 / nr=0 / decimate=0 / interlaced=0 / bluray_compat=0 / constrained_intra=0 / bframes=9 / b_pyramid=2 / b_adapt=2 / b_bias=0 / direct=3 / weightb=1 / open_gop=0 / weightp=2 / keyint=240 / keyint_min=23 / scenecut=40 / intra_refresh=0 / rc_lookahead=50 / rc=2pass / mbtree=0 / bitrate=5918 / ratetol=1.0 / qcomp=0.60 / qpmin=0 / qpmax=69 / qpstep=4 / cplxblur=20.0 / qblur=0.5 / vbv_maxrate=50000 / vbv_bufsize=62500 / nal_hrd=none / filler=0 / ip_ratio=1.40 / pb_ratio=1.30 / aq=1:1.00 Язык : English Default : Нет Forced : НетАудио #1: Идентификатор : 2 Формат : AC-3 Формат/Информация : Audio Coding 3 Расширение режима : CM (complete main) Параметр Endianness формата : Big Идентификатор кодека : A_AC3 Продолжительность : 1 ч. 29 м. Вид битрейта : Постоянный Битрейт : 448 Кбит/сек Каналы : 6 каналов Расположение каналов : Front: L C R, Side: L R, LFE Частота : 48,0 КГц Битовая глубина : 16 бит Метод сжатия : С потерями Размер потока : 286 Мбайт (6%) Заголовок : DUB Язык : Russian Default : Да Forced : ДаАудио #2: Идентификатор : 3 Формат : AC-3 Формат/Информация : Audio Coding 3 Расширение режима : CM (complete main) Параметр Endianness формата : Big Идентификатор кодека : A_AC3 Продолжительность : 1 ч. 29 м. Вид битрейта : Постоянный Битрейт : 640 Кбит/сек Каналы : 6 каналов Расположение каналов : Front: L C R, Side: L R, LFE Частота : 48,0 КГц Битовая глубина : 16 бит Метод сжатия : С потерями Размер потока : 409 Мбайт (9%) Язык : English Default : Нет Forced : Нет 4,37 Gb 105 5 19 февраля 2016 12:44 Люси / Lucy (2014) BDRip 1080р .torrent   [Информация о файле (нажмите для просмотра)] Перевод: Дублированное [лицензия]Кодек: MKVКачество: BDRip 1080Видео: MPEG-4 AVC, 12.9 Mbps, 1920x804, 23,976 fpsЗвук: Rus, DTS, 768 kb/s (6 ch), 48 kHz Eng, DTS, 1510 kb/s (6 ch), 48 kHzСубтитры: Русские, украинские, английские 9,67 Gb 54 7 19 февраля 2016 12:44 Люси / Lucy (2014) BDRip 720p .torrent   [Информация о файле (нажмите для просмотра)] Перевод: Дублированное [лицензия]Кодек: MKVКачество: BDRip 720pВидео: MPEG-4 AVC, 5426 Кбит/с, 1280x536, 23,976 fpsЗвук: Rus, DTS, 768 kb/s (6 ch), 48 kHz Eng, DTS, 1510 kb/s (6 ch), 48 kHzСубтитры: Русские, украинские, английские 4,9 Gb 59 7 19 февраля 2016 12:44 Люси / Lucy (2014) BDRemux 1080p от ExKinoRay | Лицензия .torrent   [Информация о файле (нажмите для просмотра)] Качество: Blu-Ray Remux (1080p)Видео: MPEG-4 AVC, 28031 Кбит/с, 1920x1080, 23.976 Кадр/cАудио: Русский (DTS, 6 ch, 768 кбит/c), английский (DTS-HD MA, 6 ch, 4284 Кбит/c)Субтитры: Русские, украинские, английскиеВидео: Идентификатор : 1 Формат : AVC Формат/Информация : Advanced Video Codec Профиль формата : [email protected] Параметр CABAC формата : Да Параметр ReFrames формата : 4 кадра Идентификатор кодека : V_MPEG4/ISO/AVC Продолжительность : 1 ч. 29 м. Вид битрейта : Переменный Максимальный битрейт : 32,5 Мбит/сек Ширина : 1920 пикселей Высота : 1080 пикселей Соотношение сторон : 16:9 Режим частоты кадров : Постоянный Частота кадров : 23,976 кадра/сек Цветовое пространство : YUV Субдискретизация насыщенности : 4:2:0 Битовая глубина : 8 бит Тип развёртки : Прогрессивная Заголовок : Lucy.2014.x264.Blu-Ray.CEE.Remux.1080p.gogamel74.ExKinoRay Язык : English Default : Да Forced : ДаАудио #1: Идентификатор : 2 Формат : DTS Формат/Информация : Digital Theater Systems Режим : 16 Параметр Endianness формата : Big Идентификатор кодека : A_DTS Продолжительность : 1 ч. 29 м. Вид битрейта : Постоянный Битрейт : 768 Кбит/сек Каналы : 6 каналов Расположение каналов : Front: L C R, Side: L R, LFE Частота : 48,0 КГц Битовая глубина : 24 бит Метод сжатия : С потерями Размер потока : 491 Мбайт (2%) Заголовок : DUB - RUS - BD CEE - DTS, 48 KHz, 6 ch, 768 kbps, 24 bit Язык : Russian Default : Да Forced : ДаАудио #2: Идентификатор : 3 Формат : DTS Формат/Информация : Digital Theater Systems Профиль формата : MA / Core Режим : 16 Параметр Endianness формата : Big Идентификатор кодека : A_DTS Продолжительность : 1 ч. 29 м. Вид битрейта : Переменный Битрейт : Неизвестно / 1509 Кбит/сек Каналы : 6 каналов Расположение каналов : Front: L C R, Side: L R, LFE Частота : 48,0 КГц Битовая глубина : 24 бит Метод сжатия : Без потерь / Lossy Заголовок : Original - ENG - BD CEE - DTS-HD MA, 48 KHz, 6 ch, 4284 kbps, 24 bit Язык : English Default : Нет Forced : Нет 20,05 Gb 49 5 19 февраля 2016 12:44 Люси / Lucy (2014) BDRip от HQ-ViDEO | Лицензия .torrent   [Информация о файле (нажмите для просмотра)] Перевод: Профессиональный дублированный /Лицензия BluRay CEE/Субтитры: Русские (форс. + полные), Английские (форс. + полные)Видео: XviD, 720x304 (2.37:1), ~1874 kbps avg, 23,976 fpsАудио #1: AC3 Dolby Digital, 48 KHz, ~448 kbps, 3/2 (L,C,R,l,r) + LFE ch/RUS/Аудио #2: AC3 Dolby Digital, 48 KHz, ~448 kbps, 3/2 (L,C,R,l,r) + LFE ch/ENG, скачать отдельно с disk.yandex.ru/ 1,45 Gb 1943 35 19 февраля 2016 12:44 Люси / Lucy (2014) Blu-Ray | Лицензия .torrent   [Информация о файле (нажмите для просмотра)] Формат: m2tsКачество: Blu-RayВидео: MPEG-4 AVC, 28031 Кбит/с, 1920x1080Аудио: Русский, испанский, польский, тайский, турецкий, португальский, венгерский, чешский (DTS, 6 ch, 768 кбит/c), английский (DTS-HD MA, 6 ch, 4284 Кбит/c)Субтитры: Английские, португальские, чешские, венгерские, испанские, польские, русские, тайские, турецкие, болгарские, хорватские, греческие, иврит, корейские, румынские китайские, индонезийские, эстонские, латышские, литовские, словенские, украинскиеBD InfoDISC INFO: 31,43 Gb 11 5 19 февраля 2016 12:44 Люси / Lucy (2014) DVD9 | Лицензия .torrent   [Информация о файле (нажмите для просмотра)] Перевод: ДублированныйСубтитры: Английские, венгрские, русские, чешские, польские, болгарские, хорватские, греческие, иврит, румынские, эстонские, латышские, литовские, словенские, украинскиеКачество: DVD9Видео: PAL 16:9 (720x576) VBRАудио: Русский, английский, венгерский, польский, чешский (Dolby AC3, 6 ch) 5,66 Gb 22 5

gig-torrent.net

Скачать фильм Люси через торрент в хорошем качестве бесплатно 720p

GeneralUnique ID : 195223394185764212242145643918371098607 (0x92DEA87752BD9F5E994CEEAC7F3C8FEF)Complete name : C:\Downloads\Люси BDRip 720p 60fps R.G. HD-Films.mkvFormat : MatroskaFormat version : Version 4 / Version 2File size : 4.53 GiBDuration : 1h 29mnOverall bit rate : 7 259 KbpsMovie name : Tiberiumsun69Encoded date : UTC 2016-03-05 06:45:06Writing application : mkvmerge v8.3.0 ('Over the Horizon') 64bitWriting library : libebml v1.3.1 + libmatroska v1.4.2Attachment : Yes

VideoID : 1Format : AVCFormat/Info : Advanced Video CodecFormat profile : [email protected] settings, CABAC : YesFormat settings, ReFrames : 9 framesCodec ID : V_MPEG4/ISO/AVCDuration : 1h 29mnBit rate : 6 000 KbpsWidth : 1 280 pixelsHeight : 536 pixelsDisplay aspect ratio : 2.40:1Frame rate : 59.940 fpsColor space : YUVChroma subsampling : 4:2:0Bit depth : 8 bitsScan type : ProgressiveBits/(Pixel*Frame) : 0.146Stream size : 3.64 GiB (80%)Title : Tiberiumsun69Writing library : x264 core 146 r2538 121396cEncoding settings : cabac=1 / ref=9 / deblock=1:0:0 / analyse=0x3:0x113 / me=umh / subme=9 / psy=1 / psy_rd=1.00:0.10 / mixed_ref=1 / me_range=32 / chroma_me=1 / trellis=2 / 8x8dct=1 / cqm=0 / deadzone=21,11 / fast_pskip=0 / chroma_qp_offset=-3 / threads=12 / lookahead_threads=3 / sliced_threads=0 / nr=0 / decimate=1 / interlaced=0 / bluray_compat=0 / constrained_intra=0 / bframes=16 / b_pyramid=2 / b_adapt=2 / b_bias=0 / direct=3 / weightb=1 / open_gop=0 / weightp=2 / keyint=250 / keyint_min=25 / scenecut=40 / intra_refresh=0 / rc_lookahead=40 / rc=2pass / mbtree=0 / bitrate=6000 / ratetol=1.0 / qcomp=0.60 / qpmin=0 / qpmax=69 / qpstep=4 / cplxblur=20.0 / qblur=0.5 / vbv_maxrate=14000 / vbv_bufsize=14000 / nal_hrd=none / filler=0 / ip_ratio=1.40 / pb_ratio=1.30 / aq=1:1.00Language : EnglishDefault : YesForced : No

Audio #1ID : 2Format : AC-3Format/Info : Audio Coding 3Mode extension : CM (complete main)Codec ID : A_AC3Duration : 1h 29mnBit rate mode : ConstantBit rate : 640 KbpsChannel(s) : 6 channelsChannel positions : Front: L C R, Side: L R, LFESampling rate : 48.0 KHzBit depth : 16 bitsCompression mode : LossyStream size : 409 MiB (9%)Title : ДубляжLanguage : RussianDefault : YesForced : No

Audio #2ID : 3Format : AC-3Format/Info : Audio Coding 3Mode extension : CM (complete main)Codec ID : A_AC3Duration : 1h 29mnBit rate mode : ConstantBit rate : 640 KbpsChannel(s) : 6 channelsChannel positions : Front: L C R, Side: L R, LFESampling rate : 48.0 KHzBit depth : 16 bitsCompression mode : LossyStream size : 409 MiB (9%)Title : ОригиналLanguage : EnglishDefault : NoForced : No

Text #1ID : 4Format : UTF-8Codec ID : S_TEXT/UTF8Codec ID/Info : UTF-8 Plain TextTitle : ФорсированныеLanguage : RussianDefault : YesForced : No

Text #2ID : 5Format : UTF-8Codec ID : S_TEXT/UTF8Codec ID/Info : UTF-8 Plain TextTitle : ПолныеLanguage : RussianDefault : NoForced : No

Text #3ID : 6Format : UTF-8Codec ID : S_TEXT/UTF8Codec ID/Info : UTF-8 Plain TextTitle : ПолныеLanguage : UkrainianDefault : NoForced : No

Text #4ID : 7Format : UTF-8Codec ID : S_TEXT/UTF8Codec ID/Info : UTF-8 Plain TextTitle : ФорсированныеLanguage : EnglishDefault : NoForced : No

Text #5ID : 8Format : UTF-8Codec ID : S_TEXT/UTF8Codec ID/Info : UTF-8 Plain TextTitle : ПолныеLanguage : EnglishDefault : NoForced : No

Text #6ID : 9Format : UTF-8Codec ID : S_TEXT/UTF8Codec ID/Info : UTF-8 Plain TextTitle : Полные SDHLanguage : EnglishDefault : NoForced : No

Menu00:00:00.000 : :Chapter 0100:05:26.367 : :Chapter 0200:08:38.267 : :Chapter 0300:15:45.903 : :Chapter 0400:21:36.295 : :Chapter 0500:26:05.397 : :Chapter 0600:30:27.534 : :Chapter 0700:37:36.254 : :Chapter 0800:41:43.459 : :Chapter 0900:47:32.558 : :Chapter 1000:50:10.716 : :Chapter 1100:55:32.495 : :Chapter 1200:59:36.072 : :Chapter 1301:02:08.099 : :Chapter 1401:04:51.345 : :Chapter 1501:07:14.030 : :Chapter 1601:09:55.816 : :Chapter 1701:12:26.133 : :Chapter 1801:18:50.600 : :Chapter 1901:22:31.571 : :Chapter 2001:29:20.146 : :Chapter 21

piratbit.ru

Скачать фильм Люси через торрент в хорошем качестве бесплатно 1080p

GeneralUnique ID : 243719983457863349315281912044087571673 (0xB75AC2EC56192D61978A40DFCCEA74D9)Complete name : C:\Downloads\Люси BDRip 1080p 60fps R.G. HD-Films.mkvFormat : MatroskaFormat version : Version 4 / Version 2File size : 11.7 GiBDuration : 1h 29mnOverall bit rate mode : VariableOverall bit rate : 18.8 MbpsMovie name : Tiberiumsun69Encoded date : UTC 2016-03-05 06:46:22Writing application : mkvmerge v8.3.0 ('Over the Horizon') 64bitWriting library : libebml v1.3.1 + libmatroska v1.4.2Attachment : Yes

VideoID : 1Format : AVCFormat/Info : Advanced Video CodecFormat profile : [email protected] settings, CABAC : YesFormat settings, ReFrames : 4 framesCodec ID : V_MPEG4/ISO/AVCDuration : 1h 29mnBit rate : 16.1 MbpsNominal bit rate : 14.0 MbpsWidth : 1 920 pixelsHeight : 800 pixelsDisplay aspect ratio : 2.40:1Frame rate : 59.940 fpsColor space : YUVChroma subsampling : 4:2:0Bit depth : 8 bitsScan type : ProgressiveBits/(Pixel*Frame) : 0.175Stream size : 10.1 GiB (86%)Title : Tiberiumsun69Writing library : x264 core 146 r2538 121396cEncoding settings : cabac=1 / ref=4 / deblock=1:0:0 / analyse=0x3:0x113 / me=umh / subme=9 / psy=1 / psy_rd=1.00:0.10 / mixed_ref=1 / me_range=32 / chroma_me=1 / trellis=2 / 8x8dct=1 / cqm=0 / deadzone=21,11 / fast_pskip=0 / chroma_qp_offset=-3 / threads=12 / lookahead_threads=3 / sliced_threads=0 / nr=0 / decimate=1 / interlaced=0 / bluray_compat=0 / constrained_intra=0 / bframes=16 / b_pyramid=2 / b_adapt=2 / b_bias=0 / direct=3 / weightb=1 / open_gop=0 / weightp=2 / keyint=250 / keyint_min=25 / scenecut=40 / intra_refresh=0 / rc_lookahead=40 / rc=2pass / mbtree=0 / bitrate=14000 / ratetol=1.0 / qcomp=0.60 / qpmin=0 / qpmax=69 / qpstep=4 / cplxblur=20.0 / qblur=0.5 / vbv_maxrate=14000 / vbv_bufsize=14000 / nal_hrd=none / filler=0 / ip_ratio=1.40 / pb_ratio=1.30 / aq=1:1.00Language : EnglishDefault : YesForced : No

Audio #1ID : 2Format : DTSFormat/Info : Digital Theater SystemsCodec ID : A_DTSDuration : 1h 29mnBit rate mode : ConstantBit rate : 755 KbpsChannel(s) : 6 channelsChannel positions : Front: L C R, Side: L R, LFESampling rate : 48.0 KHzBit depth : 24 bitsCompression mode : LossyStream size : 482 MiB (4%)Title : ДУбляжLanguage : RussianDefault : YesForced : No

Audio #2ID : 3Format : DTSFormat/Info : Digital Theater SystemsFormat profile : MA / CoreCodec ID : A_DTSDuration : 1h 29mnBit rate mode : VariableBit rate : 1 576 Kbps / 1 510 KbpsChannel(s) : 6 channelsChannel positions : Front: L C R, Side: L R, LFESampling rate : 48.0 KHzBit depth : 24 bitsCompression mode : Lossless / LossyLanguage : EnglishDefault : NoForced : No

Text #1ID : 4Format : UTF-8Codec ID : S_TEXT/UTF8Codec ID/Info : UTF-8 Plain TextTitle : ФорсированныеLanguage : RussianDefault : YesForced : No

Text #2ID : 5Format : UTF-8Codec ID : S_TEXT/UTF8Codec ID/Info : UTF-8 Plain TextTitle : ПолныеLanguage : RussianDefault : NoForced : No

Text #3ID : 6Format : UTF-8Codec ID : S_TEXT/UTF8Codec ID/Info : UTF-8 Plain TextTitle : ПолныеLanguage : UkrainianDefault : NoForced : No

Text #4ID : 7Format : UTF-8Codec ID : S_TEXT/UTF8Codec ID/Info : UTF-8 Plain TextTitle : ФорсированныеLanguage : EnglishDefault : NoForced : No

Text #5ID : 8Format : UTF-8Codec ID : S_TEXT/UTF8Codec ID/Info : UTF-8 Plain TextTitle : ПолныеLanguage : EnglishDefault : NoForced : No

Text #6ID : 9Format : UTF-8Codec ID : S_TEXT/UTF8Codec ID/Info : UTF-8 Plain TextTitle : Полные SDHLanguage : EnglishDefault : NoForced : No

Menu00:00:00.000 : :Chapter 0100:05:26.367 : :Chapter 0200:08:38.267 : :Chapter 0300:15:45.903 : :Chapter 0400:21:36.295 : :Chapter 0500:26:05.397 : :Chapter 0600:30:27.534 : :Chapter 0700:37:36.254 : :Chapter 0800:41:43.459 : :Chapter 0900:47:32.558 : :Chapter 1000:50:10.716 : :Chapter 1100:55:32.495 : :Chapter 1200:59:36.072 : :Chapter 1301:02:08.099 : :Chapter 1401:04:51.345 : :Chapter 1501:07:14.030 : :Chapter 1601:09:55.816 : :Chapter 1701:12:26.133 : :Chapter 1801:18:50.600 : :Chapter 1901:22:31.571 : :Chapter 2001:29:20.146 : :Chapter 21

piratbit.ru

Люси (2014) HD 720 смотреть онлайн и скачать

Комментирование запрещено Pepelsbei 7 апреля 2017, 14:01 Нормуль!Скарлет ничтяк!Фильм что надо!10/10 tatarin73 29 июля 2016, 13:43 Круть))) Strecozochka1717Apri 31 мая 2016, 02:32 Рекламу бы убрали слишком много .......... barkas 4 апреля 2016, 06:15 Мутноват но супер!!! ghita 28 декабря 2015, 00:43 супер фильм,смотрел много раз!если будет продолжение жду...жаль в реалности такое небыло,дай и не будет,но....... metallist10 6 декабря 2015, 20:05 Очень хороший фильм, советую всем. ZIGZAG 4 декабря 2015, 19:59 фильм потрясный!!! 10ь баллов!!! респект создателям !!! Assassin's 3 декабря 2015, 18:37 Фильм ахуенный [email protected] 6 ноября 2015, 21:30 Я еще не смотрел но мой друг говорит что фильм классный paffooss 30 октября 2015, 22:37 Всё верно фильм просто классс ..мозг у людей у ВСЕХ одинаковый . просто комуто что то лучше даётся чем другому А почему это так происходит никто и никогда доказать не сможет ... Winchesterr 13 октября 2015, 22:27 а вторая часть будет?? Winchesterr 13 октября 2015, 22:26 потрясающий фильм!! заставляет задуматься после просмотра! kurbanbek97 22 июля 2015, 05:26 Отличный фильм 9 из 10 |)_}|{_()_|{_e_R 13 июля 2015, 08:25 Фильм на любителя, но мне не понравился совсем.. Много непонятной бредятины, сюжет не очень то и интересный, в общем 5/10 и этолько за игру Скарлет.. Georgio 3 июля 2015, 12:47 И так к сведению - Люк Бессон не будет снимать сиквел фильма. Возможно будет ремейк фильма но с другим названием. Georgio 3 июля 2015, 12:45 Только что посмотрел лицензию! Классная научная фантастика не тот мусор которым кормят нас по syfy и другим - псевдонаучным каналам! Я думаю фильм ещё можно будет пересматривать несколько раз, но не часто. В коллекцию классных фильмов . А тем кто любит треш смотрите телеканал россия На вкус и цвет товарища нет Клон Нифёдыча 24 июня 2015, 04:17 Люди, посмотревшие этот фильм, просят продолжения. Клон Нифёдыча 24 июня 2015, 04:16 Люди, посмотревшие этот фильм, просят продолжения.

lenfilm.tv


Смотрите также