Скачать кино хардкор


Скачать торрент Хардкор / Hardcore Henry (2015) WEB-DL 1080p

Информация о фильмеНазвание: ХардкорОригинальное название: Hardcore HenryГод выпуска: 2015Страна: Россия, СШАЖанр: боевик, фантастикаПеревод: Дубляж - [Line]Примечание: Релиз без рекламыСубтитры: английские (Full) Продолжительность: 01:36:45Режиссер: Илья Найшуллер В ролях: Шарлто Копли (Джимми), Данила Козловский (Акан), Хейли Беннетт (Эстель), Андрей Дементьев (Хитрый Дмитрий), Сергей Шнуров (начальник службы безопасности парковки), Кирилл Серебренников (танкист), Александр Паль (наёмник с огнемётом), Светлана Устинова (Ольга Доминатрикс), Даша Чаруша (Катя Доминатрикс), Равшана Куркова (продавец в переходе), Полина Филоненко (девушка, которую Генри спасает от полицейских (вырезанный эпизод)), Евгений Баженов (киборг, которого Генри бросает на электроограждение)Описание: Прекрасная супружеская жизнь рядом с очаровательной Эстель - это все, что помнит главный герой после того, как просыпается в неизвестной научной лаборатории, где в чувства его приводит собственная жена. Но супруга тут же оказывается похищенной, и ничего не понимающий главный герой Генри уже вынужден преследовать монстра Акана, который украл его жену. Теперь ради достижения цели Генри готов на многое. Но позже оказывается, что не только он один является врагом для Акана. У подозрительного Джимми тоже свои планы на злодея. Теперь вместе ребятам предстоит спасти Эстель и предотвратить попытку задействовать армию киборгов в борьбе с человечеством. Им предстоит бороться с самим воплощением зла.Рейтинг:MPAA: R - Лицам до 17 лет обязательно присутствие взрослогоКачество: WEB-DL 1080pФормат: MKVВидео: AVC, 1920x1032 (1.860), 5110 kbps, 23,976 fps, 0,108 bppАудио №1: русский / AC3 / 2.0 / 48 kHz / 192 kbps / 16 bit |Line| Аудио №2: английский / AC3 / 5.1 / 48 kHz / 384 kbps / 16 bitНавигация по главам: естьСэмпл

ОтчетМедиаИнфо

General Unique ID : 192065013009779745562827223110327486088 (0x907E6040630AD6E8BD1445EFE5384688) Complete name : E:Hardcore.Henry.2015.1080p.WEB-DL.mkv Format : Matroska Format version : Version 4 / Version 2 File size : 3.92 GiB Duration : 1h 36mn Overall bit rate : 5 802 Kbps Movie name : Hardcore Henry 2015 1080p WEB-DL Encoded date : UTC 2016-07-04 21:19:40 Writing application : mkvmerge v9.2.0 ('Photograph') 64bit Writing library : libebml v1.3.3 + libmatroska v1.4.4 DURATION : 01:36:45.952000000 NUMBER_OF_FRAMES : 181436 NUMBER_OF_BYTES : 139342848 _STATISTICS_WRITING_APP : mkvmerge v9.2.0 ('Photograph') 64bit _STATISTICS_WRITING_DATE_UTC : 2016-07-04 21:19:40 _STATISTICS_TAGS : BPS DURATION NUMBER_OF_FRAMES NUMBER_OF_BYTES

Video ID : 1 Format : AVC Format/Info : Advanced Video Codec Format profile : [email protected] Format settings, CABAC : Yes Format settings, ReFrames : 4 frames Codec ID : V_MPEG4/ISO/AVC Duration : 1h 36mn Bit rate : 5 110 Kbps Width : 1 920 pixels Height : 1 032 pixels Display aspect ratio : 1.860 Frame rate : 23.976 fps Color space : YUV Chroma subsampling : 4:2:0 Bit depth : 8 bits Scan type : Progressive Bits/(Pixel*Frame) : 0.108 Stream size : 3.45 GiB (88%) Language : English Default : Yes Forced : No Color primaries : BT.709-5, BT.1361, IEC 61966-2-4, SMPTE RP177 Transfer characteristics : BT.709-5, BT.1361 Matrix coefficients : BT.709-5, BT.1361, IEC 61966-2-4 709, SMPTE RP177

Audio #1 ID : 2 Format : AC-3 Format/Info : Audio Coding 3 Mode extension : CM (complete main) Codec ID : A_AC3 Duration : 1h 36mn Bit rate mode : Constant Bit rate : 192 Kbps Channel(s) : 2 channels Channel positions : Front: L R Sampling rate : 48.0 KHz Bit depth : 16 bits Compression mode : Lossy Stream size : 133 MiB (3%) Title : Line Language : Russian Default : Yes Forced : No

Audio #2 ID : 3 Format : AC-3 Format/Info : Audio Coding 3 Mode extension : CM (complete main) Codec ID : A_AC3 Duration : 1h 36mn Bit rate mode : Constant Bit rate : 384 Kbps Channel(s) : 6 channels Channel positions : Front: L C R, Side: L R, LFE Sampling rate : 48.0 KHz Bit depth : 16 bits Compression mode : Lossy Stream size : 266 MiB (7%) Title : Original Language : English Default : No Forced : No

Text ID : 4 Format : UTF-8 Codec ID : S_TEXT/UTF8 Codec ID/Info : UTF-8 Plain Text Title : Full Language : English Default : No Forced : No

Menu 00:00:00.000 : en:Opening Sequence 00:04:00.000 : en:I Love You Henry 00:12:07.000 : en:Mercenaries 00:18:41.000 : en:I'm Kidding! 00:26:08.000 : en:You're Half Machine 00:34:15.000 : en:I Can't Do It 00:39:20.000 : en:Just Say Yes 00:43:57.000 : en:I Was So Scared 00:48:52.000 : en:Reboot 00:53:25.000 : en:Don't Compromise My Lab 00:59:36.000 : en:Under My Skin 01:07:16.000 : en:No More Lab 01:11:20.000 : en:The Memory Block 01:15:30.000 : en:The Soldiers 01:24:06.000 : en:You Didn't Make History 01:29:27.000 : en:End Credits

krutor.org

Фильм Хардкор (2015) скачать торрент в хорошем качестве hd

Название: Хардкор 

Оригинальное название: Hardcore Henry 

Год выпуска: 2015 

Жанр: Боевик, фантастика 

Выпущено: Россия, США, Базелевс Продакшн, Robusto 

Режиссер: Илья Найшуллер 

В ролях: Шарлто Копли, Данила Козловский, Хейли Беннетт, Андрей Дементьев, Сергей Шнуров, Кирилл Серебренников, Александр Паль, Светлана Устинова, Даша Чаруша, Равшана Куркова, Полина Филоненко, Евгений Баженов, Константин Хабенский, Михаил Изотов, Сергей Валяев, Сергей Мезенцев, Виталий Воскресенский, Алена Чехова, Леонид Парфёнов, Тим Рот 

События из жизни могут меняется ежесекундно главный создавая в голове сплошной хаус и неразбериху. Так и в данной истории, где неординарность и ракурс происходящего будут каждую секунду обескураживать. Так главный герой Генри, будет вынужден проснуться в клинике без памяти и только с осознанием того, что он может в любую минуту погибнуть. Радостью остается его любовь к жене, ведь очаровательная Эстель, все еще рядом, но только до определённого момента. Все рушится в одно мгновение, когда силы монстра Акана, начинают разрушать привычные устои.

Сюжетом для данной фантастической истории и станут ракурсы сьемки, как будто вы являетесь главным героем и вам предстоит пройти миссию, из видео игры совместно с главным героем киноленты. А при всем этом все происходящее будет постоянно приводить в движение количество адреналина и давать лишний повод задуматься об наличии собственного ощущения мира и понимания всего происходящего. Именно главный герой Генри, готовый сражаться за свое существование, должен будет найти правильный путь и выход из сложнейшей ситуации, спасти при этом жизнь единственного и столь дорого сердцу человека, именно очаровательной Эстель, которая будет похищена монстром Аканом. При всем этом нет возможности отыскать пути решения собственной осознанности, так как каждый раз герою придется просыпаться в бессознательном понимание всего случившегося.

Отдельно можно отметить, неординарность происходящих сьемок, от первого лица, где вы окажитесь как зритель, втянутым в жизненные перипетии, заставляющие пересмотреть собственное понимание всего мироздания. Увидеть новый жанр в кинематографе, совмещенный с боевиком и определённым видом приключения. Это все позволяет получить киноленте столь высокие 9 из 10 пунктов, показав новое понимание сьемок и дать повод побывать в роли главного героя. Яркая и столь смелая история, позволит увидеть новые грани и осознать кинематограф по ту сторону сьемок.

Качество: WEB-DL 1080p 

Формат: MKV 

Видео: AVC, 1920x1032 (1.860), 5110 kbps, 23,976 fps, 0,108 bpp 

Аудио №1: русский / AC3 / 2.0 / 48 kHz / 192 kbps / 16 bit |Line| 

Аудио №2: английский / AC3 / 5.1 / 48 kHz / 384 kbps / 16 bit 

Навигация по главам: есть

Поиск торрент раздач, пожалуйста подождите!

Информация о торрент файле

Скачать торрент Торрент: Зарегистрирован Статус: v Проверено Просмотров: 1 140 Категория: боевики Общий размер: 3.92 GB

Поделитесь ссылкой на наш сайт с друзьями в соц.сетях ↓

mega-torrent.co

Хардкор / Hardcore Henry (2015) BDRip 1080p

Год выпуска: 2016Страна: Россия, СШАЖанр: боевик, фантастикаПродолжительность: 01:36:22Озвучивание: профессиональное, дублированное [iTunes]  + оригинал [английский]ВНИМАНИЕ: Присутствует сцена, вырезанная цензурой из российской прокатной версии

Режиссер: Илья НайшуллерВ ролях: Шарлто Копли, Данила Козловский, Хейли Беннетт, Андрей Дементьев, Сергей Шнуров, Кирилл Серебренников, Александр Паль, Светлана Устинова, Даша Чаруша, Равшана Куркова, Евгений Баженов

Сюжет: Прекрасная супружеская жизнь рядом с очаровательной Эстель — это все, что помнит главный герой после того, как просыпается в неизвестной научной лаборатории, где в чувства его приводит собственная жена. Но супруга тут же оказывается похищенной, и ничего не понимающий главный герой Генри уже вынужден преследовать монстра Акана, который украл его жену. Теперь ради достижения цели Генри готов на многое. Но позже оказывается, что не только он один является врагом для Акана. У подозрительного Джимми тоже свои планы на злодея. Теперь вместе ребятам предстоит спасти Эстель и предотвратить попытку задействовать армию киборгов в борьбе с человечеством. Им предстоит бороться с самим воплощением зла.Примечание:Режиссер "Хардкора" — создатель клипов Biting Elbows "The Stampede" (Побег из офиса) и "Bad Motherfucker". Фильм полностью снят от первого лица главного героя на камеры GoPro.

 

Качество: BDRip 1080p [без рекламы]Контейнер: MKVВидео: 16500 Kbit/s, 1920x1040Аудио: AC3, 6 ch, 384 kbps (дубляж)Аудио: DTS, 6 ch, 1510 kbps (оригинал)Субтитры: Английские, арабские, болгарские, чешские, датские, немецкие, финские, греческие, норвежские, персидские, португальские, испанские, шведскиеРазмер: 12.91 GB 

Сэмпл

HDRip на 1.36 GB (iTunes) [БЕЗ РЕКЛАМЫ]

torrent-games.net

Скачать торрент Хардкор (2015) WEBRip 720р | D

Хардкор

Страна: Россия США Производство: Базелевс Продакшн, RobustoГод выпуска: 2015Жанр: боевик, фантастикаПродолжительность: 01:36:22

Режиссер: Илья НайшуллерАвтор сценария: Илья НайшуллерПродюсеры: Тимур Бекмамбетов, Илья Найшуллер, Екатерина Кононенко

В ролях: Шарлто Копли, Данила Козловский, Хейли Беннетт, Андрей Дементьев, Сергей Шнуров, Кирилл Серебренников, Александр Паль, Светлана Устинова

Описание: Прекрасная супружеская жизнь рядом с очаровательной Эстель — это все, что помнит главный герой после того, как просыпается в неизвестной научной лаборатории, где в чувства его приводит собственная жена. Но супруга тут же оказывается похищенной, и ничего не понимающий главный герой Генри уже вынужден преследовать монстра Акана, который украл его жену.

Теперь ради достижения цели Генри готов на многое. Но позже оказывается, что не только он один является врагом для Акана. У подозрительного Джимми тоже свои планы на злодея. Теперь вместе ребятам предстоит спасти Эстель и предотвратить попытку задействовать армию киборгов в борьбе с человечеством. Им предстоит бороться с самим воплощением зла...

Перевод: Профессиональный (полное дублирование) | чистый звукСубтитры: корейские (вшитые)

Качество: WEBRip 720рФормат: МКVВидео кодек: AVCАудио кодек: АС3Видео: 1280x720 (16:9), 29.970 fps, MPEG-4 AVC ~3 805 kbps avg, 0.138 bit/pixelАудио: 48.0 kHz, AC3 Dolby Digital, 2/0 (L,R) ch, ~384 kbps

Бюджет: $2 000 000Дата премьеры (мир): 12 сентября 2015Дата премьеры (РФ): 7 апреля 2016, «Bazelevs Distribution»

ПРИМЕЧАНИЕ: ПРИСУТСТВУЕТ РЕКЛАМА!

Media Info

General Unique ID : 240879398683457689852784580610534033021 (0xB537AF47E9937FFC8498B296B2FA467D) Format : Matroska Format version : Version 4 / Version 2 Overall bit rate mode : Constant Overall bit rate : 4 274 Kbps Encoded date : UTC 2016-05-30 20:54:45 Writing application : mkvmerge v8.8.0 ('Wind at my back') 64bit Writing library : libebml v1.3.3 + libmatroska v1.4.4 DURATION : 00:01:08.640000000 NUMBER_OF_FRAMES : 2145 NUMBER_OF_BYTES : 3294720 _STATISTICS_WRITING_APP : mkvmerge v8.8.0 ('Wind at my back') 64bit _STATISTICS_WRITING_DATE_UTC : 2016-05-30 20:54:45

Video ID : 1 Format : AVC Format/Info : Advanced Video Codec Format profile : [email protected] Format settings, CABAC : Yes Format settings, ReFrames : 9 frames Codec ID : V_MPEG4/ISO/AVC Bit rate mode : Constant Bit rate : 3 805 Kbps Nominal bit rate : 4 200 Kbps Width : 1 280 pixels Height : 720 pixels Display aspect ratio : 16:9 Frame rate mode : Constant Frame rate : 29.970 fps Standard : Component Color space : YUV Chroma subsampling : 4:2:0 Bit depth : 8 bits Scan type : Progressive Bits/(Pixel*Frame) : 0.138 Stream size : 31.1 MiB (89%) Language : English Default : Yes Forced : No Color range : Limited Color primaries : BT.709 Transfer characteristics : BT.709 Matrix coefficients : BT.709

Audio ID : 2 Format : AC-3 Format/Info : Audio Coding 3 Mode extension : CM (complete main) Format settings, Endianness : Big Codec ID : A_AC3 Bit rate mode : Constant Bit rate : 384 Kbps Channel(s) : 2 channels Channel positions : Front: L R Sampling rate : 48.0 KHz Compression mode : Lossy Stream size : 3.14 MiB (9%) Language : Russian Default : Yes Forced : No

mrutor.org

Скачать фильм Хардкор через торрент в хорошем качестве бесплатно Хардкор / Hardcore Henry (Илья Найшуллер) [2015

Размер: 1.43 GB | Добавлен: 1 год 6 мес. назад | Торрент скачан:1549 раз
Реклама Дарим 3000 рублей за регистрацию, не упусти свой шанс получить шикарный бонус!!!

13-04-2016 16:28 Хардкор Скачать торрент  

Хардкор / Hardcore Henry Год выпуска: 2015Производство: Россия, СШАЖанр: боевик, фантастика,Продолжительность: 01:29:07Перевод: Авторский (одноголосый закадровый) Дмитрий "Гоблин" Пучков Субтитры: английские

Режиссер: Илья Найшуллер

Актеры: Шарлто Копли, Тим Рот , Данила Козловский, Хейли Беннетт, Андрей Дементьев, Сергей Шнуров, Кирилл Серебренников, Александр Паль, Светлана Устинова, Даша Чаруша, Равшана Куркова Прекрасная супружеская жизнь рядом с очаровательной Эстель — это все, что помнит главный герой после того, как просыпается в неизвестной научной лаборатории, где в чувства его приводит собственная жена. Но супруга тут же оказывается похищенной, и ничего не понимающий главный герой Генри уже вынужден преследовать монстра Акана, который украл его жену.

Теперь ради достижения цели Генри готов на многое. Но позже оказывается, что не только он один является врагом для Акана. У подозрительного Джимми тоже свои планы на злодея. Теперь вместе ребятам предстоит спасти Эстель и предотвратить попытку задействовать армию киборгов в борьбе с человечеством. Им предстоит бороться с самим воплощением зла.

Качество: CAMRipФормат: MKVВидео: 720x400 (1.80:1), 29,970 fps, ~2100 kbps avg, 0.243 bit/pixelАудио: AC-3, 48.0 KHz, 2 ch, 192 Kbps, CBR

Скачать Хардкор через торрент http://i77.fastpic.ru/big/2016/0413/9e/4d260217192620e6125381f899780f9e.jpg Скачать фильм Хардкор через торрент бесплантно в хорошем качестве Год выпуска: 2015Производство: Россия, СШАЖанр: боевик, фантастика,Продолжительность: 01:29:07Перевод: Авторский (одноголосый ) ... 2016-04-13 16:28 9 10 45

Loading...

Loading...

Рекламный пират

13-04-2016 17:03 Хардкор Скачать торрент  

Производство: Россия, СШАПеревод: Авторский (одноголосый закадровый) Дмитрий "Гоблин" Пучков Всё круто, но Россия меня смущает .... стоит ли смотреть?

13-04-2016 17:05 Хардкор Скачать торрент  

Начало фильма напоминает игру " Deus EX^ HR" (когда героя собирают) даже музыка оттуда...но фильм зачет...необычно...понравился

13-04-2016 17:15 Хардкор Скачать торрент  

и здесь шнур.надо глянуть

13-04-2016 17:31 Хардкор Скачать торрент  

Считается первым в мире фильмом от первого лица)

13-04-2016 17:35 Хардкор Скачать торрент  

bober100 писал(а):

Считается первым в мире фильмом от первого лица)

...я б добавил полностью снятым от первого лица. впомни doom, там уже было от первого лица, на пару минут....

13-04-2016 17:43 Хардкор Скачать торрент  

xsoulx, авторы утверждают наоборот.они говарят что они оснаватели такой сьемки фильма.а DOOM они походу невидели)!

13-04-2016 17:46 Хардкор Скачать торрент  

bober100, ну если так рассуждать, то конечно, первооткрыватели :)

13-04-2016 17:53 Хардкор Скачать торрент  

а я в центре вселенной подожду бубняжа

Pекламный агент PB

13-04-2016 17:54 Хардкор Скачать торрент  

Дитрей писал(а):

Производство: Россия, СШАПеревод: Авторский (одноголосый закадровый) Дмитрий "Гоблин" Пучков Всё круто, но Россия меня смущает .... стоит ли смотреть?

Однозначно стоит!

13-04-2016 18:04 Хардкор Скачать торрент  

Народ, не смотрите что производство принимала Россия. Просто это написано из-за Бекмамбекова, ну и пара наших актёров. А так это эксклюзив от Гоблина в плане перевода. Конечно не первая попытка снять фильм от первого лица, но на этот раз взялся профессионал и поверьте он это сделал на качественном уровне!Для уверенности посмотрите трейлер или тизеры их в инете куча валяется. А ещё советую не пожалеть 150-250 рублей и в кино сходить, что бы поддержать такие проекты, уж больно редко такое можно лицезреть в кинотеатрах.

13-04-2016 18:34 Хардкор Скачать торрент  

Данный рип не стоит смотреть, картинка обрезана.

aVpostol писал(а):

А ещё советую не пожалеть 150-250 рублей и в кино сходить, что бы поддержать такие проекты, уж больно редко такое можно лицезреть в кинотеатрах.

Как построишь в моей деревне кинотеатр, обязательно схожу.

13-04-2016 18:48 Хардкор Скачать торрент  

Отличный фильм. Не жалко 260р за билет. Радует, что почти весь фильм снимали у нас)

13-04-2016 19:31 Хардкор Скачать торрент  

xsoulx писал(а):

bober100 писал(а):

Считается первым в мире фильмом от первого лица)

...я б добавил полностью снятым от первого лица. впомни doom, там уже было от первого лица, на пару минут....

bober100 писал(а):

xsoulx, авторы утверждают наоборот.они говарят что они оснаватели такой сьемки фильма.а DOOM они походу невидели)!

Doom в подметки не годится Хардкору.Хардкор первый экшн фильм снятый полностью от первого лица.

Последний раз редактировалось: deIIis (2016-04-13 19:41), всего редактировалось 2 раз(а)

13-04-2016 19:31 Хардкор Скачать торрент  

DeeMan писал(а):

Данный рип не стоит смотреть, картинка обрезана.

aVpostol писал(а):

А ещё советую не пожалеть 150-250 рублей и в кино сходить, что бы поддержать такие проекты, уж больно редко такое можно лицезреть в кинотеатрах.

Как построишь в моей деревне кинотеатр, обязательно схожу.взаимно в соседний город мотаться то еще удовольствие, с этими электричками, надоели умники

13-04-2016 19:48 Хардкор Скачать торрент  

nikolaygurubrain писал(а):

DeeMan писал(а):

Данный рип не стоит смотреть, картинка обрезана.

aVpostol писал(а):

А ещё советую не пожалеть 150-250 рублей и в кино сходить, что бы поддержать такие проекты, уж больно редко такое можно лицезреть в кинотеатрах.

Как построишь в моей деревне кинотеатр, обязательно схожу.взаимно в соседний город мотаться то еще удовольствие, с этими электричками, надоели умникиСмотрите где хотите, мне не жалко. Я пытаюсь вам донести, что если кинцо не окупится, то будете дальше в своих городах и сёлах смотреть второсортное гомно, а потом ходить и плеваться.

13-04-2016 19:49 Хардкор Скачать торрент  

Зачётный кинчик. На такой ни грех и в кино сходить.

Pекламный агент PB

13-04-2016 20:06 Хардкор Скачать торрент  

приключения нар павлика напомнило

13-04-2016 20:25 Хардкор Скачать торрент  

kloyni писал(а):

приключения нар павлика напомнило

походу он автор сценария

13-04-2016 20:50 Хардкор Скачать торрент  

aVpostol писал(а):

Народ, не смотрите что производство принимала Россия. Просто это написано из-за Бекмамбекова, ну и пара наших актёров. А так это эксклюзив от Гоблина в плане перевода. Конечно не первая попытка снять фильм от первого лица, но на этот раз взялся профессионал и поверьте он это сделал на качественном уровне!Для уверенности посмотрите трейлер или тизеры их в инете куча валяется. А ещё советую не пожалеть 150-250 рублей и в кино сходить, что бы поддержать такие проекты, уж больно редко такое можно лицезреть в кинотеатрах.

Фига пара,там как раз таки пара не наших

13-04-2016 21:09 Хардкор Скачать торрент  

нисколько не пожалел, что на фильм пошел. акуенно

13-04-2016 22:45 Хардкор Скачать торрент  

aVpostol писал(а):

Народ, не смотрите что производство принимала Россия. Просто это написано из-за Бекмамбекова, ну и пара наших актёров. А так это эксклюзив от Гоблина в плане перевода.

прежде чем писать подобный бред, советую сначала ознакомиться с авторами данного фильма..

14-04-2016 10:15 Хардкор Скачать торрент  

Ходил на него в кино. Отличный фильм! Всем советую к просмотру!

14-04-2016 13:20 Хардкор Скачать торрент  

От фильма ожидал меньшего пойду в кино.Спасибо автору за CAMRip

14-04-2016 18:14 Хардкор Скачать торрент  

aVpostol писал(а):

Я пытаюсь вам донести, что если кинцо не окупится, то будете дальше в своих городах и сёлах смотреть второсортное гомно, а потом ходить и плеваться.

Сам то понял что написал?

Pекламный агент PB

Дорогой пользователь! Огромная просьба, поблагодарите релизера, оцените раздачу и оставьте свои комментарий, если Вы скачали Хардкор через торрент бесплатно! Внесите свою лепту в развитие PiratBit!

Комментировать посты могут только пользователи прошедшие не сложную регистрацию

Хардкор через торрент Скачать бесплатно Хардкор Хардкор скачать торрент Хардкор смотреть онлайн Cкачать фильм Хардкор бесплатно Хардкор скачать торрент в хорошем качестве Хардкор смотреть онлайн бесплатно в хорошем качестве

Вы можете начинать темыВы можете отвечать на сообщенияВы не можете редактировать свои сообщенияВы не можете удалять свои сообщенияВы не можете голосовать в опросахВы не можете прикреплять файлы к сообщениямВы можете скачивать файлы

piratbit.ru


Смотрите также