Несносный дед кино скачать


Несносный дед (2013) скачать торрент в хорошем качестве бесплатно

Подробнее Проф. (полное дублирование) 1,45 ГиБ 14 мар. 2014 г. Файл: nesnosnyj.ded.2013.rus.bdrip.xvid.ac3.-hqclub.torrent Формат: AVIКачество: BDRip (источник: HDClub / Blu-ray / 1080p)Видео: 704x400 (1.76:1), 23.976 fps, XviD build 65 ~1804 kbps avg, 0.27 bit/pixel Аудио #1: 48 kHz, AC3 Dolby Digital, 3/2 (L,C,R,l,r) + LFE ch, ~448 kbps avg (RUS) Аудио #2: 48 kHz, AC3 Dolby Digital, 3/2 (L,C,R,l,r) + LFE ch, ~448 kbps avg (ENG) (отдельно) Подробнее Проф. (полное дублирование) 10,63 ГиБ 7 мар. 2014 г. Файл: nesnosniy.ded.2013.d.bdrip.1080p..torrent Качество: BDRip 1080pВидео данные: MPEG-4 AVC, 14600 Кбит/с, 1920x1080Аудио данные: Русский (AC3, 6 ch, 448 Кбит/с), английский (DTS, 6 ch, 1510 Кбит/с) Подробнее Проф. (полное дублирование) 1,46 ГиБ 7 мар. 2014 г. Подробнее Проф. (полное дублирование) 5,11 ГиБ 7 мар. 2014 г. Файл: nesnosniy.ded.2013.d.bdrip.720p..torrent Качество: BDRip (720p)Видео: MPEG-4 AVC, 5843 Кбит/с, 1280x720Аудио: Русский (AC3, 6 ch, 448 Кбит/с), английский (DTS, 6 ch, 1510 Кбит/с) Подробнее Проф. (многоголосный) 6,36 ГиБ 24 янв. 2014 г. Файл: nesnosnyj.ded.2013.p.bdrip.720p.unrated..torrent Качество: BDRip 720pВидео:MPEG4 AVC, 7000 kb/s, 1280x720Аудио: Russian: AC3, 384 kb/s (6 ch) / English: DTS, 1509 kb/s (6 ch)Примечание: Расширенная версия длиннее на 10 минут. Полный перевод. Подробнее Проф. (многоголосный) 13,73 ГиБ 24 янв. 2014 г. Файл: nesnosnyj.ded.2013.p.bdrip.1080p.unrated..torrent Качество: BDRip 1080pВидео данные: AVC, 15,6 Mb/s, 1920x1080, 23.976 fps Аудио данные: Russian: AC3, 384 kb/s (6 ch), 48 Кгц / English: DTS, 1510 kb/s (6 ch), 48 Кгц Подробнее Проф. (многоголосный) 1,46 ГиБ 24 янв. 2014 г. Файл: nesnosnyj.ded.2013.p.hdrip.unrated.1400mb..torrent Качество: HDRipВидео: XviD, 1817 Кбит/с, 720x400Аудио: AC3, 6 ch, 384 Кбит/сПримечание: Расширенная версия длиннее на 10 минут. Полный перевод. Подробнее Проф. (многоголосный) 2,05 ГиБ 24 янв. 2014 г. Файл: nesnosnyj.ded.2013.p.hdrip.unrated.2100mb..torrent Качество: HDRipВидео: XviD, 2091 Кбит/с, 720x400Аудио: Русский, английский (AC3, 6 ch, 384 Кбит/с)Примечание: Расширенная версия длиннее на 10 минут. Полный перевод. Подробнее Любительский (одноголосный) 3,95 ГиБ 15 янв. 2014 г. Подробнее Любительский (одноголосный) 1,46 ГиБ 14 янв. 2014 г. Подробнее Любительский (одноголосный) 1,37 ГиБ 3 янв. 2014 г. Подробнее Любительский (одноголосный) 1,32 ГиБ 6 дек. 2013 г.

zona-film.com

Bad Grandpa скачать фильм торрент 2013 -

Коротко о фильме "Несносный дед" - 86-летний старикан по имени Ирвинг Зисман путешествует по Америке с необычным компаньоном - восьмилетним внуком Билли. По дороге заводной дедушка знакомит впечатлительного Билли с людьми, местами и ситуациями, которые вряд ли укладываются в рамки привычных представлений о воспитании. Парочка столкнется со стриптизерами, разъяренными участниками помпезного детского конкурса красоты и их не менее злыми мамашами, скорбящими посетителями панихиды, завсегдатаями бара для байкеров и другими ничего не подозревающими гражданами США.

Добавлено BDRip, HDRip, Baibako.

Несносный дед

Jackass Presents: Bad Grandpa
Фильм выпущен: 2013
Страна (кинокомпания): США
Режиссер: Джефф Треймейн
Сценарий фильма: Джонни Ноксвил, Джефф Треймейн, Факс Бар
Продюсер фильма: Дерек Фреда, Спайк Джонс, Джонни Ноксвил
Оператор: Лэнс Бэнгс, Дмитрий Еляшкевич
Композитор: -
Художники: Линдси Кейр
Монтаж:
Жанр фильма: комедия
Премьера (мир): 23 октября 2013
премьера (Pоссия): 23 января 2014, Централ Партнершип
продолжительность92 мин
В главных ролях:
Грэси Мерседес
Джордж Фонан
Мэдисон Дэвис
Джилл Килл
Камбер Хейлик
Джорджина Кэйтс
Грег Харрис
Джексон Николл
Джонни Ноксвил
и другие ...

Трейлер фильма:

 

Фильм Несносный дед / Jackass Presents: Bad Grandpa скачать торрент - новинка кино 2013

Скачать файлы .torrent Несносный дед (фильм)

на сайте Вы можете получить ссылку на торрент файлы или скачать сами торрент файлы, в которых находится информация о местонахождении фильмов, сериалов у пользователей.

В фильме "Несносный дед" - 86-летний старик Ирвинг Зисман везет своего восьмилетнего внука Билли из штата Небраска в Северную Каролину его настоящему отцу

Параметры: 30-04-2014 BDRip-AVC от HELLYWOOD | Расширенная версия | Лицензия, 2,91 Гб

Формат: BDRip-AVC, MKV, AC3, размер файла: 2,91 Гб Видео: 1024x576, H.264 - Аудио: Русский: AC3, 6 каналов, 384 Кбит/с / English: AC3, 6 каналов, 384 Кбит/с Перевод (озвучивание): Профессиональный (полное дублирование) [лицензия]

Параметры: 12-03-2014 BDRip от HQCLUB | Theatrical Cut | Лицензия, 1,45 Гб

Формат: BDRip (источник: HDClub / Blu-ray / 1080p), AVI, XviD, AC3, размер файла: 1,45 Гб Видео: 704x400, XviD - build 65 ~1804 Кбит/с Аудио: Русский: AC3, 6 каналов, 448 Кбит/с / English: AC3, 6 каналов, 448 Кбит/с Перевод (озвучивание): профессиональный (полное дублирование)

Параметры: 09-03-2014 BDRip 720p от Leonardo and Scarabey | Театральная версия | Лицензия, 4,14 Гб

Формат: BDRip 720p Исходник: Blu-ray, MKV, AVC, AC3, размер файла: 4,14 Гб Видео: 1280x720, AVC - AVC at 5999 Кбит/с Аудио: Русский: AC3, 6 каналов, 448 Кбит/с Перевод (озвучивание): Профессиональный (полное дублирование) Лицензия

Параметры: 08-02-2014 HDRip от Scarabey | Baibako | Расширенная версия, 744 Мб

Формат: HDRip, AVI, XviD, MPEG Layer 3, размер файла: 744 Мб Видео: 624x352, XviD - build 73 ~880 Кбит/с Аудио: MPEG Layer 3, 2 канала, 128 Кбит/с Перевод (озвучивание): Профессиональный (многоголосый, закадровый) |BaibaKo|

Параметры

Формат: HDRip, XviD, AC3, размер файла: 704 Мб Видео: 720x400, XviD - 1646 Кбит/с Аудио: AC3, 6 каналов, 384 Кбит/с Перевод (озвучивание): Профессиональный многоголосый

Параметры

Формат: WEBDLRip, XviD, MP3, размер файла: 698 Мб Видео: 640x352, XviD - 922 Кбит/с Аудио: MP3, 2 канала, 128 Кбит/с Перевод (озвучивание): Любительский одноголосый [Magnum]

Скачать Несносный дед, Jackass Presents: Bad Grandpa, фильм бесплатно скачать торрент, комедия, новинка кино

 

hokit.ru

Скачать фильм Несносный дед через торрент в хорошем качестве бесплатно HDRip

Размер: 1.46 GB | Добавлен: 3 года 5 мес. назад | Торрент скачан:740 раз
Реклама Дарим 3000 рублей за регистрацию, не упусти свой шанс получить шикарный бонус!!!

29-04-2014 14:59 Несносный дед Скачать торрент  

Несносный дед / Jackass Presents: Bad Grandpa ✦ Год выпуска: 2013✦ Страна:США✦ Жанр:комедия✦ Продолжительность:01:42:13✦ Перевод:Профессиональный [Дубляж - Лицензия] ✦ Субтитры: Нет✦ Режиссер: Джефф Треймейн / Jeff Tremaine
  • В ролях: Джонни Ноксвил (Irving Zisman), Джексон Николл (Billy), Грег Харрис (Chuck), Джорджина Кэйтс (Kimmie), Камбер Хейлик (Doctor), Джилл Килл (Pageant Reporter), Мэдисон Дэвис (Juggalo Girl), Джордж Фонан (Juggalo Guy), Грэси Мерседес (ведущая), Мэрилинн Эллейн (Receptionist), Джек Полик (Funeral Worker), Спайк Джонс (Gloria)
  • Мировая премьера:23 октября 2013
  • Описание:86-летний старикан по имени Ирвинг Зисман путешествует по Америке с необычным компаньоном - восьмилетним «внуком» Билли.По дороге заводной дедушка знакомит впечатлительного Билли с людьми, местами и ситуациями, которые вряд ли укладываются в рамки привычных представлений о воспитании. Парочка столкнется со стриптизерами, разъяренными участниками помпезного детского конкурса красоты и их не менее злыми мамашами, скорбящими посетителями панихиды, завсегдатаями бара для байкеров и другими ничего не подозревающими гражданами США. Примечание: Расширенная версия длиннее на 10 минут. Полный дублированный перевод!
      ✦ Качество: HDRip✦ Формат: AVI✦ Видео кодек: XviD✦ Аудио кодек:AC3✦ Видео: XviD, 720x400 (16:9), 1646 kbps, 23,976 fps, 0,238 bpp✦ Аудио: AC3 / 5.1 / 48 kHz / 384 kbps / 16 bit

    Код:

    [*]Хотя сцены со Спайком Джонсом и не вошли в финальную версию фильма, его имя указано в финальных титрах, а удаленные сцены с его участием можно увидеть на DVD и blu-ray.[*]Несмотря на юный возраст, Джексон Николл на протяжении всех съемок практически всегда оставался в образе.[*]Джонни Ноксвил заявил, что его персонаж Ирвинг Зисман представляет собой сочетание его собственного отца и более извращенной версии самого Джонни.[*]Это первый фильм «Чудаков», в написании сценария которого участвовали люди не из команды «Чудаков». Сценаристы Факс Бар и Адам Смолл ранее писали сценарий пародии на «Чудаков» для своего шоу MADtv.[*]Марка автомобиля старика Ирвинга - это Lincoln, но вот руль в нем от авто Ford, что можно явно заметить с определенных ракурсов камеры.[*]еще 2 факта[*]В закусочной, где у Ирвинга и Билли были пердежные соревнования, Билли сначала ест свой завтрак, а после смены кадра он уже ест курицу в пармезане.[*]Когда Билли сидит с Лизой, на ней пальто. Когда подходит Ирвинг, она уже без пальто.[*]В сцене испражнения на стену след по стене распространяется уже после того, как дедушка справил нужду. И женщины, сидящей за Билли, поначалу нет. Она появляется, когда дедушка и Билли встают, собираясь уходить.

    Код:

    GeneralComplete name                            : D:\Торенты\Nesnosnyj.ded.UNRATED.2013.D.HDRip.1400MB.aviFormat                                   : AVIFormat/Info                              : Audio Video InterleaveFile size                                : 1.46 GiBDuration                                 : 1h 42mnOverall bit rate                         : 2 040 KbpsWriting application                      : VirtualDubMod 1.5.10.2 (build 2540/release)Writing library                          : VirtualDubMod build 2540/release

    VideoID                                       : 0Format                                   : MPEG-4 VisualFormat profile                           : Advanced [email protected] settings, BVOP                    : 2Format settings, QPel                    : NoFormat settings, GMC                     : No warppointsFormat settings, Matrix                  : CustomCodec ID                                 : XVIDCodec ID/Hint                            : XviDDuration                                 : 1h 42mnBit rate                                 : 1 646 KbpsWidth                                    : 720 pixelsHeight                                   : 400 pixelsDisplay aspect ratio                     : 16:9Frame rate                               : 23.976 fpsColor space                              : YUVChroma subsampling                       : 4:2:0Bit depth                                : 8 bitsScan type                                : ProgressiveCompression mode                         : LossyBits/(Pixel*Frame)                       : 0.238Stream size                              : 1.18 GiB (81%)Writing library                          : XviD 1.2.1 (UTC 2008-12-04)

    AudioID                                       : 1Format                                   : AC-3Format/Info                              : Audio Coding 3Mode extension                           : CM (complete main)Codec ID                                 : 2000Duration                                 : 1h 42mnBit rate mode                            : ConstantBit rate                                 : 384 KbpsChannel(s)                               : 6 channelsChannel positions                        : Front: L C R, Side: L R, LFESampling rate                            : 48.0 KHzBit depth                                : 16 bitsCompression mode                         : LossyStream size                              : 281 MiB (19%)Alignment                                : Split accross interleavesInterleave, duration                     : 42 ms (1.00 video frame)Interleave, preload duration             : 500 ms

    Скриншоты: Каталог Новинок (Фильмы-трейлеры, Игры, Сериалы, Мультфильмы) © Оформление by Raven
  • Скачать Несносный дед через торрент http://pic.pb.wtf/images/6/ordi9.jpg Скачать фильм Несносный дед через торрент бесплантно в хорошем качестве Описание:86-летний старикан по имени Ирвинг Зисман путешествует по Америке с необычным компаньоном - восьмилетним «внуком» Билли.По дороге ... 2014-04-29 14:59 9.5 10 13

    Loading...

    Loading...

    % Раздел Тема Автор DL S | L
    Фильмы (DVD фильмы) [ 6.61 GB ] Несносный дед / Jackass Presents: Bad Grandpa [2013 DVD9] R5 voovaz Скачать
    Фильмы 2013 [DVDrip, WEB-DLRip, HDrip] [ 2.91 GB ] Несносный дед / Jackass Presents: Bad Grandpa [2013 BDRip-AVC] [Расширенная версия] DUB potroks Скачать
    Фильмы 2013 [DVDrip, WEB-DLRip, HDrip] [ 2.92 GB ] Несносный дед / Jackass Presents: Bad Grandpa [2013 BDRip-AVC] [Театральная версия] DUB potroks Скачать
    Фильмы 2013 [DVDrip, WEB-DLRip, HDrip] [ 1.45 GB ] Несносный дед / Jackass Presents: Bad Grandpa [2013 BDRip [ - ] Театральная версия / Theatrical Cut Ворон Скачать
    Фильмы [HD 720p, 1080p] (Хороший звук DUB, MVO) [ 7.76 GB ] Чудаки: Несносный дед / Jackass Presents: Bad Grandpa [2013 BDRip 1080p ]Театральная версия / Theatrical Cut Ворон Скачать
    Фильмы 2013 [DVDrip, WEB-DLRip, HDrip] [ 1.46 GB ] Чудаки: Несносный дед / Jackass Presents: Bad Grandpa [2013 HDRip ]Театральная версия Tipok_dv Скачать
    Фильмы 2013 [DVDrip, WEB-DLRip, HDrip] [ 1.46 GB ] Чудаки: Несносный дед / Jackass Presents: Bad Grandpa [2013 HDRip многоголосый] Neftannik Скачать

    Последний раз редактировалось: Ворон (2014-04-29 15:46), всего редактировалось 1 раз

    Рекламный пират

    29-04-2014 15:09 Несносный дед Скачать торрент  

    ну я смотрел его....господи...ещё гляну

    Дорогой пользователь! Огромная просьба, поблагодарите релизера, оцените раздачу и оставьте свои комментарий, если Вы скачали Несносный дед через торрент бесплатно! Внесите свою лепту в развитие PiratBit!

    Комментировать посты могут только пользователи прошедшие не сложную регистрацию

    Несносный дед через торрент Скачать бесплатно Несносный дед Несносный дед скачать торрент Несносный дед смотреть онлайн Cкачать фильм Несносный дед бесплатно Несносный дед скачать торрент в хорошем качестве Несносный дед смотреть онлайн бесплатно в хорошем качестве

    Вы не можете начинать темыВы не можете отвечать на сообщенияВы не можете редактировать свои сообщенияВы не можете удалять свои сообщенияВы не можете голосовать в опросахВы не можете прикреплять файлы к сообщениямВы можете скачивать файлы

    piratbit.ru

    Несносный дед / Jackass Presents: Bad Grandpa (фильм, 2013) скачать торрент - Фильм Несносный дед

    Коротко о фильме "Несносный дед" - 86-летний старикан по имени Ирвинг Зисман путешествует по Америке с необычным компаньоном - восьмилетним внуком Билли. По дороге заводной дедушка знакомит впечатлительного Билли с людьми, местами и ситуациями, которые вряд ли укладываются в рамки привычных представлений о воспитании. Парочка столкнется со стриптизерами, разъяренными участниками помпезного детского конкурса красоты и их не менее злыми мамашами, скорбящими посетителями панихиды, завсегдатаями бара для байкеров и другими ничего не подозревающими гражданами США.

    Добавлено BDRip, HDRip, Baibako.

    Несносный дед

    Jackass Presents: Bad Grandpa
    Фильм выпущен: 2013
    Страна (кинокомпания): США
    Pежиссер: Джефф Треймейн
    Сценарий фильма: Джонни Ноксвил, Джефф Треймейн, Факс Бар
    Продюсер фильма: Дерек Фреда, Спайк Джонс, Джонни Ноксвил
    Оператор: Лэнс Бэнгс, Дмитрий Еляшкевич
    Композитор: -
    Художники: Линдси Кейр
    Монтаж:
    Жанр фильма: комедия
    Премьера (мир): 23 октября 2013
    премьера (Pоссия): 23 января 2014, Централ Партнершип
    продолжительность92 мин
    В главных ролях:
    Грэси Мерседес
    Джордж Фонан
    Мэдисон Дэвис
    Джилл Килл
    Камбер Хейлик
    Джорджина Кэйтс
    Грег Харрис
    Джексон Николл
    Джонни Ноксвил
    и другие ...

    Трейлер фильма:

     

    Скачать фильм Несносный дед / Jackass Presents: Bad Grandpa - новинка кино 2013

    В фильме "Несносный дед" - 86-летний старик Ирвинг Зисман везет своего восьмилетнего внука Билли из штата Небраска в Северную Каролину его настоящему отцу

    Скачать файлы .torrent Jackass Presents: Bad Grandpa (фильм)

    на сайте Вы можете получить ссылку на торрент файлы или скачать сами торрент файлы, в которых находится информация о местонахождении фильмов, сериалов у пользователей.

    Ссылки убраны по требованию правообладателя.

     

    hotkit.ru

    Скачать фильм Несносный дед через торрент в хорошем качестве бесплатно BDRip-AVC

    ОбщееУникальный идентификатор : 203929220600135613792028079297781580136 (0x996B56D904A9AFDFA55FAEED93504168)Полное имя : Nesnosnyi.Ded.2013.Unrated.DUAL.BDRip.x264.-HELLYWOOD.mkvФормат : MatroskaВерсия формата : Version 4 / Version 2Размер файла : 2,91 ГбайтПродолжительность : 1 ч. 42 м.Общий поток : 4078 Кбит/секНазвание фильма : HELLYWOOD - rip by potroksДата кодирования : UTC 2014-04-30 12:57:21Программа кодирования : mkvmerge v5.9.0 ('On The Loose') built on Dec 15 2012 16:39:58Библиотека кодирования : libebml v1.3.0 + libmatroska v1.4.0

    ВидеоИдентификатор : 1Формат : AVCФормат/Информация : Advanced Video CodecПрофиль формата : [email protected]Параметр CABAC формата : ДаПараметр ReFrames формата : 12 кадровИдентификатор кодека : V_MPEG4/ISO/AVCПродолжительность : 1 ч. 42 м.Битрейт : 3307 Кбит/секШирина : 1024 пикселяВысота : 576 пикселейСоотношение сторон : 16:9Режим частоты кадров : ПостоянныйЧастота кадров : 23,976 кадра/секЦветовое пространство : YUVСубдискретизация насыщенности : 4:2:0Битовая глубина : 8 битТип развёртки : ПрогрессивнаяБит/(Пиксели*Кадры) : 0.234Размер потока : 2,31 Гбайт (79%)Заголовок : Jackass Presents: Bad GrandpaБиблиотека кодирования : x264 core 130 r2273 b3065e6Настройки программы : cabac=1 / ref=12 / deblock=1:-2:-2 / analyse=0x3:0x133 / me=umh / subme=11 / psy=1 / psy_rd=0.98:0.01 / mixed_ref=1 / me_range=32 / chroma_me=1 / trellis=2 / 8x8dct=1 / cqm=0 / deadzone=21,11 / fast_pskip=0 / chroma_qp_offset=-3 / threads=9 / lookahead_threads=6 / sliced_threads=0 / nr=0 / decimate=0 / interlaced=0 / bluray_compat=0 / constrained_intra=0 / bframes=13 / b_pyramid=2 / b_adapt=2 / b_bias=0 / direct=3 / weightb=1 / open_gop=0 / weightp=2 / keyint=250 / keyint_min=23 / scenecut=40 / intra_refresh=0 / rc_lookahead=60 / rc=2pass / mbtree=0 / bitrate=3307 / ratetol=1.0 / qcomp=0.70 / qpmin=0 / qpmax=69 / qpstep=4 / cplxblur=20.0 / qblur=0.5 / vbv_maxrate=20000 / vbv_bufsize=25000 / nal_hrd=none / ip_ratio=1.30 / pb_ratio=1.25 / aq=1:0.90Язык : EnglishDefault : ДаForced : Нет

    Аудио #1Идентификатор : 2Формат : AC-3Формат/Информация : Audio Coding 3Расширение режима : CM (complete main)Параметр Endianness формата : BigИдентификатор кодека : A_AC3Продолжительность : 1 ч. 42 м.Вид битрейта : ПостоянныйБитрейт : 384 Кбит/секКаналы : 6 каналовРасположение каналов : Front: L C R, Side: L R, LFEЧастота : 48,0 КГцБитовая глубина : 16 битМетод сжатия : С потерямиРазмер потока : 281 Мбайт (9%)Заголовок : Dub | DD 5.1 @ 384 kbps - R5Язык : RussianDefault : ДаForced : Да

    Аудио #2Идентификатор : 3Формат : AC-3Формат/Информация : Audio Coding 3Расширение режима : CM (complete main)Параметр Endianness формата : BigИдентификатор кодека : A_AC3Продолжительность : 1 ч. 42 м.Вид битрейта : ПостоянныйБитрейт : 384 Кбит/секКаналы : 6 каналовРасположение каналов : Front: L C R, Side: L R, LFEЧастота : 48,0 КГцБитовая глубина : 16 битМетод сжатия : С потерямиРазмер потока : 281 Мбайт (9%)Заголовок : Original | DD 5.1 @ 384 kbpsЯзык : EnglishDefault : НетForced : Нет

    Текст #1Идентификатор : 4Формат : UTF-8Идентификатор кодека : S_TEXT/UTF8Идентификатор кодека/Информация : UTF-8 Plain TextЗаголовок : FullЯзык : RussianDefault : НетForced : Нет

    Текст #2Идентификатор : 5Формат : UTF-8Идентификатор кодека : S_TEXT/UTF8Идентификатор кодека/Информация : UTF-8 Plain TextЗаголовок : FullЯзык : EnglishDefault : НетForced : Нет

    Текст #3Идентификатор : 6Формат : UTF-8Идентификатор кодека : S_TEXT/UTF8Идентификатор кодека/Информация : UTF-8 Plain TextЗаголовок : SDHЯзык : EnglishDefault : НетForced : Нет

    Текст #4Идентификатор : 7Формат : UTF-8Идентификатор кодека : S_TEXT/UTF8Идентификатор кодека/Информация : UTF-8 Plain TextЗаголовок : SDH ColoredЯзык : EnglishDefault : НетForced : Нет

    Меню00:00:00.000 : en:00:00:00.00000:07:18.772 : en:00:07:18.77200:18:03.082 : en:00:18:03.08200:25:39.413 : en:00:25:39.41300:32:17.352 : en:00:32:17.35200:42:02.562 : en:00:42:02.56200:48:59.395 : en:00:48:59.39500:57:16.308 : en:00:57:16.30801:04:32.911 : en:01:04:32.91101:11:59.774 : en:01:11:59.77401:18:44.303 : en:01:18:44.30301:26:40.862 : en:01:26:40.86201:33:32.231 : en:01:33:32.231

    piratbit.ru


    Смотрите также