Torrent тайна в их глазах


Скачать фильм Тайна в их глазах (2015) через торрент

15 февраля 2017 01:22 Тайна в их глазах (2015) ДБ / HEVC / UHD 4K (2160p).mkv.torrent   [Информация о файле (нажмите для просмотра)] Качество: UHD 4K (2160p)Видео: HEVC, 13.5 Mбит/с, 3840x1600, 23.976 кадр/сАудио: Русский, английский (AC3, 6 ch, 640 Кбит/с)Размер: 11.5 ГБПродолжительность: 01:51:23Перевод: ДублированныйСубтитры: Английские

Качество: UHDRip(4K) 2160pФормат: mkvВидео кодек: h.265Аудио кодек: AC3Аудио1: Rus, AC3 5.1, 48000Hz, 6ch, 640 kbpsАудио2: Eng, AC3 5.1, 48000Hz, 6ch, 640 kbps

11,5 Gb 4 12 17 августа 2016 12:39 Тайна в их глазах / Secret in Their Eyes (2015) BDRip 720p от Scarabey | iTunes .torrent   [Информация о файле (нажмите для просмотра)] Перевод: Профессиональный (полное дублирование) [iTunes]Субтитры: англ. (обычные + sdh) + франц. + исп.Видео: 1280х534, 23.976 fps, AVC, ~4734 kbps avgАудио: 48 kHz, AC3 Dolby Digital, 3/2 (L,C,R,l,r) + LFE ch, ~384.00 kbps avg - дубляжАудио: 48 kHz, DTS, 3/2 (L,C,R,l,r) + LFE ch, ~1536 kbps avg - оригиналАудио: 48 kHz, AC3 Dolby Digital, 2/0 (L,R) ch, ~384 kbps - комментарии 5,57 Gb 40 10 17 августа 2016 12:39 Тайна в их глазах / Secret in Their Eyes (2015) HDRip от Scarabey | iTunes .torrent   [Информация о файле (нажмите для просмотра)] Перевод: Профессиональный (полное дублирование) [iTunes]Субтитры: нетВидео: 720x304 (2.37:1), 23.976 fps, XviD build 73 ~1462 kbps avg, 0.28 bit/pixelАудио: 48 kHz, AC3 Dolby Digital, 3/2 (L,C,R,l,r) + LFE ch, ~384.00 kbps avg 1,45 Gb 56 5 17 августа 2016 12:39 Тайна в их глазах / Secret in Their Eyes (2015) HDRip от Scarabey | iTunes .torrent   [Информация о файле (нажмите для просмотра)] Перевод: Профессиональный (полное дублирование) [iTunes]Субтитры: нетВидео: 688x288 (2.39:1), 23.976 fps, XviD build 73 ~797 kbps avg, 0.17 bit/pixelАудио: 48 kHz, MPEG Layer 3, 2 ch, ~128.00 kbps avg 746,88 Mb 14 6 17 августа 2016 12:39 Тайна в их глазах / Secret in Their Eyes (2015) BDRemux 1080p | iTunes .torrent   [Информация о файле (нажмите для просмотра)] Перевод: ДубляжКодек: BDAVКачество: BDRemux 1080pВидео: 1920x1080 at 23.976 fps, MPEG-4 AVC, ~32107 kbpsАудио#1: RussianСубтитры: English (SDH) 28,97 Gb 9 6 17 августа 2016 12:39 Тайна в их глазах / Secret in Their Eyes (2015) BDRip-AVC от HELLYWOOD | iTunes .torrent   [Информация о файле (нажмите для просмотра)] Перевод: Дубляж [iTunes]Субтитры: английские (Full), английские (SDH)Качество: BDRip-AVCФормат: MKVВидео: 1056x440 (2.40:1), 1899 kbps, 23,976 fps, 0.170 bit/pixelАудио#1: AC3 / 5.1 / 48 kHz / 384 kbps / 16 bit |RUSАудио#2: AC3 / 5.1 / 48 kHz / 448 kbps / 16 bit |ENG 2,13 Gb 13 5 17 августа 2016 12:39 Тайна в их глазах / Secret in Their Eyes (2015) BDRip-AVC от HELLYWOOD | iTunes .torrent   [Информация о файле (нажмите для просмотра)] Перевод: Дубляж [iTunes]Субтитры: английские (Full), английские (SDH)Качество: BDRip-AVCФормат: MKVВидео: AVC, 984x410 (2.40:1), 1424 kbps, 23,976 fps, 0,147 bppАудио: AC3 / 5.1 / 48 kHz / 384 kbps / 16 bit 1,41 Gb 51 4 17 августа 2016 12:39 Тайна в их глазах / Secret in Their Eyes (2015) BDRip 1080p | iTunes .torrent   [Информация о файле (нажмите для просмотра)] Перевод: Дубляж [iTunes]Субтитры: английские (Full)Качество: BDRip 1080pФормат: MKVВидео: AVC, 1920x800 (2.40:1), 8844 kbps, 23,976 fps, 0,240 bppАудио №1: русский / AC3 / 5.1 / 48 kHz / 384 kbps / 16 bitАудио №2: английский / DTS / 5.1 / 48 kHz / 1510 kbps / 24 bit 8,37 Gb 40 7 17 августа 2016 12:39 Тайна в их глазах / Secret in Their Eyes (2015) BDRip 720p | iTunes .torrent   [Информация о файле (нажмите для просмотра)] Перевод: Профессиональный (дублированный) | iTunesКачество: BDRip 720p | MurtiniКонтейнер: MKVВидео: MPEG-4 AVC, 1280x534 (2.40:1), 23.976 fps, ~5728 kbps avg, 0.334 bit/pixelАудио 1: 48 kHz, AC3 Dolby Digital, 3/2 (L,C,R,l,r) + LFE ch, ~384 kbpsАудио 2: 48 kHz, DTS, 3/2 (L,C,R,l,r) + LFE ch, ~1509 kbps avgСубтитры: srtВидео: Идентификатор : 1 Формат : AVC Формат/Информация : Advanced Video Codec Профиль формата : [email protected] Параметр CABAC формата : Да Параметр ReFrames формата : 12 кадров Идентификатор кодека : V_MPEG4/ISO/AVC Продолжительность : 1 ч. 51 м. Битрейт : 5728 Кбит/сек Ширина : 1280 пикселей Высота : 534 пикселя Соотношение сторон : 2,40:1 Режим частоты кадров : Постоянный Частота кадров : 23,976 (24000/1001) кадра/сек Цветовое пространство : YUV Субдискретизация насыщенности : 4:2:0 Битовая глубина : 8 бит Тип развёртки : Прогрессивная Бит/(Пиксели*Кадры) : 0.350 Размер потока : 4,47 Гбайт (75%) Заголовок : Secret.in.Their.Eyes.2015.BluRay.720p.DD5.1x264-Murtini Библиотека кодирования : x264 core 148 r2638 7599210 Настройки программы : cabac=1 / ref=12 / deblock=1:-2:-1 / analyse=0x3:0x133 / me=umh / subme=11 / psy=1 / psy_rd=1.05:0.10 / mixed_ref=1 / me_range=32 / chroma_me=1 / trellis=2 / 8x8dct=1 / cqm=0 / deadzone=21,11 / fast_pskip=0 / chroma_qp_offset=-4 / threads=6 / lookahead_threads=1 / sliced_threads=0 / nr=0 / decimate=1 / interlaced=0 / bluray_compat=0 / constrained_intra=0 / bframes=9 / b_pyramid=2 / b_adapt=2 / b_bias=0 / direct=1 / weightb=1 / open_gop=0 / weightp=2 / keyint=230 / keyint_min=21 / scenecut=40 / intra_refresh=0 / rc_lookahead=60 / rc=crf / mbtree=0 / crf=17.0 / qcomp=0.70 / qpmin=0 / qpmax=69 / qpstep=4 / vbv_maxrate=30000 / vbv_bufsize=40000 / crf_max=0.0 / nal_hrd=none / filler=0 / ip_ratio=1.35 / pb_ratio=1.25 / aq=2:0.90 Язык : English Default : Да Forced : НетАудио #1: Идентификатор : 2 Формат : AC-3 Формат/Информация : Audio Coding 3 Расширение режима : CM (complete main) Параметр Endianness формата : Big Идентификатор кодека : A_AC3 Продолжительность : 1 ч. 51 м. Вид битрейта : Постоянный Битрейт : 384 Кбит/сек Каналы : 6 каналов Расположение каналов : Front: L C R, Side: L R, LFE Частота : 48,0 КГц Частота кадров : 31,250 кадров/сек (1536 spf) Метод сжатия : С потерями Размер потока : 306 Мбайт (5%) Заголовок : [email protected] Язык : Russian Default : Да Forced : НетАудио #2: Идентификатор : 3 Формат : DTS Формат/Информация : Digital Theater Systems Режим : 16 Параметр Endianness формата : Big Идентификатор кодека : A_DTS Продолжительность : 1 ч. 51 м. Вид битрейта : Постоянный Битрейт : 1509 Кбит/сек Каналы : 6 каналов Расположение каналов : Front: L C R, Side: L R, LFE Частота : 48,0 КГц Частота кадров : 93,750 кадра/сек (512 spf) Битовая глубина : 24 бит Метод сжатия : С потерями Размер потока : 1,18 Гбайт (20%) Заголовок : [email protected] Язык : English Default : Нет Forced : Нет 5,95 Gb 32 3 17 августа 2016 12:39 Тайна в их глазах / Secret in Their Eyes (2015) HDRip | iTunes .torrent   [Информация о файле (нажмите для просмотра)] Формат: AVI (XviD)Качество: HDRip [Рип с BDRip 720p]Видео: 1848 kb/s, 720x304Аудио: Russian / English: AC3, 384 kb/s (6 ch) 2,05 Gb 104 3 17 августа 2016 12:39 Тайна в их глазах / Secret in Their Eyes (2015) HDRip | iTunes .torrent   [Информация о файле (нажмите для просмотра)] Формат: AVI (XviD)Качество: HDRip [Рип с BDRip 720p]Видео: 1359 kb/s, 720x304Аудио: AC3, 384 kb/s (6 ch) 1,37 Gb 398 8 17 августа 2016 12:39 Тайна в их глазах / Secret in Their Eyes (2015) BDRip 720p от Scarabey | Line .torrent   [Информация о файле (нажмите для просмотра)] Перевод: Профессиональный (полное дублирование) [Чистый звук]Субтитры: англ. (обычные + sdh) + франц. + исп.Видео: 1280х534, 23.976 fps, AVC, ~4734 kbps avgАудио: 48 kHz, AC3 Dolby Digital, 2/0 (L,R) ch, ~384 kbps - дубляжАудио: 48 kHz, DTS, 3/2 (L,C,R,l,r) + LFE ch, ~1536 kbps avg - оригиналАудио: 48 kHz, AC3 Dolby Digital, 2/0 (L,R) ch, ~384 kbps - комментарии 5,57 Gb 8 3 17 августа 2016 12:39 Тайна в их глазах / Secret in Their Eyes (2015) HDRip | Line .torrent   [Информация о файле (нажмите для просмотра)] Формат: AVI (XviD)Качество: HDRip [Рип с BDRip 720p]Видео: 1359 kb/s, 720x304Аудио: AC3, 384 kb/s (2 ch) 1,37 Gb 219 5

gig-torrent.net

Скачать торрент Тайна в их глазах / Secret in Their Eyes (2015) BDRip 720p от Scarabey

Год выпуска: 2015Страна: СШАЖанр: триллер, детективПродолжительность: 01:51:39Перевод: Профессиональный (полное дублирование) [iTunes]Субтитры: англ. (обычные + sdh) + франц. + исп.

Режиссер: Билли Рэй / Billy Ray

В ролях: Чиветель Эджиофор, Николь Кидман, Джулия Робертс, Дин Норрис, Альфред Молина, Джо Коул, Майкл Келли, Зои Грэм, Патрик Дэвис, Эйлин Фогарти

Описание: Привычное течение жизни дружной команды федералов нарушает страшная трагедия: жестоко убита дочь следователя Джесс… Доказательств недостаточно, и подозреваемого приходится отпустить. Но Рэй, напарник Джесс, безнадежно влюбленный в их начальницу, не оставляет попыток докопаться до истины. И вот спустя десятилетие появляется шанс раскрыть тайну гибели девушки. У правосудия, мести и любви нет сроков давности.

Качество видео: BDRip 720p (VietHD)Формат видео: MKV

Видео: 1280х534, 23.976 fps, AVC, ~4734 kbps avgАудио: 48 kHz, AC3 Dolby Digital, 3/2 (L,C,R,l,r) + LFE ch, ~384.00 kbps avg - дубляжАудио: 48 kHz, DTS, 3/2 (L,C,R,l,r) + LFE ch, ~1536 kbps avg - оригиналАудио: 48 kHz, AC3 Dolby Digital, 2/0 (L,R) ch, ~384 kbps - комментарии

Релиз от:

АНОНСЫ МОИХ РАЗДАЧ!

МедиаИнфо

Secret.in.their.Eyes.2015_BDRip__[scarabey.org].mkv Format : Matroska File size : 5.57 GiB Duration : 1h 51mn Overall bit rate : 7 145 Kbps Encoded date : UTC 2016-02-11 20:38:21 Writing application : mkvmerge v6.1.0 ('Old Devil') built on Mar 4 2013 09:10:42 Writing library : libebml v1.3.0 + libmatroska v1.4.0

Video Format : AVC Format/Info : Advanced Video Codec Format profile : [email protected] Format settings, CABAC : Yes Format settings, ReFrames : 12 frames Muxing mode : Container [email protected] Codec ID : V_MPEG4/ISO/AVC Duration : 1h 51mn Bit rate : 4 734 Kbps Width : 1 280 pixels Height : 534 pixels Display aspect ratio : 2.35 Frame rate : 23.976 fps Resolution : 24 bits Colorimetry : 4:2:0 Scan type : Progressive Writing library : x264 core 148 r2665kMod a01e339 Encoding settings : cabac=1 / ref=12 / deblock=1:-3:-3 / analyse=0x3:0x133 / me=umh / subme=10 / psy=1 / fade_compensate=0.00 / psy_rd=1.10:0.00 / mixed_ref=1 / me_range=24 / chroma_me=1 / trellis=2 / 8x8dct=1 / cqm=0 / deadzone=21,11 / fast_pskip=0 / chroma_qp_offset=-2 / threads=12 / lookahead_threads=3 / sliced_threads=0 / nr=0 / decimate=0 / interlaced=0 / bluray_compat=0 / constrained_intra=0 / fgo=0 / bframes=11 / b_pyramid=2 / b_adapt=2 / b_bias=0 / direct=3 / weightb=1 / open_gop=0 / weightp=2 / keyint=250 / keyint_min=23 / scenecut=40 / intra_refresh=0 / rc_lookahead=60 / rc=crf / mbtree=0 / crf=16.8000 / qcomp=0.65 / qpmin=0 / qpmax=69 / qpstep=4 / vbv_maxrate=62500 / vbv_bufsize=78125 / crf_max=0.0 / nal_hrd=none / filler=0 / ip_ratio=1.30 / pb_ratio=1.20 / aq=3:0.75

Audio #1 Format : AC-3 Format/Info : Audio Coding 3 Codec ID : A_AC3 Duration : 1h 51mn Bit rate mode : Constant Bit rate : 384 Kbps Channel(s) : 2 channels Channel positions : L R Sampling rate : 48.0 KHz Title : Дубляж - Line Language : Russian

Audio #2 Format : DTS Format/Info : Digital Theater Systems Codec ID : A_DTS Duration : 1h 51mn Bit rate mode : Constant Bit rate : 1 536 Kbps Channel(s) : 6 channels Channel positions : Front: L C R, Surround: L R, LFE Sampling rate : 48.0 KHz Resolution : 24 bits Title : Оригинал

Audio #3 Format : AC-3 Format/Info : Audio Coding 3 Format profile : Dolby Digital Codec ID : A_AC3 Duration : 1h 51mn Bit rate mode : Constant Bit rate : 192 Kbps Channel(s) : 2 channels Channel positions : L R Sampling rate : 48.0 KHz Title : Audio Commentary by Director Billy Ray and Producer Mark Johnson.

Text #1 Format : UTF-8 Codec ID : S_TEXT/UTF8 Codec ID/Info : UTF-8 Plain Text Title : Оригинал

Text #2 Format : UTF-8 Codec ID : S_TEXT/UTF8 Codec ID/Info : UTF-8 Plain Text Title : Оригинал SDH

Text #3 Format : UTF-8 Codec ID : S_TEXT/UTF8 Codec ID/Info : UTF-8 Plain Text Title : Французский Language : French

Text #4 Format : UTF-8 Codec ID : S_TEXT/UTF8 Codec ID/Info : UTF-8 Plain Text Title : Испанский Language : Spanish

Chapters Language : English 1 : 00:00:00.000 00:00:00.000 2 : 00:05:12.521 00:05:12.521 3 : 00:10:52.235 00:10:52.235 4 : 00:18:20.766 00:18:20.766 5 : 00:22:41.402 00:22:41.402 6 : 00:26:47.731 00:26:47.731 7 : 00:34:30.860 00:34:30.860 8 : 00:42:39.640 00:42:39.640 9 : 00:46:31.789 00:46:31.789 10 : 00:51:59.491 00:51:59.491 11 : 00:56:16.498 00:56:16.498 12 : 01:00:17.948 01:00:17.948 13 : 01:05:47.902 01:05:47.902 14 : 01:12:34.934 01:12:34.934 15 : 01:17:29.645 01:17:29.645 16 : 01:21:32.846 01:21:32.846 17 : 01:25:23.118 01:25:23.118 18 : 01:31:16.137 01:31:16.137 19 : 01:37:19.500 01:37:19.500 20 : 01:45:38.123 01:45:38.123

krutor.org

Скачать торрент Тайна в их глазах / Secret in Their Eyes (2015) WEBRip 1080p

Год выпуска: 2015Производство: СШАЖанр: триллер, детективПеревод: дублированный

Режиссер: Билли РэйПродюсеры: Мэтт Джексон, Марк Джонсон, Мэтт БеренсонАктеры: Луис Салазар, Джулия Робертс, Николь Кидман, Дин Норрис, Чиветель Эджиофор, Линдон Смит, Майкл Келли, Джо Коул, Зои Грэм, Марк Фамиглетти

Описание фильма: Отставной юридический советник пишет роман, надеясь разгадать тайну одного из своих последних неразрешенных дел об убийстве и разобраться в своей безответной любви к начальнику.

Дата мировой премьеры: 23 октября 2015Дата российской премьеры: 23 октября 2015

Продолжительность: 00:02:35Качество видео: WEBRip 1080p

Видеокодек: MPEG-4 AVC/H.264Битрейт видео: 4124 Кбит/секРазмер кадра: 1920x796Аудиокодек: AACБитрейт аудио: 128 Кбит/сек

MediaInfo:

Общее Полное имя : Secret-in-Their-Eyes.mp4 Формат : MPEG-4 Профиль формата : Base Media Идентификатор кодека : isom Размер файла : 78,8 Мбайт Продолжительность : 2 м. 35 с. Режим общего битрейта : Переменный Общий поток : 4256 Кбит/сек Дата кодирования : UTC 2015-07-16 10:54:03 Дата пометки : UTC 2015-07-16 10:54:03 Программа кодирования : Lavf51.12.1

Видео Идентификатор : 1 Формат : AVC Формат/Информация : Advanced Video Codec Профиль формата : [email protected] Параметр CABAC формата : Нет Параметр ReFrames формата : 1 кадр Параметр GOP формата : M=1, N=12 Идентификатор кодека : avc1 Идентификатор кодека/Информация : Advanced Video Coding Продолжительность : 2 м. 35 с. Битрейт : 4124 Кбит/сек Ширина : 1920 пикселей Высота : 796 пикселей Соотношение сторон : 2,40:1 Режим частоты кадров : Постоянный Частота кадров : 23,976 кадра/сек Цветовое пространство : YUV Субдискретизация насыщенности : 4:2:0 Битовая глубина : 8 бит Тип развёртки : Прогрессивная Бит/(Пиксели*Кадры) : 0.113 Размер потока : 76,3 Мбайт (97%) Дата кодирования : UTC 2015-07-16 10:54:03 Дата пометки : UTC 2015-07-16 10:54:03

Аудио Идентификатор : 2 Формат : AAC Формат/Информация : Advanced Audio Codec Профиль формата : LC Идентификатор кодека : 40 Продолжительность : 2 м. 35 с. Вид битрейта : Переменный Битрейт : 128 Кбит/сек Каналы : 2 канала Расположение каналов : Front: L R Частота : 48,0 КГц Метод сжатия : С потерями Размер потока : 2,37 Мбайт (3%) Дата кодирования : UTC 2015-07-16 10:54:03 Дата пометки : UTC 2015-07-16 10:54:03

Скриншоты

krutor.org

Скачать торрент Тайна в их глазах / Secret in Their Eyes (2015) BDRip 720p

Информация о фильмеНазвание: Тайна в их глазах Оригинальное название: Secret in Their EyesГод выхода: 2015Жанр: триллер, детективРежиссер: Билли РэйВ ролях: Чиветель Эджиофор, Николь Кидман, Джулия Робертс, Дин Норрис, Альфред Молина, Джо Коул, Майкл Келли, Зои Грэм, Патрик Дэвис, Эйлин Фогарти

О фильме: Привычное течение жизни дружной команды федералов нарушает страшная трагедия: жестоко убита дочь следователя Джесс… Доказательств недостаточно, и подозреваемого приходится отпустить. Но Рэй, напарник Джесс, безнадежно влюбленный в их начальницу, не оставляет попыток докопаться до истины. И вот спустя десятилетие появляется шанс раскрыть тайну гибели девушки. У правосудия, мести и любви нет сроков давности.

Выпущено: США / Gran Via, IM Global, Ingenious Media, Route One Films, SITE Productions, Union Investment Partners, Willie's MoviesПродолжительность: 01:51:40Озвучивание: Дублированное [Line]

ФайлФормат: MKVКачество: BDRip 720pВидео: MPEG-4 AVC, 5496 kb/s, 1280x536Аудио: Russian: AC3, 384 kb/s (2 ch) / English: DTS, 1510 kb/s (6 ch)

MI

Format : Matroska Format version : Version 2 File size : 5.76 GiB Duration : 1h 51mn Overall bit rate : 7 391 Kbps Encoded date : UTC 2016-02-10 08:50:38 Writing application : mkvmerge v7.8.0 ('River Man') 32bit built on Apr 3 2015 12:11:22 Writing library : libebml v1.3.1 + libmatroska v1.4.2

Video ID : 1 Format : AVC Format/Info : Advanced Video Codec Format profile : [email protected] Format settings, CABAC : Yes Format settings, ReFrames : 5 frames Codec ID : V_MPEG4/ISO/AVC Duration : 1h 51mn Bit rate : 5 496 Kbps Width : 1 280 pixels Height : 536 pixels Display aspect ratio : 2.40:1 Frame rate mode : Constant Frame rate : 23.976 fps Color space : YUV Chroma subsampling : 4:2:0 Bit depth : 8 bits Scan type : Progressive Bits/(Pixel*Frame) : 0.334 Stream size : 4.17 GiB (72%) Writing library : x264 core 148 r2665 a01e339 Encoding settings : cabac=1 / ref=5 / deblock=1:0:0 / analyse=0x3:0x133 / me=umh / subme=7 / psy=1 / psy_rd=1.00:0.00 / mixed_ref=1 / me_range=16 / chroma_me=1 / trellis=1 / 8x8dct=1 / cqm=0 / deadzone=21,11 / fast_pskip=0 / chroma_qp_offset=-2 / threads=12 / lookahead_threads=2 / sliced_threads=0 / nr=0 / decimate=1 / interlaced=0 / bluray_compat=0 / constrained_intra=0 / bframes=3 / b_pyramid=2 / b_adapt=1 / b_bias=0 / direct=1 / weightb=1 / open_gop=0 / weightp=2 / keyint=250 / keyint_min=23 / scenecut=40 / intra_refresh=0 / rc_lookahead=40 / rc=2pass / mbtree=1 / bitrate=5496 / ratetol=1.0 / qcomp=0.60 / qpmin=0 / qpmax=69 / qpstep=4 / cplxblur=20.0 / qblur=0.5 / ip_ratio=1.40 / aq=1:1.00 Language : English Default : Yes Forced : No

Audio #1 ID : 2 Format : AC-3 Format/Info : Audio Coding 3 Mode extension : CM (complete main) Format settings, Endianness : Big Codec ID : A_AC3 Duration : 1h 51mn Bit rate mode : Constant Bit rate : 384 Kbps Channel(s) : 2 channels Channel positions : Front: L R Sampling rate : 48.0 KHz Bit depth : 16 bits Compression mode : Lossy Stream size : 307 MiB (5%) Language : Russian Default : Yes Forced : No

Audio #2 ID : 3 Format : DTS Format/Info : Digital Theater Systems Mode : 16 Format settings, Endianness : Big Codec ID : A_DTS Duration : 1h 51mn Bit rate mode : Constant Bit rate : 1 509 Kbps Channel(s) : 6 channels Channel positions : Front: L C R, Side: L R, LFE Sampling rate : 48.0 KHz Bit depth : 24 bits Compression mode : Lossy Stream size : 1.18 GiB (20%) Language : English Default : No Forced : No

Menu 00:00:00.000 : en:00:00:00.000 00:05:12.521 : en:00:05:12.521 00:10:52.235 : en:00:10:52.235 00:18:20.766 : en:00:18:20.766 00:22:41.402 : en:00:22:41.402 00:26:47.731 : en:00:26:47.731 00:34:30.860 : en:00:34:30.860 00:42:39.640 : en:00:42:39.640 00:46:31.789 : en:00:46:31.789 00:51:59.491 : en:00:51:59.491 00:56:16.498 : en:00:56:16.498 01:00:17.948 : en:01:00:17.948 01:05:47.902 : en:01:05:47.902 01:12:34.934 : en:01:12:34.934 01:17:29.645 : en:01:17:29.645 01:21:32.846 : en:01:21:32.846 01:25:23.118 : en:01:25:23.118 01:31:16.137 : en:01:31:16.137 01:37:19.500 : en:01:37:19.500 01:45:38.123 : en:01:45:38.123

mrutor.org

Скачать торрент Тайна в их глазах / Secret in Their Eyes (2015) BDRip 720p от Scarabey

Год выпуска: 2015Страна: СШАЖанр: триллер, детективПродолжительность: 01:51:39Перевод: Профессиональный (полное дублирование) [iTunes]Субтитры: англ. (обычные + sdh) + франц. + исп.

Режиссер: Билли Рэй / Billy Ray

В ролях: Чиветель Эджиофор, Николь Кидман, Джулия Робертс, Дин Норрис, Альфред Молина, Джо Коул, Майкл Келли, Зои Грэм, Патрик Дэвис, Эйлин Фогарти

Описание: Привычное течение жизни дружной команды федералов нарушает страшная трагедия: жестоко убита дочь следователя Джесс… Доказательств недостаточно, и подозреваемого приходится отпустить. Но Рэй, напарник Джесс, безнадежно влюбленный в их начальницу, не оставляет попыток докопаться до истины. И вот спустя десятилетие появляется шанс раскрыть тайну гибели девушки. У правосудия, мести и любви нет сроков давности.

Качество видео: BDRip 720p (VietHD)Формат видео: MKV

Видео: 1280х534, 23.976 fps, AVC, ~4734 kbps avgАудио: 48 kHz, AC3 Dolby Digital, 3/2 (L,C,R,l,r) + LFE ch, ~384.00 kbps avg - дубляжАудио: 48 kHz, DTS, 3/2 (L,C,R,l,r) + LFE ch, ~1536 kbps avg - оригиналАудио: 48 kHz, AC3 Dolby Digital, 2/0 (L,R) ch, ~384 kbps - комментарии

Релиз от:

АНОНСЫ МОИХ РАЗДАЧ!

МедиаИнфо

Secret.in.their.Eyes.2015_BDRip__[scarabey.org].mkv Format : Matroska File size : 5.57 GiB Duration : 1h 51mn Overall bit rate : 7 145 Kbps Encoded date : UTC 2016-02-11 20:38:21 Writing application : mkvmerge v6.1.0 ('Old Devil') built on Mar 4 2013 09:10:42 Writing library : libebml v1.3.0 + libmatroska v1.4.0

Video Format : AVC Format/Info : Advanced Video Codec Format profile : [email protected] Format settings, CABAC : Yes Format settings, ReFrames : 12 frames Muxing mode : Container [email protected] Codec ID : V_MPEG4/ISO/AVC Duration : 1h 51mn Bit rate : 4 734 Kbps Width : 1 280 pixels Height : 534 pixels Display aspect ratio : 2.35 Frame rate : 23.976 fps Resolution : 24 bits Colorimetry : 4:2:0 Scan type : Progressive Writing library : x264 core 148 r2665kMod a01e339 Encoding settings : cabac=1 / ref=12 / deblock=1:-3:-3 / analyse=0x3:0x133 / me=umh / subme=10 / psy=1 / fade_compensate=0.00 / psy_rd=1.10:0.00 / mixed_ref=1 / me_range=24 / chroma_me=1 / trellis=2 / 8x8dct=1 / cqm=0 / deadzone=21,11 / fast_pskip=0 / chroma_qp_offset=-2 / threads=12 / lookahead_threads=3 / sliced_threads=0 / nr=0 / decimate=0 / interlaced=0 / bluray_compat=0 / constrained_intra=0 / fgo=0 / bframes=11 / b_pyramid=2 / b_adapt=2 / b_bias=0 / direct=3 / weightb=1 / open_gop=0 / weightp=2 / keyint=250 / keyint_min=23 / scenecut=40 / intra_refresh=0 / rc_lookahead=60 / rc=crf / mbtree=0 / crf=16.8000 / qcomp=0.65 / qpmin=0 / qpmax=69 / qpstep=4 / vbv_maxrate=62500 / vbv_bufsize=78125 / crf_max=0.0 / nal_hrd=none / filler=0 / ip_ratio=1.30 / pb_ratio=1.20 / aq=3:0.75

Audio #1 Format : AC-3 Format/Info : Audio Coding 3 Codec ID : A_AC3 Duration : 1h 51mn Bit rate mode : Constant Bit rate : 384 Kbps Channel(s) : 2 channels Channel positions : L R Sampling rate : 48.0 KHz Title : Дубляж - Line Language : Russian

Audio #2 Format : DTS Format/Info : Digital Theater Systems Codec ID : A_DTS Duration : 1h 51mn Bit rate mode : Constant Bit rate : 1 536 Kbps Channel(s) : 6 channels Channel positions : Front: L C R, Surround: L R, LFE Sampling rate : 48.0 KHz Resolution : 24 bits Title : Оригинал

Audio #3 Format : AC-3 Format/Info : Audio Coding 3 Format profile : Dolby Digital Codec ID : A_AC3 Duration : 1h 51mn Bit rate mode : Constant Bit rate : 192 Kbps Channel(s) : 2 channels Channel positions : L R Sampling rate : 48.0 KHz Title : Audio Commentary by Director Billy Ray and Producer Mark Johnson.

Text #1 Format : UTF-8 Codec ID : S_TEXT/UTF8 Codec ID/Info : UTF-8 Plain Text Title : Оригинал

Text #2 Format : UTF-8 Codec ID : S_TEXT/UTF8 Codec ID/Info : UTF-8 Plain Text Title : Оригинал SDH

Text #3 Format : UTF-8 Codec ID : S_TEXT/UTF8 Codec ID/Info : UTF-8 Plain Text Title : Французский Language : French

Text #4 Format : UTF-8 Codec ID : S_TEXT/UTF8 Codec ID/Info : UTF-8 Plain Text Title : Испанский Language : Spanish

Chapters Language : English 1 : 00:00:00.000 00:00:00.000 2 : 00:05:12.521 00:05:12.521 3 : 00:10:52.235 00:10:52.235 4 : 00:18:20.766 00:18:20.766 5 : 00:22:41.402 00:22:41.402 6 : 00:26:47.731 00:26:47.731 7 : 00:34:30.860 00:34:30.860 8 : 00:42:39.640 00:42:39.640 9 : 00:46:31.789 00:46:31.789 10 : 00:51:59.491 00:51:59.491 11 : 00:56:16.498 00:56:16.498 12 : 01:00:17.948 01:00:17.948 13 : 01:05:47.902 01:05:47.902 14 : 01:12:34.934 01:12:34.934 15 : 01:17:29.645 01:17:29.645 16 : 01:21:32.846 01:21:32.846 17 : 01:25:23.118 01:25:23.118 18 : 01:31:16.137 01:31:16.137 19 : 01:37:19.500 01:37:19.500 20 : 01:45:38.123 01:45:38.123

mrutor.org

Скачать торрент Тайна в их глазах / Secret in Their Eyes (2015) BDRip 720p

Тайна в их глазах / Secret in Their EyesСтрана: СШАЖанр: Триллер, ДетективГод выпуска: 2015Продолжительность: 01:51:39Перевод: Профессиональный (дублированный) | iTunesОригинальная аудиодорожка: АнглийскаяCубтитры: английскиеРежиссер: Билли Рэй / Billy RayВ ролях: Чиветел Эджиофор, Николь Кидман, Джулия Робертс, Дин Норрис, Альфред Молина, Джо Коул, Майкл Келли, Зои Грэм, Патрик Дэвис, Эйлин ФогартиОписание: Привычное течение жизни дружной команды федералов нарушает страшная трагедия: жестоко убита дочь следователя Джесс… Доказательств недостаточно, и подозреваемого приходится отпустить. Но Рэй, напарник Джесс, безнадежно влюбленный в их начальницу, не оставляет попыток докопаться до истины. И вот спустя десятилетие появляется шанс раскрыть тайну гибели девушки. У правосудия, мести и любви нет сроков давности.Качество: BDRip 720p \| MurtiniКонтейнер: MKVВидео: MPEG-4 AVC, 1280x534 (2.40:1), 23.976 fps, ~5728 kbps avg, 0.334 bit/pixelАудио 1: 48 kHz, AC3 Dolby Digital, 3/2 (L,C,R,l,r) + LFE ch, ~384 kbpsАудио 2: 48 kHz, DTS, 3/2 (L,C,R,l,r) + LFE ch, ~1509 kbps avgСубтитры: srt

Сэмпл

http://sendfile.su/1206666

MediaInfo

Уникальный идентификатор : 199417590615555580616987367053471554773 (0x96066E50CCB82B19BACDC5C8A3389CD5) Полное имя : E:V.tempSecret.in.Their.Eyes.2015.Blu-ray.1080p.AVC.DTS-HD.MA.5.1-HDAreaSecret.in.Their.Eyes.2015.BluRay.720p.DD5.1.x264.mkv Формат : Matroska Версия формата : Version 4 / Version 2 Размер файла : 5,95 Гбайт Продолжительность : 1 ч. 51 м. Общий поток : 7623 Кбит/сек Название фильма : Secret.in.Their.Eyes.2015.BluRay.720p.DD5.1x264-Murtini Дата кодирования : UTC 2016-02-22 21:15:56 Программа кодирования : mkvmerge v7.7.0 ('Six Voices') 32bit built on Feb 28 2015 23:23:00 Библиотека кодирования : libebml v1.3.1 + libmatroska v1.4.2 Обложка : Yes Attachments : cover.jpg

Видео Идентификатор : 1 Формат : AVC Формат/Информация : Advanced Video Codec Профиль формата : [email protected] Параметр CABAC формата : Да Параметр ReFrames формата : 12 кадров Идентификатор кодека : V_MPEG4/ISO/AVC Продолжительность : 1 ч. 51 м. Битрейт : 5728 Кбит/сек Ширина : 1280 пикселей Высота : 534 пикселя Соотношение сторон : 2,40:1 Режим частоты кадров : Постоянный Частота кадров : 23,976 (24000/1001) кадра/сек Цветовое пространство : YUV Субдискретизация насыщенности : 4:2:0 Битовая глубина : 8 бит Тип развёртки : Прогрессивная Бит/(Пиксели*Кадры) : 0.350 Размер потока : 4,47 Гбайт (75%) Заголовок : Secret.in.Their.Eyes.2015.BluRay.720p.DD5.1x264-Murtini Библиотека кодирования : x264 core 148 r2638 7599210 Настройки программы : cabac=1 / ref=12 / deblock=1:-2:-1 / analyse=0x3:0x133 / me=umh / subme=11 / psy=1 / psy_rd=1.05:0.10 / mixed_ref=1 / me_range=32 / chroma_me=1 / trellis=2 / 8x8dct=1 / cqm=0 / deadzone=21,11 / fast_pskip=0 / chroma_qp_offset=-4 / threads=6 / lookahead_threads=1 / sliced_threads=0 / nr=0 / decimate=1 / interlaced=0 / bluray_compat=0 / constrained_intra=0 / bframes=9 / b_pyramid=2 / b_adapt=2 / b_bias=0 / direct=1 / weightb=1 / open_gop=0 / weightp=2 / keyint=230 / keyint_min=21 / scenecut=40 / intra_refresh=0 / rc_lookahead=60 / rc=crf / mbtree=0 / crf=17.0 / qcomp=0.70 / qpmin=0 / qpmax=69 / qpstep=4 / vbv_maxrate=30000 / vbv_bufsize=40000 / crf_max=0.0 / nal_hrd=none / filler=0 / ip_ratio=1.35 / pb_ratio=1.25 / aq=2:0.90 Язык : English Default : Да Forced : Нет

Аудио #1 Идентификатор : 2 Формат : AC-3 Формат/Информация : Audio Coding 3 Расширение режима : CM (complete main) Параметр Endianness формата : Big Идентификатор кодека : A_AC3 Продолжительность : 1 ч. 51 м. Вид битрейта : Постоянный Битрейт : 384 Кбит/сек Каналы : 6 каналов Расположение каналов : Front: L C R, Side: L R, LFE Частота : 48,0 КГц Частота кадров : 31,250 кадров/сек (1536 spf) Метод сжатия : С потерями Размер потока : 306 Мбайт (5%) Заголовок : [email protected] Язык : Russian Default : Да Forced : Нет

Аудио #2 Идентификатор : 3 Формат : DTS Формат/Информация : Digital Theater Systems Режим : 16 Параметр Endianness формата : Big Идентификатор кодека : A_DTS Продолжительность : 1 ч. 51 м. Вид битрейта : Постоянный Битрейт : 1509 Кбит/сек Каналы : 6 каналов Расположение каналов : Front: L C R, Side: L R, LFE Частота : 48,0 КГц Частота кадров : 93,750 кадра/сек (512 spf) Битовая глубина : 24 бит Метод сжатия : С потерями Размер потока : 1,18 Гбайт (20%) Заголовок : [email protected] Язык : English Default : Нет Forced : Нет

Текст Идентификатор : 4 Формат : UTF-8 Идентификатор кодека : S_TEXT/UTF8 Идентификатор кодека/Информация : UTF-8 Plain Text Продолжительность : 1 ч. 46 м. Битрейт : 56 бит/сек Count of elements : 1332 Размер потока : 44,3 Кбайт (0%) Язык : English Default : Да Forced : Нет

Меню 00:00:00.000 : en:00:00:00.000 00:05:12.521 : en:00:05:12.521 00:10:52.235 : en:00:10:52.235 00:18:20.766 : en:00:18:20.766 00:22:41.402 : en:00:22:41.402 00:26:47.731 : en:00:26:47.731 00:34:30.860 : en:00:34:30.860 00:42:39.640 : en:00:42:39.640 00:46:31.789 : en:00:46:31.789 00:51:59.491 : en:00:51:59.491 00:56:16.498 : en:00:56:16.498 01:00:17.948 : en:01:00:17.948 01:05:47.902 : en:01:05:47.902 01:12:34.934 : en:01:12:34.934 01:17:29.645 : en:01:17:29.645 01:21:32.846 : en:01:21:32.846 01:25:23.118 : en:01:25:23.118 01:31:16.137 : en:01:31:16.137 01:37:19.500 : en:01:37:19.500 01:45:38.123 : en:01:45:38.123

krutor.org

Скачать торрент Тайна в их глазах / Secret in Their Eyes (2015) BDRip 720p

Информация о фильмеНазвание: Тайна в их глазах Оригинальное название: Secret in Their EyesГод выхода: 2015Жанр: триллер, детективРежиссер: Билли РэйВ ролях: Чиветель Эджиофор, Николь Кидман, Джулия Робертс, Дин Норрис, Альфред Молина, Джо Коул, Майкл Келли, Зои Грэм, Патрик Дэвис, Эйлин Фогарти

О фильме: Привычное течение жизни дружной команды федералов нарушает страшная трагедия: жестоко убита дочь следователя Джесс… Доказательств недостаточно, и подозреваемого приходится отпустить. Но Рэй, напарник Джесс, безнадежно влюбленный в их начальницу, не оставляет попыток докопаться до истины. И вот спустя десятилетие появляется шанс раскрыть тайну гибели девушки. У правосудия, мести и любви нет сроков давности.

Выпущено: США / Gran Via, IM Global, Ingenious Media, Route One Films, SITE Productions, Union Investment Partners, Willie's MoviesПродолжительность: 01:51:40Озвучивание: Дублированное [Line]

ФайлФормат: MKVКачество: BDRip 720pВидео: MPEG-4 AVC, 5496 kb/s, 1280x536Аудио: Russian: AC3, 384 kb/s (2 ch) / English: DTS, 1510 kb/s (6 ch)

MI

Format : Matroska Format version : Version 2 File size : 5.76 GiB Duration : 1h 51mn Overall bit rate : 7 391 Kbps Encoded date : UTC 2016-02-10 08:50:38 Writing application : mkvmerge v7.8.0 ('River Man') 32bit built on Apr 3 2015 12:11:22 Writing library : libebml v1.3.1 + libmatroska v1.4.2

Video ID : 1 Format : AVC Format/Info : Advanced Video Codec Format profile : [email protected] Format settings, CABAC : Yes Format settings, ReFrames : 5 frames Codec ID : V_MPEG4/ISO/AVC Duration : 1h 51mn Bit rate : 5 496 Kbps Width : 1 280 pixels Height : 536 pixels Display aspect ratio : 2.40:1 Frame rate mode : Constant Frame rate : 23.976 fps Color space : YUV Chroma subsampling : 4:2:0 Bit depth : 8 bits Scan type : Progressive Bits/(Pixel*Frame) : 0.334 Stream size : 4.17 GiB (72%) Writing library : x264 core 148 r2665 a01e339 Encoding settings : cabac=1 / ref=5 / deblock=1:0:0 / analyse=0x3:0x133 / me=umh / subme=7 / psy=1 / psy_rd=1.00:0.00 / mixed_ref=1 / me_range=16 / chroma_me=1 / trellis=1 / 8x8dct=1 / cqm=0 / deadzone=21,11 / fast_pskip=0 / chroma_qp_offset=-2 / threads=12 / lookahead_threads=2 / sliced_threads=0 / nr=0 / decimate=1 / interlaced=0 / bluray_compat=0 / constrained_intra=0 / bframes=3 / b_pyramid=2 / b_adapt=1 / b_bias=0 / direct=1 / weightb=1 / open_gop=0 / weightp=2 / keyint=250 / keyint_min=23 / scenecut=40 / intra_refresh=0 / rc_lookahead=40 / rc=2pass / mbtree=1 / bitrate=5496 / ratetol=1.0 / qcomp=0.60 / qpmin=0 / qpmax=69 / qpstep=4 / cplxblur=20.0 / qblur=0.5 / ip_ratio=1.40 / aq=1:1.00 Language : English Default : Yes Forced : No

Audio #1 ID : 2 Format : AC-3 Format/Info : Audio Coding 3 Mode extension : CM (complete main) Format settings, Endianness : Big Codec ID : A_AC3 Duration : 1h 51mn Bit rate mode : Constant Bit rate : 384 Kbps Channel(s) : 2 channels Channel positions : Front: L R Sampling rate : 48.0 KHz Bit depth : 16 bits Compression mode : Lossy Stream size : 307 MiB (5%) Language : Russian Default : Yes Forced : No

Audio #2 ID : 3 Format : DTS Format/Info : Digital Theater Systems Mode : 16 Format settings, Endianness : Big Codec ID : A_DTS Duration : 1h 51mn Bit rate mode : Constant Bit rate : 1 509 Kbps Channel(s) : 6 channels Channel positions : Front: L C R, Side: L R, LFE Sampling rate : 48.0 KHz Bit depth : 24 bits Compression mode : Lossy Stream size : 1.18 GiB (20%) Language : English Default : No Forced : No

Menu 00:00:00.000 : en:00:00:00.000 00:05:12.521 : en:00:05:12.521 00:10:52.235 : en:00:10:52.235 00:18:20.766 : en:00:18:20.766 00:22:41.402 : en:00:22:41.402 00:26:47.731 : en:00:26:47.731 00:34:30.860 : en:00:34:30.860 00:42:39.640 : en:00:42:39.640 00:46:31.789 : en:00:46:31.789 00:51:59.491 : en:00:51:59.491 00:56:16.498 : en:00:56:16.498 01:00:17.948 : en:01:00:17.948 01:05:47.902 : en:01:05:47.902 01:12:34.934 : en:01:12:34.934 01:17:29.645 : en:01:17:29.645 01:21:32.846 : en:01:21:32.846 01:25:23.118 : en:01:25:23.118 01:31:16.137 : en:01:31:16.137 01:37:19.500 : en:01:37:19.500 01:45:38.123 : en:01:45:38.123

krutor.org


Смотрите также